#TITLE:Strangers In The Night;
#SUBTITLE:;
#ARTIST:EMKR x Azael ft. Jaime Deraz;
#TITLETRANSLIT:;
#SUBTITLETRANSLIT:;
#ARTISTTRANSLIT:;
#GENRE:;
#CREDIT:;
#MUSIC:Strangers In The Night.ogg;
#BANNER:Strangers In The Night.png;
#BACKGROUND:Strangers In The Night-bg.png;
#CDTITLE:;
#SAMPLESTART:9.231;
#SAMPLELENGTH:14.779;
#SELECTABLE:YES;
#OFFSET:0.000;
#BPMS:0.000=130.000;
#STOPS:;
#BGCHANGES:0.000=Strangers In The Night.mp4=1.000=0=0=0=StretchNoLoop====,
99999.000=-nosongbg-=1.000=0=0=0=StretchNoLoop====
;
#FGCHANGES:;

//--------------- dance-single - ----------------
#NOTES:
     dance-single:
     darkanine:
     Beginner:
     2:
     0,0,0,0,0:
0000
0000
0000
0000
,
0000
0000
0000
0000
,
0000
0000
0000
0000
,
0000
0000
0000
0000
,
0000
0000
0000
0000
,
0000
1000
1000
1000
,
0000
0001
0001
0001
,
0000
0100
0100
0000
,
0010
0000
1000
0000
,
0000
0001
0001
0001
,
0000
0100
0100
0000
,
0000
0010
0010
0010
,
0020
0000
0000
0030
,
0000
1000
1000
1000
,
0000
0001
0001
0001
,
0000
1000
1000
0000
,
0010
0000
0100
0000
,
0000
0001
0001
0001
,
0000
1000
1000
0000
,
0000
0100
0100
0100
,
0200
0000
0300
0000
,
1001
0000
0000
0000
,
0000
0000
0000
0000
,
1000
0000
0000
0000
,
0010
0000
0000
0000
,
0001
0000
0000
0000
,
0010
0000
0000
0000
,
0100
0000
0000
0000
,
0001
0000
0000
0000
,
0010
0000
0000
0000
,
0000
0000
0000
0000
,
0001
0000
0001
0000
,
1000
0000
0100
0000
,
0010
0000
0010
0000
,
0100
0000
1000
0000
,
0010
0000
0010
0000
,
0100
0000
0001
0000
,
1000
0000
1000
0000
,
0100
0000
1000
0000
,
1000
1000
1000
0000
,
0001
0001
0001
0000
,
0100
0100
0100
0000
,
0010
0010
0010
0000
,
1000
0000
0001
0000
,
1000
0000
0001
0000
,
2000
0000
0000
0000
,
3001
0001
0001
0000
,
0000
1000
1000
1000
,
0000
0100
0100
0100
,
0000
0010
0010
0000
,
0001
0000
1000
0000
,
0000
0001
0001
0001
,
0000
0100
0100
0000
,
0000
0010
0010
0010
,
0000
0000
0000
0000
,
0000
1000
1000
1000
,
0000
0001
0001
0001
,
0000
0100
0100
0000
,
0010
0000
0100
0000
,
0000
0001
0000
0100
,
0000
1000
0000
0100
,
0000
0010
0000
0100
,
0000
0010
0010
0000
,
1001
0000
0000
0000
;

//--------------- dance-single - ----------------
#NOTES:
     dance-single:
     darkanine:
     Easy:
     5:
     0,0,0,0,0:
0000
0000
0000
0000
,
0000
0000
0000
0000
,
0000
0000
0000
0000
,
0000
0000
0000
0000
,
0100
0100
0100
0000
,
1001
1000
0010
0100
,
0001
0010
0100
0100
,
1000
0100
0010
0100
,
0001
0001
0100
1000
,
1000
0010
0100
0001
,
0001
0010
0100
1000
,
1000
0100
0010
0100
,
1000
1000
1000
0000
,
0001
0100
0010
0010
,
1000
0100
0010
0010
,
0001
0010
1000
0010
,
0100
0100
1000
0000
,
0001
0100
1000
0100
,
0001
1000
0010
0001
,
0010
1000
0001
0001
,
0020
0100
0130
0000
,
1001
0000
0000
0000
,
0000
0000
0000
0000
,
1000
1000
0010
0010
,
0100
0100
0001
0001
,
0010
0010
0001
0001
,
1000
1000
0100
0100
,
1000
1000
0001
0001
,
0100
0100
0010
0010
,
1000
1000
1000
1000
,
2000
0000
3000
0000
,
0001
0100
0010
0010
,
1000
0010
0100
0100
,
0001
0010
0100
0100
,
0010
0001
0100
0010
,
1000
0001
0100
0100
,
0001
1000
0010
0010
,
0100
0001
0010
0010
,
0100
1000
0001
1000
,
0001
0001
0001
0001
,
1000
1000
1000
1000
,
0010
0010
0010
0010
,
0100
0100
0100
0000
,
0001
0100
0010
1000
,
0001
0010
0100
1000
,
0001
1000
1000
1000
,
0000
0000
0000
0000
,
1001
0001
0001
0001
,
0100
0010
1000
1000
,
0100
1000
0001
0001
,
0010
0001
0100
0000
,
0010
1000
0010
0010
,
1000
0001
0010
0100
,
1000
0001
1000
1000
,
1001
0000
0000
0000
,
0110
1000
0010
0100
,
0010
0001
0010
0010
,
0100
0001
0100
1000
,
0110
0000
1001
0000
,
1000
0100
0001
0100
,
1000
0010
0001
0001
,
1000
0100
0001
0100
,
0010
0000
0100
0110
,
1001
0000
0000
0000
;

//--------------- dance-single - Pandemonium X ----------------
#NOTES:
     dance-single:
     Pandemonium X:
     Medium:
     8:
     0,0,0,0,0:
0000
0000
0000
0000
,
0000
0000
0000
0000
,
0000
0000
0000
0000
,
0000
0000
0000
0000
,
0010
0010
0100
1001
,
0001
0101
1010
0101
,
0001
0000
0011
0000
1000
0100
1000
0000
,
1001
0000
1010
0000
1001
0000
1000
0100
,
0110
1100
1001
0002
,
0103
0110
0101
0011
,
0001
1000
0100
0010
0110
0000
1100
0000
,
1001
0001
0100
0000
1010
0000
0101
0000
,
0002
0013
0200
1300
,
0110
0000
1000
0000
0001
0100
0001
0000
,
1000
0000
0010
0000
1000
0001
0010
0000
,
0100
0000
0010
0000
0100
1000
0100
0010
,
0001
0001
0011
1100
,
0000
1001
1001
0101
,
1001
0000
1000
0000
0001
0000
0000
0000
1000
0000
0000
1000
0000
0000
1000
0000
,
0010
0100
0101
0000
1010
0000
0101
0000
,
2000
0000
0100
0000
0010
0000
3001
1000
,
1001
0000
0000
0000
,
0000
0000
0000
0000
,
2000
0000
0000
3001
0000
0000
0200
0000
,
0320
0000
0000
1030
0000
0000
0020
0000
,
0130
0000
0001
0020
0000
0000
0030
0000
,
0100
0000
0010
0000
,
0002
0000
0000
0013
0000
0000
0002
0000
,
2003
0000
0000
3200
0000
0000
0310
0000
,
0100
1000
0020
0000
0000
0000
0030
0000
,
0000
0000
0000
0000
0100
0010
1000
0001
,
2002
3003
0000
0000
,
0000
0000
0001
0010
,
0001
0000
0100
0010
2000
0000
0100
0200
,
0000
0000
3300
0000
1000
0010
0100
0001
,
2002
3003
0000
0000
,
0000
0000
0001
1000
,
0001
0000
0010
0001
2000
0000
0001
0002
,
0000
0000
3003
0000
1000
0100
0010
0001
,
1002
0100
0010
1003
,
2001
0001
0010
3100
,
1002
0000
0100
0000
0010
0000
0103
0010
,
1000
1000
0001
0001
,
1000
0100
1000
0000
0001
0100
0001
0000
,
1000
0100
1000
0000
0001
0100
0001
0000
,
1000
0010
0100
0000
0100
0000
0100
0000
,
0010
0000
0010
0000
0010
0001
0010
1000
,
1001
0101
0011
0101
,
0001
1000
0100
0000
1000
0001
0010
0000
,
0110
0000
1100
0000
1100
0000
0100
0010
,
0011
1100
0011
0200
,
0310
0110
1010
0110
,
0100
0000
0001
0000
0010
0000
0100
0000
0010
0000
0000
0010
0000
0000
0010
0000
,
0110
1001
1001
1010
,
0002
0103
0002
1003
,
0100
0000
0010
0000
0001
0100
0001
0000
,
0100
0000
0010
0000
0100
0001
1000
0000
,
0100
0000
0010
0000
0100
0000
0010
0001
,
0100
0010
1010
0101
,
0000
0000
0000
1000
0000
0000
1000
0000
0000
0000
0000
0001
0000
0000
0001
0000
,
0000
0000
0000
1000
0000
0000
1000
0000
0000
0000
0001
0000
1000
0000
0001
0000
,
0000
0000
0000
0100
0000
0000
0100
0000
0000
0000
0010
0000
0000
0000
0010
0000
,
0100
0000
0000
0100
0000
0000
0100
0000
0010
0000
0100
0000
0001
0000
1000
0000
,
1001
0000
0000
0000
;

//--------------- dance-single - Pandy vs darkanine ----------------
#NOTES:
     dance-single:
     Pandy vs darkanine:
     Hard:
     12:
     0.474647,0.585687,0.565881,0.226352,0.198058,411,341,70,28,0,0,0.474647,0.585687,0.565881,0.226352,0.198058,411,341,70,28,0,0:
0000
0000
0000
0000
,
0000
0000
0000
0000
,
0000
0000
0000
0000
,
0000
0000
0000
0000
,
0001
0000
0001
0000
1000
0100
0010
0001
,
1000
0101
0101
0101
,
1000
0001
1001
0000
1000
0100
1100
0000
,
0001
0000
1010
0000
1010
0000
1100
0100
,
0011
0000
0000
0000
1001
0000
0000
0000
1100
0000
0000
0000
0001
1000
0001
1000
,
0001
0100
0101
0000
1010
0000
0101
0000
,
1000
0000
0100
0000
1100
0000
0010
0000
0011
0000
0000
0101
0000
0000
1001
0000
,
1000
0010
0110
0000
1001
0000
0110
0000
,
0002
0100
0100
0100
0203
0000
0310
0000
,
1001
0000
0000
0001
0000
0100
0010
1000
0000
1000
0100
0000
0010
0000
0000
0000
,
0110
0000
0000
0100
0000
1000
0010
0100
0000
0100
0001
0000
1000
0000
0000
0000
,
0101
0000
0100
0001
0000
1000
0001
0100
0000
0100
0010
0000
1000
0000
0100
0000
,
0010
0000
0000
0100
0010
0000
0100
0000
0110
0000
0000
0000
1001
0000
0000
0000
,
0201
0000
0000
0000
0310
0000
1000
0000
1100
0000
0000
0100
0010
0000
0001
0000
,
0101
0000
0000
0100
0010
0000
1000
0000
1001
0000
0000
0110
0000
0000
1001
0000
,
0001
0100
0110
1000
1010
0100
0101
0001
,
2000
0000
0100
0000
3001
0100
1000
0100
,
0220
0000
0000
0000
,
0330
0000
0000
0000
,
2000
0000
0000
3002
0000
0000
0010
0000
,
0023
0000
0000
0100
0000
0000
0230
0000
,
1300
0001
0000
0200
0000
0000
0000
0300
,
0010
0010
0010
0010
,
2000
0000
0000
3020
0000
0000
0230
0000
,
0302
0000
0000
2003
0000
0000
3200
0000
,
0310
0001
0000
0020
0000
0000
0100
0000
,
0130
0000
0100
0000
0001
0100
1000
0001
,
2000
3001
1000
1000
,
0001
0000
0001
0000
1000
0010
0001
0010
,
1000
0000
0010
0100
0002
0000
0010
0020
,
0000
0000
0033
0000
0100
0010
0001
1000
,
1001
0000
0000
0000
0001
0000
0000
0001
0000
0000
1000
0000
0000
1000
0000
0000
,
0000
0010
0000
0000
0010
0000
0000
0100
0000
0000
0200
0000
0302
0000
2003
0000
,
3020
0000
0130
0001
2000
0000
3100
0010
,
0000
0000
0100
0100
,
1001
0000
1000
0000
0001
0000
0001
1000
,
0010
0000
0010
0000
0010
0100
0010
0100
,
0001
0000
0001
0000
0001
0000
0001
0010
,
0110
0000
1100
0000
0100
0010
0011
0000
,
1100
1000
0100
1000
0100
0010
0100
1000
,
0100
0010
0001
0010
0100
0010
0001
0010
,
1000
0010
0001
0010
0100
0001
0100
1000
,
0100
0000
0100
0000
0100
0010
0001
1000
,
1010
0001
0101
0000
0101
0000
0101
0000
,
0001
1000
1100
0000
1100
0010
1100
0000
,
1000
0001
1010
0000
1010
0000
1010
0001
,
1001
0000
0000
0000
1010
0000
0000
0000
0101
0000
0000
0000
0001
1000
0001
1000
,
0001
1000
1100
0000
1001
0000
1100
0000
,
1010
0000
1000
0000
1100
0000
0010
0000
0011
0000
0000
0101
0000
0000
1000
0000
,
1100
1000
1010
0000
1010
0000
1010
0000
,
0002
0000
0000
0000
1003
0100
0010
0001
,
1001
0000
0000
1000
0000
0100
0010
0100
0000
1000
0001
1000
0001
0000
0000
0000
,
1000
0000
1000
0001
0000
0100
0010
0100
0000
0001
1000
0010
1000
0000
0000
0000
,
0001
0000
0001
1000
0000
0010
0100
0010
0000
1000
0001
1000
0100
0000
0010
0000
,
0011
0000
0000
0010
0001
0000
0010
0000
0012
0000
0000
0000
0103
0000
0000
0000
,
1000
0000
1000
0010
1000
0000
0100
0000
0000
0000
0000
0010
0000
0000
0010
0000
,
0000
0000
0000
0001
0000
0000
0001
0000
0100
0010
1000
0010
0100
0000
0001
0000
,
0010
0000
0000
0100
0000
0000
0100
0000
0000
0000
1000
0000
0000
0000
1000
0000
,
0001
0000
0000
0001
0000
0000
0001
0000
1000
0000
0100
0000
0010
0000
0001
0000
,
1001
0000
0000
0000
;

//--------------- dance-single - Pandy vs darkanine ----------------
#NOTES:
     dance-single:
     Pandy vs darkanine:
     Challenge:
     14:
     0.591288,0.763939,0.614385,0.234436,0.408242,512,436,76,29,0,0,0.591288,0.763939,0.614385,0.234436,0.408242,512,436,76,29,0,0:
0000
0000
0000
0000
,
0000
0000
0000
0000
,
0000
0000
0000
0000
,
0000
0000
0000
0000
,
0001
0000
0001
0000
2000
3020
0230
0320
,
1030
0011
0011
0011
,
0001
1000
1010
0000
0101
0001
1000
0000
,
1001
0000
1010
0000
1010
0000
1010
1000
,
0110
0000
0000
0000
0110
0000
0000
0000
1001
0000
0000
0000
1000
0010
0100
0010
,
1000
0001
1010
0000
1010
0000
1010
0000
,
0001
0000
1000
0000
0101
0000
0010
0000
0110
0000
0000
1000
0001
0000
0110
0000
,
1000
0100
0011
0000
0011
0000
0011
0000
,
0001
0010
0001
0010
0100
1000
0100
1000
0002
0000
0000
0000
0103
0000
0000
0000
,
1001
0000
0000
1000
0010
0100
0001
1000
0010
0100
0010
1000
0001
0000
0000
0000
,
1010
0000
0000
0000
0000
0000
0000
0000
1000
0000
0001
0000
0100
0000
0010
0000
1000
0000
0100
0000
0010
0001
0010
0000
0001
0000
0000
0000
0000
0000
0000
0000
,
1001
0000
1000
0100
0010
0001
0100
0010
1000
0100
0010
0001
1000
0000
0001
0000
,
0101
0000
0000
1000
0010
0000
0100
0000
0001
0000
0000
0000
1001
0000
0000
0000
,
2100
0000
0000
0000
3001
0000
0010
0000
1001
0000
0000
0001
0100
0000
0001
0000
,
0101
0000
1000
0100
0010
0000
0100
0000
1100
0000
1000
0010
0100
0000
0001
0000
,
1001
0010
0110
0001
1001
0100
0110
1000
,
2001
0000
0100
0000
3100
0010
0110
0000
,
2002
0000
0000
0000
,
0000
0000
0000
3003
,
1000
0000
0100
0001
0100
0000
0010
0001
,
0010
0000
0001
0100
0001
0000
0100
1000
,
0100
0001
2000
0000
0100
0000
3100
0000
,
1000
0010
0001
0100
,
2000
0000
3001
0200
0001
0300
2001
0000
,
3002
0000
1003
0200
1000
0300
1002
0000
,
1003
0001
0200
0000
0010
0000
0310
0000
,
0100
0000
0100
0000
0010
0100
0001
1000
,
0001
0010
0001
0000
1000
0010
0000
1000
0001
0000
1000
0100
0000
1000
0001
1000
,
0000
0001
1000
0000
0001
0010
0000
0001
1000
0000
0001
0100
0000
0010
1000
0000
,
0001
1000
0001
0000
1000
0100
0000
1000
0001
0000
0010
0100
0000
0100
1000
0001
,
0000
1000
0010
0000
1000
0100
0000
1000
0001
0000
0010
0000
0100
0000
1000
0000
,
0001
1000
0100
0000
0010
0100
0000
1000
0100
0000
0010
0100
0000
1000
0200
0000
,
1300
0001
0100
0000
0010
0100
0000
0001
0100
0000
0010
0100
0000
0001
0010
0100
,
1000
0001
0010
0000
0100
0010
0000
0001
0010
0000
0100
0010
0000
0001
2000
0000
,
3010
0100
0001
0000
0000
1000
0000
0000
0001
0000
0000
0000
1000
0000
1000
0000
,
2001
0000
0010
0000
0001
0000
3010
1000
,
1002
0000
0010
0000
1000
0000
0013
0001
,
2001
0000
0100
0000
0001
0000
3100
1000
,
1002
0000
0100
0000
1000
1003
0110
0000
,
0001
0100
0001
0000
1000
0001
1000
0000
0100
1000
0100
0000
0010
0100
0010
0100
,
1000
0100
1000
0000
0001
0100
0001
0000
0100
0010
0100
0000
0001
1000
0001
1000
,
0001
0100
0110
0000
0110
0000
0110
0000
,
0001
0000
0001
0000
2000
3200
0320
0230
,
1300
0010
0011
0000
1010
0000
0011
0000
,
0010
1000
1100
0000
0110
0100
1100
0000
,
0001
0010
1010
0000
0011
0000
1010
0010
,
0110
0000
0000
0000
1100
0000
0000
0000
1001
0000
0000
0000
1000
0100
0010
0100
,
1000
0100
0101
0000
1100
0000
0101
0000
,
0100
0000
0010
0000
0011
0000
1000
0000
1010
0000
0000
0011
0000
0000
1100
0000
,
1001
1000
1010
0000
1010
0000
0101
0000
,
0002
0000
0203
0000
0310
1000
0001
0010
,
0100
0000
0000
1000
0100
0010
0001
1000
0100
0010
0001
1000
0001
0000
0000
0000
,
1001
0000
0000
0000
1000
0000
0001
0000
0100
0000
0010
0000
1000
0000
0001
0000
0100
0000
0010
0000
1000
0001
1000
0000
0001
0000
0000
0000
0000
0000
0000
0000
,
1001
0000
0001
1000
0100
0010
0001
1000
0100
0010
0001
1000
0100
0000
0010
0000
,
0011
0000
0000
0001
1000
0000
0001
0000
0101
0000
0000
0000
0110
0000
0000
0000
,
1000
0000
1000
0001
1000
0000
0100
0000
0010
0000
0000
0001
0100
0000
0010
0000
,
1000
0000
0000
0100
0010
0000
0100
0000
1000
0001
0100
0001
0010
0000
0001
0000
,
1000
0000
0000
0010
0100
0000
0001
0000
1000
0000
0100
0000
0001
0000
0100
0000
,
0010
0000
0000
0010
0000
0000
0010
0000
1000
0000
0010
0000
0001
0000
0100
0000
,
0110
0000
0000
0000
;
