#TITLE:Splash!;
#SUBTITLE:;
#ARTIST:BEMANI Sound Team "Trance Liquid";
#TITLETRANSLIT:;
#SUBTITLETRANSLIT:;
#ARTISTTRANSLIT:Trance Liquid;
#GENRE:;
#CREDIT:;
#MUSIC:Splash!.ogg;
#BANNER:;
#BACKGROUND:;
#CDTITLE:;
#SAMPLESTART:80.041;
#SAMPLELENGTH:12.324;
#SELECTABLE:YES;
#OFFSET:-0.041;
#BPMS:0.000=156.000;
#STOPS:;
#BGCHANGES:;
#FGCHANGES:;

//--------------- dance-single - Pandemonium X ----------------
#NOTES:
     dance-single:
     Pandemonium X:
     Beginner:
     2:
     0,0,0,0,0:
0000
0000
0000
0000
,
0000
0000
0000
0000
,
0000
0000
0000
0000
,
0000
0000
0000
0000
,
0000
0000
0000
0000
,
0000
0000
0000
0000
,
0000
0000
0000
0000
,
0000
0000
0000
0000
,
0000
0000
0000
0000
,
0001
0000
0000
0000
,
1000
0000
0000
0000
,
0010
0000
0000
0000
,
0000
0000
0000
0000
,
0100
0000
0000
0000
,
0000
0000
0000
0000
,
0010
0000
0000
0000
,
1000
0000
0000
0000
,
1001
0000
0000
0000
,
0000
0000
0000
0100
,
1001
0000
0001
0000
,
1000
0000
0000
0110
,
0100
0000
0010
0000
,
1000
0000
0000
1001
,
0001
0000
1000
0000
,
0010
0000
0000
0110
,
0100
0000
0010
0000
,
1000
0000
0000
1001
,
0001
0000
0000
0000
,
0010
0000
0001
0000
,
0100
0000
0000
0000
,
0000
0000
0000
0010
,
1000
0000
0000
0000
,
0000
0000
0001
0000
,
1000
0000
0000
0000
,
0100
0000
0010
0000
,
1001
0000
0000
0000
,
0001
0000
0100
0000
,
0010
0000
0000
0000
,
0000
0000
1000
0000
,
0001
0000
0000
0000
,
0000
0000
0010
0000
,
0100
0000
0000
0000
,
1000
0000
0001
0000
,
0110
0000
0000
0000
,
1000
0000
0000
0000
,
0001
0000
0000
0000
,
0000
0010
0000
0000
,
0100
0000
0000
0000
,
1000
0000
0000
0000
,
0100
0000
0000
0000
,
1000
0000
0001
0000
,
0110
0000
0000
0000
,
1000
0000
0000
0000
,
0001
0000
0000
0000
,
0010
0000
0000
0000
,
0100
0000
0000
0000
,
0010
0000
0000
0000
,
0001
0000
0000
0000
,
1000
0000
0000
0000
,
0001
1000
0001
0110
,
1001
0000
0000
0000
,
1000
0000
0001
0000
,
0100
0000
0000
0000
,
0000
0000
0000
0010
,
1000
0000
0100
0000
,
0010
0000
0000
0000
,
0001
0000
0010
0000
,
0100
0000
0000
0000
,
1001
0000
0000
0000
,
0001
0000
0000
0000
,
1000
0000
0000
0000
,
0010
0000
0100
0000
;

//--------------- dance-single - Pandemonium X ----------------
#NOTES:
     dance-single:
     Pandemonium X:
     Easy:
     6:
     0,0,0,0,0:
0000
0000
0000
0000
,
0000
0000
0000
0000
,
0000
0000
0000
0000
,
0000
0000
0000
0000
,
0000
0000
0000
0000
,
0000
0000
0000
0000
,
0000
0000
0000
0000
,
0000
0000
0000
0000
,
0000
0000
0000
0000
,
0001
1000
0001
1000
,
0010
0100
0010
0100
,
0001
0100
0001
0100
,
0010
1000
0010
1000
,
0100
0010
0001
0010
,
0100
1000
0100
1000
,
0100
0010
0001
0010
,
0100
1000
0100
0010
,
2002
0000
0000
0000
,
0000
0000
0000
0000
3003
0000
0020
0030
,
1001
1000
0001
0010
,
0001
1000
0010
1001
,
1000
0001
0100
0001
,
1000
0100
1000
1001
,
0001
0100
0010
1000
,
0100
0010
0001
1001
,
0001
0100
0010
1000
,
0001
0010
0100
1001
,
0120
0000
0030
0000
,
1010
0000
1100
0000
,
1000
0001
0010
0001
,
1000
0000
0000
0001
,
1000
0010
1000
0100
,
0010
0000
0100
1000
,
0010
0100
0001
0010
,
0100
0000
0000
1000
0000
0000
1001
0000
,
0101
0000
0001
1000
,
0010
0000
1000
0001
,
0010
0100
0010
0001
,
1000
0000
0001
1000
,
0010
1000
0100
1000
,
0001
0000
0010
0001
,
0100
0001
0010
0100
,
1000
0100
0001
0100
,
1100
0000
0000
0000
,
1000
0000
0000
0000
,
0010
0000
0000
0000
,
0100
0002
0000
0000
,
1003
0000
0000
0000
,
0001
0000
0000
0000
,
0010
0000
0000
0000
,
0100
0000
1000
0000
,
0001
1000
0001
0000
0000
0000
0000
0000
,
1000
0001
0100
0001
,
0010
0100
1000
0010
,
0100
0010
1000
0001
,
0010
0100
0010
0001
,
1000
0010
1000
0001
,
0010
0100
0010
0001
,
0100
0010
1000
0001
,
1000
0000
0001
0000
0100
0010
0100
0000
,
1001
0000
0000
0000
,
1100
0000
0011
0000
,
0001
0100
0001
1000
,
0100
0000
0000
0010
,
0100
1000
0001
0100
,
0010
0000
0100
0010
,
1000
0001
0010
0001
,
1000
0000
0000
0001
0000
0000
1000
0000
,
1020
0000
0130
0000
,
0021
0000
0130
0000
,
0010
0001
1000
0010
,
0100
0010
1000
0001
;

//--------------- dance-single - Pandemonium X ----------------
#NOTES:
     dance-single:
     Pandemonium X:
     Medium:
     11:
     0,0,0,0,0:
0000
0000
0000
0000
,
0000
0000
0000
0000
,
0000
0000
0000
0000
,
0000
0000
0000
0000
,
0000
0000
0000
0000
,
0000
0000
0000
0000
,
0000
0000
0000
0000
,
0000
0000
0000
0000
,
0000
0000
0000
0000
,
0101
0001
0010
1000
,
0010
0001
0100
0010
,
1000
0100
0001
0100
,
1000
0010
0100
0001
,
1000
0100
0001
0100
,
1000
0001
1000
0001
,
0010
1000
0010
0001
,
0100
0010
1000
0001
,
0220
0000
0000
0330
,
1000
0000
0010
0000
1000
0001
0020
0000
,
0130
0000
1000
1000
1000
0000
0001
0000
,
1000
0000
0001
0001
0001
0000
0110
0000
,
0100
0000
0010
0010
0010
0000
0100
0100
,
0100
0000
0010
0010
0010
0000
1001
0000
,
0001
0100
0001
1000
0100
0000
0010
0000
,
0001
0020
0000
0130
1000
0001
0101
0000
,
0001
1000
0010
0000
1000
0001
0100
0000
,
0001
0100
1000
1100
,
0101
0001
0010
0100
,
0110
0100
1100
1000
,
1001
1000
0010
1000
0001
0010
0100
1000
,
0001
0000
0000
0000
0000
1000
0100
0010
,
0001
0100
0001
0010
0100
1000
0010
1000
,
0001
0000
0000
0000
0000
0000
0000
0000
1000
0000
0000
1000
0000
0000
1000
0000
,
0010
0100
0010
1000
0001
0010
0100
1000
,
0200
0310
0001
1001
,
1010
0000
1000
0000
0001
0010
0100
1000
,
0001
0000
1000
0000
1000
0100
0010
0001
,
0010
0000
0001
0000
0100
0010
0100
0001
,
1000
0000
0001
0000
1000
0100
0010
0001
,
0010
0001
0100
0010
1000
0001
0010
0100
,
1000
0000
0000
0000
0100
0000
0000
0000
1000
0000
0000
1000
0000
0000
1000
0000
,
0010
0100
0010
1000
0001
0010
0100
0010
,
0001
0000
0100
0000
0010
1000
0001
1000
,
2001
0000
0000
3100
0000
1000
0001
0200
,
0000
0000
0000
0310
1000
1000
0001
0010
,
0200
0000
0000
0310
0001
0100
0010
1000
,
0000
0002
0023
0230
,
2300
0000
0000
0100
0000
3010
0000
0000
,
1002
0000
0000
0100
0000
0013
0000
0000
,
2001
0000
0000
0100
0000
3010
0000
0010
,
1000
0000
0000
0100
1000
0100
0010
0001
,
1000
0001
1000
0001
1000
0000
0000
0000
0000
0000
0000
0000
0000
0000
0000
0000
,
0001
0100
0001
0000
0100
0010
0100
0000
,
0010
1000
0010
0000
1000
0000
0001
0000
,
0010
0100
0010
0000
0100
1000
0100
0000
,
1000
0010
1000
0000
0001
0000
1000
0000
,
0001
0010
0100
0000
0010
0001
0100
0000
,
0100
0010
1000
0000
0001
0000
1000
0000
,
0001
1000
0010
0000
0100
0001
0010
0000
,
0110
0000
1001
0000
0100
0010
1001
0000
,
0101
0001
0100
0010
,
1010
0010
0110
0010
,
0100
0010
0010
1000
0001
0001
0010
0100
,
1000
0000
0100
0000
1000
0000
0010
0100
,
0001
0010
0010
0100
1000
1000
0100
1000
,
0010
0000
0000
0000
0100
0000
0000
0000
0001
0000
0000
0001
0000
0000
0001
0000
,
1000
1000
0100
0010
0010
0100
1000
1000
,
0001
0000
0000
0110
0000
0010
1000
0001
,
2001
0000
3200
0000
,
2300
0000
3002
0000
,
2003
3020
0230
0302
,
0023
2030
3020
0002
,
0033
0000
0000
0000
;

//--------------- dance-single - Pandemonium X ----------------
#NOTES:
     dance-single:
     Pandemonium X:
     Hard:
     13:
     0,0,0,0,0:
0000
0000
0000
0000
,
0000
0000
0000
0000
,
0000
0000
0000
0000
,
0000
0000
0000
0000
,
0000
0000
0000
0000
,
0000
0000
0000
0000
,
0000
0000
0000
0000
,
0000
0000
0000
0000
,
0000
0000
0000
0000
,
2100
0100
0100
3100
,
0102
0100
0100
0103
,
0012
0010
0010
0013
,
2010
0010
0010
3010
,
0201
0010
0001
0310
,
1020
0100
1000
0130
,
2001
0010
0001
3010
,
1002
0010
1000
0010
,
1003
0000
0000
0110
0000
0000
0000
0000
,
0001
0001
0001
0000
1000
0000
0200
0000
,
0310
0000
0000
0000
0001
0000
1000
0000
0010
0000
0000
0010
0000
0000
0010
0000
,
0100
0000
0001
1000
0010
0000
1001
0000
,
1000
0000
0001
0000
0001
0000
0010
0000
0100
0000
0000
0100
1000
0000
1000
0000
,
0001
0000
0000
0100
0010
0000
0010
0000
0100
0000
0000
0000
1001
0000
0000
0000
,
0001
0000
1000
0010
1000
0000
0001
0100
0001
0000
1000
0001
1000
0000
0100
0000
,
0020
0000
0000
0000
0000
0000
0000
0031
0100
0000
0010
0000
1001
0000
0000
0000
,
1000
0100
0001
0100
1000
0010
0100
0001
,
1000
1000
1000
0000
0010
0000
1001
0000
,
0202
0000
0000
0303
,
0011
0000
0110
0000
,
0100
0100
1000
0010
0010
0100
0001
0001
,
1000
0000
0000
0000
0000
0001
0010
1000
,
0010
0010
0100
1000
1000
0100
0010
0010
,
0001
0000
0000
0000
0000
0000
0000
0000
0100
0000
0000
1000
0000
0000
0100
0000
,
0001
0001
0100
0010
0010
1000
0001
0010
,
0100
0100
0100
0000
0010
0000
1001
0000
,
1000
0000
0001
0000
0010
1000
0010
0001
,
1000
0000
0001
0000
1000
0010
0001
0010
,
1000
1000
0010
0100
0100
0010
0100
0100
,
0001
0000
0000
0000
0000
0010
0100
1000
,
0001
0001
0010
0100
0100
0010
0001
0001
,
1000
0000
0000
0000
0000
0000
0000
0000
0001
0000
0000
0010
0000
0000
1000
0000
,
0010
0010
0100
1000
1000
0001
0100
0010
,
0100
0000
0000
0010
0100
0000
0000
0100
0010
0000
1000
0000
0001
0000
0010
0000
,
0200
0000
0000
0000
0000
0000
1300
0000
0000
1000
0100
0000
1000
0000
0001
0000
,
0100
0000
0000
0000
0000
0000
0100
0000
0000
0100
0010
0000
1000
0000
0001
0000
,
0010
0000
0000
0100
1000
0001
0100
1000
,
0100
0000
0010
1000
0001
0100
0010
1000
,
0001
0001
0010
0100
0000
1100
0000
0100
,
1000
1000
0010
0100
0000
0101
0000
0001
,
0010
0010
0100
1000
0000
1100
0000
1000
,
0010
0000
0000
1000
0100
0010
0001
1000
,
0001
1000
0001
1000
0001
0000
0000
0000
0000
0000
0000
0000
0000
0000
0000
0000
,
1000
0000
0001
0000
0010
0000
0100
1000
0000
0000
0100
0000
0000
0000
0010
0001
,
0000
0000
1000
0000
0000
0000
0010
1000
0000
0000
0001
0000
0010
0100
0000
0100
,
1000
0000
0001
0000
0100
0000
0010
1000
0000
0000
0001
0000
0000
0010
0000
0010
,
0000
0001
1000
0000
0000
1000
0000
0001
0000
0100
0010
0000
0000
0100
0000
0001
,
1000
0001
1000
0000
0100
0010
0000
0001
0000
0000
0100
0000
0000
0010
0000
0010
,
0000
1000
0001
0000
0000
0010
0000
0010
0000
0010
0001
0000
0000
0000
0100
0000
,
0010
1000
0000
0001
0000
0000
1000
0100
0010
0000
0100
0000
1000
0001
1000
0000
,
1002
0000
0013
0000
2001
0000
3010
0000
0001
0100
0010
1000
0001
0000
0000
0000
,
1000
0100
1000
0000
0100
0000
0000
0000
0010
0000
0000
0000
0001
0000
0000
0000
,
0100
0001
0100
0000
0001
0000
0000
0000
0100
0010
0100
0000
0010
0000
0000
0000
,
0100
0010
0100
0000
0010
0000
1000
0001
1000
0000
0001
0000
0010
0000
0100
0000
,
1000
0000
0000
0000
0000
0000
0000
0000
0000
0000
1000
0100
1000
0000
0001
0000
,
0100
0000
0001
0100
0001
0000
1000
0000
0100
1000
0100
0000
0010
0000
0100
0000
,
1000
0000
0000
0000
0000
0000
0000
0000
0001
0000
0100
0001
0000
0001
0010
0000
,
0100
0010
0100
0000
1000
0000
0100
1000
0100
0000
1000
0000
0001
0100
0001
0000
,
1000
0000
0000
0101
0000
0001
0010
0100
,
1000
0000
0000
0100
0000
0000
1000
0000
0000
0010
0000
0010
0000
0000
0100
0000
,
0001
0000
0000
0010
0000
0000
0100
0000
0000
0010
0000
0010
0000
0000
0001
0000
,
0100
1000
0100
0001
1000
0001
0010
1000
,
0010
0001
0010
0100
1000
0010
1000
0100
;

//--------------- dance-single - Pandemonium X ----------------
#NOTES:
     dance-single:
     Pandemonium X:
     Challenge:
     15:
     0,0,0,0,0:
0000
0000
0000
0000
,
0000
0000
0000
0000
,
0000
0000
0000
0000
,
0000
0000
0000
0000
,
0000
0000
0000
0000
,
0000
0000
0000
0000
,
0000
0000
0000
0000
,
0000
0000
0000
0000
,
0000
0000
0000
0000
0000
0000
0000
0000
0000
0000
0000
0000
0000
0000
0000
1000
,
0001
0000
0000
0001
0010
0000
0000
0010
0100
0000
0000
0100
1000
0000
0000
1000
,
0010
0000
0000
0010
0100
0000
0000
0100
0001
0000
0000
0001
1000
0000
0000
1000
,
0100
0000
0000
0100
0010
0000
0000
0010
0001
0000
0000
0001
0100
0000
0000
0100
,
0010
0000
0000
0010
1000
0000
0000
1000
0001
0000
0000
0001
0010
0000
0000
0010
,
0100
0000
0000
0100
1000
0000
0000
1000
0001
0000
0000
0001
0100
0000
0000
0100
,
0010
0000
0000
0010
1000
0000
0000
1000
0001
0000
0000
0001
0010
0000
0000
0010
,
0100
0000
0000
0100
1000
0000
0000
1000
0010
0000
0000
0010
0100
0000
0000
0100
,
0010
0000
0000
0010
1000
0000
0000
1000
0001
0000
0000
0001
0010
0000
0000
0010
,
0200
0000
0000
0000
,
0310
0001
1000
0000
0101
0000
1020
0000
,
0130
0000
0000
0000
0001
0010
0001
0010
0001
0000
0000
1000
0000
0000
0100
0000
,
1000
0000
0000
0010
0100
0010
0100
0010
0100
0000
0000
0000
MMMM
0000
0000
0000
,
0001
0000
1000
0100
0010
0100
0010
0100
0010
0000
0001
0010
0100
0010
0100
1000
,
0001
0000
1000
0010
0100
0010
0100
0001
1000
0000
0000
0000
MMMM
0000
0000
0000
,
0001
0000
0001
1000
0100
0000
0100
0010
0001
0000
0001
0010
0100
0010
0001
1000
,
0002
0000
0000
0000
0000
0000
1003
0100
0010
0000
0100
0000
MMMM
0000
0000
0000
,
0010
0001
0010
0001
1000
0000
0010
1000
0010
1000
0100
0000
0010
0001
0010
0001
,
1000
0010
0010
0000
0101
0000
MMMM
0000
,
0021
0000
0000
0030
,
1100
0000
1010
0000
,
1000
0100
0100
0001
0100
0100
1000
0001
,
1000
0000
0100
0000
0010
0001
0100
0001
,
0010
0010
1000
0010
0010
0001
0010
0010
,
1000
0000
0000
0000
0001
0000
0000
0000
0100
0000
0000
0010
0000
0000
1000
0000
,
0001
0100
0100
1000
0100
0100
0001
1000
,
0100
0010
1001
0000
0010
0000
MMMM
0000
,
1000
0000
1000
0000
0001
0000
0000
0000
0010
0001
0010
0000
0010
0100
0010
0000
,
0100
0000
0010
0000
0010
0000
0000
0000
0001
0100
0001
0000
0001
1000
0001
0000
,
1000
0000
0100
0000
0100
0000
1000
0000
0010
0000
0010
0000
0010
0100
0001
1000
,
0001
0000
0010
0000
0001
0010
1000
0010
,
0001
0000
0010
0000
0010
0000
0100
0000
1000
0000
1000
0000
1000
0100
1000
0010
,
0100
0000
0000
0000
1010
0000
0000
0000
1000
0000
0000
0001
1000
0000
0100
0000
,
0010
0001
0001
1000
0010
0010
0100
0001
,
0010
0000
0000
0010
0100
0000
0000
1000
0001
0000
0100
0000
0010
0000
1000
0000
,
1001
0000
0000
1000
0100
0100
1000
0010
,
0000
0000
0000
0100
0001
0001
0010
0100
,
0000
0000
0000
0010
0001
0001
1000
0010
,
0000
0000
0000
0000
1000
0100
0010
0001
1000
0100
0010
0001
1000
0100
0010
0001
,
1000
0100
0001
0200
0000
1300
0000
0001
,
0100
1000
0100
0002
0000
1003
0000
0001
,
0010
1000
0010
0002
0000
1003
0000
0001
,
1001
0000
0000
0000
0000
0000
1000
0100
0010
0001
0010
0100
0010
0001
1000
0010
,
1000
0000
0000
0000
0000
0000
0000
0000
0000
0000
0001
0000
0000
0000
0000
0000
0000
0000
0000
1000
0000
0000
0000
0000
0000
0000
0000
0000
0000
0001
0000
0000
0000
0000
0000
0000
0000
0000
1000
0000
0000
0000
0000
0000
0000
0000
0000
0000
0001
0000
0000
0000
0000
0000
0000
0000
0000
0000
0000
0000
0000
0000
0000
0000
0000
0000
0000
0000
0000
0000
0000
0000
0000
0000
0000
0000
0000
0000
0000
0000
0000
0000
0000
0000
0000
0000
0000
0000
0000
0000
0000
0000
0000
0000
0000
0000
0000
0000
0000
0000
0000
0000
0000
0000
0000
0000
0000
0000
0000
0000
0000
0000
0000
0000
0000
0000
0000
0000
0000
0000
0000
0000
0000
0000
0000
0000
0000
0000
0000
0000
0000
0000
0000
0000
0000
0000
0000
0000
0000
0000
0000
0000
0000
0000
0000
0000
0000
0000
0000
0000
0000
0000
0000
0000
0000
0000
1000
0000
0000
0000
0000
0000
0000
0000
0000
0000
0000
0000
0010
0000
0000
0000
0000
0000
0000
0000
0000
0000
0000
0000
1000
0000
0000
0000
0000
0000
0000
0000
0000
0000
0000
0000
,
0001
1000
0001
0000
1000
0100
1000
0001
0000
0100
0010
0000
0000
0100
0010
1000
,
0001
0000
0010
0100
1000
0000
0001
1000
0000
0100
0010
0000
0000
0001
0010
0000
,
0100
1000
0100
0000
1000
0010
1000
0001
0000
0010
0100
0000
0010
0001
0000
0100
,
0000
0010
1000
0000
0000
0100
0010
0000
0010
0001
0000
1000
0001
0100
0000
0001
,
0010
0100
0010
0000
0100
1000
0001
1000
0000
0010
1000
0000
0001
0010
0100
0010
,
0000
0100
1000
0000
0100
1000
0000
0010
0000
0100
0010
0000
0100
0001
0000
0000
,
1000
0001
0000
0010
0000
0000
0100
0010
0001
0000
0000
1000
0001
0100
1000
0100
,
0001
0010
1000
0010
0001
1000
MMMM
0000
,
0001
0100
0010
0000
0100
0001
0010
0100
0000
0100
0010
0000
0100
1000
0010
0100
,
0000
0001
1000
0000
0001
0010
0100
0010
0000
0100
1000
0000
0001
0100
0000
0000
,
0010
1000
0100
0000
0010
0100
1000
0001
0000
0100
0001
0000
0010
0100
0010
0001
,
0000
1000
0001
0000
0100
0001
0010
0100
0000
0010
0001
0000
1000
0000
0010
0000
,
0100
0000
0001
0000
0000
0010
0001
1000
0000
0001
1000
0000
0000
0100
0000
0010
,
0000
0001
1000
0000
0000
1000
0000
0010
0000
0100
0001
0000
0010
0100
1000
0000
,
0001
0100
0000
0010
0000
0100
0010
1000
0100
0000
0010
0100
0000
0100
1000
0000
,
0001
0100
0000
1010
0000
1000
0001
0000
0010
0001
0000
1100
0000
0001
0000
1000
,
0001
0000
0000
0001
0000
0000
0001
0000
0000
1000
0000
1000
0000
0000
0001
0000
,
1000
0000
0000
1000
0000
0000
1000
0000
0000
0001
0000
0001
0000
0000
1000
0000
,
0001
0100
0010
1000
0001
0010
0100
0010
,
0001
0100
0010
1000
0001
0010
0100
2000
,
0000
0000
0000
0000
,
3000
0000
0000
0000
;
