#TITLE:Shadow World;
#SUBTITLE:;
#ARTIST:BEMANI Sound Team "HuΣeR x 猫叉Master" feat.Emi Evans;
#TITLETRANSLIT:;
#SUBTITLETRANSLIT:;
#ARTISTTRANSLIT:HuΣeR x Nekomata Master feat.Emi Evans;
#GENRE:;
#CREDIT:;
#MUSIC:Shadow World.ogg;
#BANNER:Shadow World.png;
#BACKGROUND:Shadow World-bg.png;
#CDTITLE:./CDTITLES/BEATMANIA IIDX.PNG;
#SAMPLESTART:90.666;
#SAMPLELENGTH:15.000;
#SELECTABLE:YES;
#OFFSET:0.000;
#BPMS:0.000=90.000
,20.000=180.000
,328.000=90.000
;
#STOPS:116.000=1.333;
#BGCHANGES:;
#FGCHANGES:;

//--------------- dance-single - Pandemonium X ----------------
#NOTES:
     dance-single:
     Pandemonium X:
     Beginner:
     4:
     0,0,0,0,0:
0000
0000
0000
0000
,
0000
0000
0000
0000
,
0000
0000
0000
0000
,
0000
0000
0000
0000
,
0000
0000
0000
0000
,
0001
0000
0001
0000
,
0001
0000
0000
0000
,
0000
0000
0000
0000
,
0000
0000
0000
0000
,
1000
0000
1000
0000
,
1000
0000
0000
0000
,
0000
0000
0000
0000
,
0000
0000
0000
0000
,
0010
0000
0010
0000
,
0010
0000
0000
0000
,
0000
0000
0000
0000
,
0000
0000
0000
0000
,
0100
0000
0100
0000
,
0100
0000
0010
0000
,
1001
0000
0000
0000
,
0000
0000
0001
0000
,
1001
0000
0000
0000
,
1000
0000
0000
0000
,
0010
0000
0000
0000
,
1000
0000
0000
0000
,
0100
0000
0000
0000
,
0010
0000
0000
0000
,
0001
0000
0000
0000
,
0000
0000
0000
0000
,
0000
0000
0000
0000
,
1000
0000
0000
0000
,
0001
0000
0000
0000
,
0100
0000
0000
0000
,
0010
0000
0000
0000
,
1000
0000
0000
0000
,
0100
0000
0000
0000
,
0010
0000
0000
0000
,
0001
0000
0000
0000
,
1001
0000
0000
0000
,
0001
0001
0000
0000
,
1001
0000
0000
1000
,
1000
0000
0000
0000
,
0110
0000
0000
0000
,
0010
0010
0000
0000
,
0100
0000
0000
0000
,
0010
0000
1000
0000
,
1001
0000
0000
0000
,
0001
0000
0000
0000
,
0010
0000
0000
0000
,
0100
0000
1000
0000
,
0010
0000
0000
0000
,
0100
0000
0000
0000
,
0001
0000
0000
0000
,
1000
0000
0001
0000
,
0100
0000
0000
0000
,
0010
0000
1000
0000
,
0100
0000
0000
0000
,
0010
0000
0001
0000
,
1000
0000
0000
0000
,
0001
0000
0000
0000
,
0100
0000
0010
0000
,
1000
0000
0001
0000
,
1001
0000
0000
0000
,
0001
0000
0001
0000
,
0001
0000
0000
0000
,
1000
0000
1000
0000
,
1000
0000
0000
0000
,
0010
0000
0010
0000
,
0010
0000
0000
0000
,
0100
0100
0100
0000
,
0110
0000
0010
0000
,
0100
0000
0100
0000
,
0010
0000
1000
0000
,
0001
0001
0001
0000
,
1000
0000
0000
0000
,
0001
0000
0000
0000
,
0100
0000
0000
0000
,
0010
0000
0000
0000
,
1000
0000
0000
0000
,
0100
0000
0000
0000
,
0010
0000
0000
0000
,
0000
0000
0001
1000
,
0110
0000
0000
0000
;

//--------------- dance-single - t7r ----------------
#NOTES:
     dance-single:
     t7r:
     Easy:
     7:
     0,0,0,0,0:
0000
0000
0000
0000
,
0000
0000
0000
0000
,
0000
0000
0000
0000
,
0000
0000
0000
0000
,
0000
0000
0000
0000
,
2000
0000
3100
0000
,
1000
0010
0100
0000
,
0002
0000
0013
0000
,
0001
0100
0010
0000
,
2000
0000
3001
0000
,
0010
0100
1000
0000
,
0020
0000
0130
0001
,
2000
0000
3100
0000
,
0020
0000
0031
1000
,
0010
0000
0100
0001
,
2000
0000
3100
1000
,
0001
0100
0010
0000
,
0200
0000
0301
0010
,
0200
0000
1300
0010
,
0200
0000
0320
0000
,
1030
0001
0100
0010
,
2000
0000
0100
0000
,
0001
0001
0010
0100
,
3002
0000
1000
0000
,
0100
0100
0010
1000
,
0203
0000
1000
0000
,
0010
0010
0001
0001
,
0320
0000
0100
0000
,
0001
0000
0100
0000
,
1030
0000
0000
0000
,
0001
0000
0000
0000
,
0010
0000
0000
0000
,
1000
0000
0000
0000
,
0100
0000
0000
0000
,
0010
0000
0010
0000
,
0001
1000
0010
0000
,
0100
0000
0100
0000
,
0001
1000
0100
0000
,
1000
0100
0020
0000
,
0031
0100
0010
0000
,
0100
0001
2000
0000
,
3100
0010
0001
0000
,
1000
1000
0010
0010
,
0100
0100
0001
1000
,
0001
0001
0010
0100
,
1000
0000
0001
0000
1000
0000
0000
0002
,
0000
0000
0013
0000
0001
0000
0000
1000
,
0000
0000
0010
0000
0100
0000
0000
0001
,
0000
0000
1000
0000
0100
0000
0000
0010
,
0000
0000
0100
0000
1000
0000
0000
0002
,
0000
0000
0103
0000
0010
0000
0000
0100
,
0000
0000
0010
0000
1000
0000
0000
0001
,
0000
0000
0010
0000
0001
0000
0000
1000
,
0000
0000
0100
0000
0010
0000
0000
0200
,
0000
0000
0301
0000
0100
0000
0000
0010
,
0000
0000
0100
0000
1000
0000
0000
0020
,
0000
0000
0130
0000
0010
0000
0000
0001
,
0000
0000
0010
0000
0100
0000
0000
0002
,
0000
0000
0010
0000
1003
0000
0000
2000
,
0000
0000
0010
0000
3001
0000
0000
2000
,
0000
0100
0000
3002
0000
0100
0000
2003
,
0000
0010
0000
3002
0000
0000
0013
0000
,
0001
1001
1000
0100
,
0020
0100
0031
0100
,
0001
0010
0100
1000
,
0001
0100
1000
0100
,
0010
0100
0001
0010
,
0200
0001
0320
0000
,
0031
1000
0010
0100
,
0010
1000
0001
0100
,
0001
1001
1000
0100
,
0002
0103
0020
0130
,
1000
0001
0100
1000
,
0200
0310
0100
0110
,
0001
1000
0100
0010
,
0100
1000
0001
1000
,
0001
0100
1000
0100
,
0010
0100
0001
1000
,
0001
1000
0001
0010
,
1000
0010
0001
0100
,
0010
0010
0010
0010
,
0100
0001
1000
0001
,
1000
0000
0100
0000
,
0001
0000
0020
0000
,
0030
0000
0000
0000
;

//--------------- dance-single - Pandemonium X ----------------
#NOTES:
     dance-single:
     Pandemonium X:
     Medium:
     11:
     0,0,0,0,0:
0000
0000
0000
0000
,
0000
0000
0000
0000
,
0000
0000
0000
0000
,
0000
0000
0000
0000
,
0000
0000
0000
0000
,
1001
0000
0110
0000
,
2002
0000
3003
0000
,
1000
0000
0001
0000
,
0100
0001
0020
0000
,
0130
0000
0011
0000
,
2200
0000
3300
0000
,
0100
0000
0010
0001
0000
0100
0000
0020
,
0000
0000
0230
0000
,
0301
0000
0101
0000
,
2002
0000
3003
1000
,
0001
0000
0010
0000
,
0100
1000
0010
0000
,
2000
0000
3200
0000
,
0302
0000
0023
0000
,
2000
0000
0000
0000
,
0030
3001
1000
0010
,
0200
0000
0001
0000
,
0010
0000
1000
0000
,
0320
0000
1000
0000
,
0130
0000
0010
1000
,
2001
0000
0100
0000
,
0010
0000
3001
0000
,
0200
0000
0010
0000
,
1000
0000
0001
0001
,
0300
0000
0000
0000
,
1000
0100
0010
0001
,
1001
1001
0000
0000
,
1000
0000
0100
0000
0010
0000
0100
1000
,
0001
0000
0100
0010
0000
1000
0000
0000
,
0001
1000
0010
0100
,
0011
0101
0000
0000
,
0001
0000
1000
0000
0010
0000
1000
0001
,
0010
0000
0100
0010
0000
0001
0000
0000
,
1000
0000
0001
0000
0100
0000
0010
0100
,
0001
1000
0100
0000
0000
0000
0000
0000
,
0010
0000
0100
0000
1000
0000
0001
0100
,
0001
0000
0010
0100
0000
1000
0000
0000
,
0100
0000
1000
0000
0010
0000
0100
0010
,
1000
0001
0010
0000
0000
0000
0000
0000
,
0100
0010
0100
1000
0001
0000
0000
0000
,
1000
0000
0000
0000
0001
0000
0000
1000
,
0000
0001
0100
0010
0000
0100
0010
1000
,
0000
0001
0010
0100
0010
0001
1000
0001
,
0000
1000
0001
0100
0000
0001
0010
0100
,
0000
0100
0010
0001
1000
0001
1000
1100
,
0000
0100
1000
0010
0000
0100
0010
1000
,
0000
0001
2000
0000
3020
0000
0230
0000
,
0301
0010
0100
1000
0100
0010
0001
1000
,
0000
0001
1000
0010
0001
0010
1000
0001
,
0000
1000
0100
1000
0000
0001
0100
0001
,
0000
1000
0100
1000
0100
0010
0001
1000
,
0000
0001
0100
0001
0000
1000
0100
1000
,
0000
0001
0100
0010
1000
0100
1000
0001
,
0000
1000
0001
0100
0000
0010
1000
0100
,
0000
0010
0001
0010
0100
1000
0100
1000
,
0000
0001
0100
1000
0000
1000
0100
0001
,
0000
1000
0100
0001
0100
1000
0010
1000
,
0001
0000
0110
0000
1000
0000
1000
0100
,
0010
0001
0100
0100
,
0010
0010
1000
1000
,
0010
0000
0100
0000
0001
2000
0100
0000
,
3001
0000
1000
0000
0100
0000
0100
1000
,
0001
0001
1000
1000
,
0010
0100
0001
0010
,
0100
0010
0200
1000
,
0310
0000
0011
0000
0001
0000
1000
0010
,
0100
0010
1000
1000
,
0001
1000
0100
0010
,
0100
0100
0010
0010
,
0001
0000
0000
0001
0000
0000
1000
0000
,
0000
1000
0000
0000
0010
0000
0100
0000
,
0001
0000
1000
1000
0000
0000
0100
0000
,
0000
0010
0000
0000
0100
0000
1000
0000
,
0001
0000
0000
0100
0000
0000
0001
0000
,
0000
0010
0000
0000
0100
0000
0010
0000
,
0001
0100
0010
1000
,
0001
0000
1000
0100
0010
0000
1100
0000
,
1001
0000
0001
0000
,
0100
0000
0010
0000
;

//--------------- dance-single - t7r & Pandemonium X ----------------
#NOTES:
     dance-single:
     t7r & Pandemonium X:
     Hard:
     13:
     0,0,0,0,0:
0000
0000
0000
0000
,
0000
0000
0000
0000
,
0000
0000
0000
0000
,
0000
0000
0000
0000
,
0000
0000
0000
0000
,
0201
0000
0010
0000
,
0002
0000
0300
0000
0000
0103
0010
1000
,
0001
0000
0010
0001
0000
0001
0000
1000
,
0000
1000
0000
0001
0200
0320
2030
3002
,
2003
0000
0010
0000
,
0200
0000
0000
0000
3000
0000
0310
0100
,
1000
0000
0100
0010
0000
0011
0000
0102
,
0000
0000
0000
0000
2003
3020
0230
0302
,
0023
0000
0100
0000
,
0002
0000
0000
0000
0033
0010
0100
1000
,
0001
0000
0100
0010
0000
0110
0000
0101
,
0000
1010
0000
1100
0000
0000
1001
0000
,
2000
0000
3200
0000
,
0302
0000
0023
0000
,
2000
0000
0000
0000
,
3030
0001
0100
0010
,
2001
0000
0010
0000
,
3002
2003
3020
2030
,
3200
0000
0010
0000
,
1300
0100
0001
0100
,
2000
0000
0010
0000
,
0100
0000
0010
3001
,
0001
1000
0010
0010
0100
0001
0010
0010
,
0100
1000
0010
0010
0100
0001
0010
0100
,
0000
0000
0000
0000
,
1000
0000
0100
0010
0001
0000
0100
0010
,
1000
0010
0200
0000
1000
0000
0310
0000
,
1000
0100
1000
0001
0100
0000
0001
0010
,
0001
0000
1000
0020
0000
0130
0000
0001
,
1000
0100
0010
0001
1000
0000
0001
0010
,
0100
1000
0010
0200
1000
0000
0310
0000
,
1000
0100
0010
0001
1000
0000
0001
0010
,
0100
0000
0010
0002
0000
1003
0000
0001
,
1000
0010
0100
0010
0002
0000
0023
0000
,
1030
0100
0010
0001
1000
0001
0100
0000
,
0001
0010
0100
0010
2000
0000
3020
0000
,
0031
1000
0010
0100
0001
1000
0100
0000
,
1000
0100
0010
0100
0002
0000
0203
0000
,
1300
0010
0100
0001
1000
0100
0010
0000
,
0001
0100
0010
0100
2000
0000
3100
0001
,
0100
0000
0000
0010
1000
0000
0100
0000
1000
0001
1000
0000
0001
0000
0020
0000
,
0000
0001
0031
0100
0000
0001
1000
0100
,
0000
1000
0001
0010
0100
0010
0001
1000
,
0000
0001
1000
0100
0000
1000
0001
0100
,
0000
0001
1000
0010
0001
0010
1000
0001
,
0000
1000
0010
0100
0000
0010
0100
0001
,
0000
0100
0010
1000
0100
0010
0100
1000
,
0000
0001
0010
0100
0010
0001
0100
0010
,
0000
1000
0010
0001
0010
1000
0001
0010
,
0000
0001
1001
1000
0000
1000
0100
0010
,
0000
0100
0010
0001
0010
1000
0010
0001
,
0000
1000
0001
0100
0000
0001
1000
0010
,
0000
1000
0010
0001
0010
0100
0001
1000
,
0000
0001
0010
0100
0100
0010
0001
1000
,
0000
0001
0010
0010
0100
0010
0001
1000
,
0000
0001
1000
1100
0000
1000
0001
0101
,
0000
0001
1000
0010
0100
0100
0010
1000
,
0101
0000
1010
0000
1000
0100
0010
0100
,
0001
0100
1000
0000
0001
0100
1000
0000
,
0100
0010
0100
0000
1000
0100
0010
0100
,
0001
0010
0001
1000
0010
0100
0001
1000
,
0200
0000
1300
0020
0100
0000
1030
0001
,
0100
0001
0010
0200
0001
0000
0310
0000
,
0001
1000
0100
0000
1000
0001
0100
0000
,
0010
0000
1000
0000
0001
0000
0010
0000
0001
0000
1000
0000
0001
0000
0100
0001
,
0100
0000
1010
0000
1000
0100
0010
0001
,
2000
0000
0010
3002
0000
0010
2003
0000
,
3200
0000
0301
0200
0000
0310
0200
0000
,
1300
0000
0010
0000
0110
0000
0000
0000
1000
0001
1000
0000
1001
0000
0000
0000
,
0001
0001
0100
0010
0010
0100
1000
1000
,
0100
0010
0010
0100
0001
1000
0100
0000
,
1000
0100
0010
0010
0100
0001
0001
0100
,
0010
0100
1000
0001
0100
0010
1000
0000
,
0100
0000
0011
0000
1000
0010
0001
0010
,
0100
0002
0010
0000
1003
0100
0010
0100
,
0001
0100
1000
1000
0010
0100
0001
1000
,
0001
0000
0000
0100
0010
0000
1000
0000
0100
0010
0100
0000
1000
0000
0001
1000
,
0001
0000
0010
0000
,
1000
0000
0200
0000
,
0300
0000
0000
0000
;

//--------------- dance-single - Pandemonium X & t7r ----------------
#NOTES:
     dance-single:
     Pandemonium X & t7r:
     Challenge:
     15:
     0,0,0,0,0:
0000
0000
0000
0000
,
0000
0000
0000
0000
,
0000
0000
0000
0000
,
0000
0000
0000
0000
,
0000
0000
0000
0000
,
1000
0000
0010
0000
1000
0000
0001
0200
,
0010
0000
0301
0000
0010
0000
0100
2000
,
0010
0000
3001
0000
1000
0000
0100
0020
,
1000
0000
0000
0000
0130
0000
0000
0000
0010
0000
0001
1000
0001
0010
0100
1000
,
0001
0000
0010
0000
0001
0000
1000
0200
,
0010
0000
1300
0000
0010
0000
0100
0002
,
0010
0000
1003
0000
0001
0000
0100
0020
,
0001
0000
0000
0000
0130
0000
0000
0000
0010
0000
1000
0001
1000
0010
0100
0001
,
1000
0100
0010
0100
1000
0010
1000
1000
,
0001
0100
0010
0100
0001
0010
0001
0001
,
1000
0000
0010
0000
0100
0000
0010
0000
1000
0000
0100
0000
0010
0000
0010
0100
,
1000
0000
0010
0000
0100
0000
0001
0000
1000
0000
0001
0010
0000
0001
1000
0100
,
0010
0001
0100
0010
0100
0001
1000
1000
,
0010
1000
0100
0010
0100
1000
0001
0001
,
0100
0000
0010
0000
1000
0000
0001
0000
0010
0000
0001
1000
0000
0001
0100
0001
,
1000
0000
0100
0000
0010
0000
0001
0000
0100
0000
0010
0000
,
1000
0010
0100
1000
0001
0010
0100
0001
,
1000
0010
0100
1000
0001
0010
0100
0001
,
1000
0100
0010
1000
0001
0100
0010
0001
,
1000
0100
0010
1000
0001
0100
0010
0001
,
1000
0010
0001
1000
0001
0010
1000
0001
,
1000
0010
0001
1000
0001
0010
1000
0001
,
1000
0100
0001
1000
0001
0100
1000
0001
,
1000
0100
0001
1000
0001
0100
1000
0001
,
0100
0000
0000
0010
0010
0000
0110
0000
,
0001
0001
0100
1000
0100
0001
0001
1000
,
0100
0010
0100
0000
0100
0010
1001
0000
,
1000
1000
0100
0001
0100
1000
1000
0001
,
0010
0000
0100
1100
0000
1001
0000
0000
,
1000
1000
0100
0001
0100
0100
1000
0010
,
0100
0001
0010
0000
0100
1000
1001
0000
,
0001
0001
0010
1000
0010
0100
1000
0100
,
0010
0000
0001
0011
0000
1010
0000
0000
,
1000
0100
0001
0100
0010
0000
0001
0010
,
1000
0010
0100
0000
0010
0000
1001
0000
,
0001
0100
1000
0100
0010
0000
0100
0010
,
1000
0000
0001
0011
0000
1001
0000
0000
,
0001
0100
1000
0100
0010
0000
0100
0001
,
1000
0100
0010
0000
0001
1000
0100
0000
,
0010
0001
0010
1000
0010
0000
0100
1000
,
0020
0000
0130
0001
0020
0000
0130
2001
,
0000
0000
3100
0000
1000
0000
0001
0010
0001
0010
0100
0000
0010
0000
0002
0000
,
0000
0000
1003
0000
0100
0000
1000
0010
1000
0010
0100
0000
0010
0000
2000
0000
,
0000
0000
3010
0000
0100
0000
0001
1000
0001
1000
0010
0000
1000
0000
0002
0000
,
0000
0000
0013
0000
0001
0000
1000
0000
0010
0000
0100
0001
1000
0000
0020
0000
,
0000
0000
1030
0000
0100
0000
0010
0001
0010
0001
1000
0000
0010
0000
0200
0000
,
0000
0000
1300
0000
0100
0000
0010
1000
0010
1000
0001
0000
0010
0000
0200
0000
,
0000
0000
0301
0000
0100
0000
1000
0000
0010
0000
0100
0001
1000
0000
0020
0000
,
0000
0000
0031
0000
0010
0000
1000
0000
0100
0010
0001
1000
0010
0000
0200
0000
,
0000
0000
0310
0000
1001
0000
1000
0000
0100
0010
0100
0001
0100
0000
0020
0000
,
0000
0000
0130
0000
1000
0000
0010
0000
0100
1000
0100
0010
0100
0000
0002
0000
,
0000
0000
1003
0000
0010
0000
0100
0000
0010
0001
0010
0100
0010
0000
2000
0000
,
0000
0000
3001
0000
0010
0000
0100
0000
0010
1000
0010
0100
0010
0000
0002
0000
,
0000
0000
1003
0000
0100
0000
0001
0100
0010
0100
1000
0000
0010
0100
0020
0000
,
0000
0000
1030
0000
0010
0000
0001
0010
0100
0010
1000
0000
0100
0010
0002
0000
,
0000
0103
0010
2010
0000
3100
0010
0011
,
0010
0000
1000
0010
0100
0000
1000
0010
0100
0001
1000
0100
0010
0001
1000
0010
,
0100
0010
1001
0000
0001
0100
0010
1000
,
0001
0010
0100
0010
0001
0100
0010
1000
,
1100
0000
1000
0000
0100
1000
0001
0100
,
0001
0000
1000
0000
0100
0000
1000
0000
0010
0000
0100
0001
0100
0010
0100
0001
,
0100
0000
0001
1000
0010
1000
0100
0010
,
0001
0010
0001
0100
0001
1000
0100
0010
,
0011
0000
0001
0000
0010
0100
1000
0100
,
0001
0000
0100
0000
1000
0000
0001
0000
1000
0001
0100
0001
1000
0001
0100
0001
,
1000
0001
0110
0000
0010
1000
0001
0010
,
0100
0010
0001
1000
0010
0100
1000
0100
,
0001
1000
0001
0010
0100
0001
0100
1000
,
0001
0000
1000
0010
1000
0000
0001
0100
0001
0000
1000
0010
1000
0000
0001
0000
,
1000
0000
0001
1001
0000
1000
1010
0000
,
1000
1100
0000
0001
1001
0000
1010
0000
,
1001
0000
0101
0101
0000
0001
1001
0000
,
1000
1100
0000
0100
0110
0000
1100
0000
,
1001
0000
0001
0101
0000
0100
0110
0000
,
0010
1010
0000
0001
0011
0000
1100
0000
,
0001
0100
0010
0010
0100
0001
1000
0100
,
0010
0001
0010
0100
0010
0001
0100
0010
1000
0010
0100
0010
1000
0001
0010
0100
,
1000
0000
0000
0000
0000
0000
0000
0000
0000
0000
0000
0000
0000
0000
0000
0001
1000
0000
0000
0000
0000
0000
0000
0000
0000
0000
0000
0000
0000
0000
0000
1000
,
0001
0000
0100
0000
;
