#TITLE:Renovation. (ReBOOT2021);
#SUBTITLE:;
#ARTIST:DAISHI DANCE feat. YOSHIDA BROTHERS, HIMEKAMI;
#TITLETRANSLIT:;
#SUBTITLETRANSLIT:;
#ARTISTTRANSLIT:;
#GENRE:;
#CREDIT:;
#MUSIC:Renovation. (ReBOOT2021).ogg;
#BANNER:;
#BACKGROUND:;
#CDTITLE:;
#SAMPLESTART:30.480;
#SAMPLELENGTH:14.893;
#SELECTABLE:YES;
#OFFSET:1.145;
#BPMS:0.000=129.000;
#STOPS:;
#BGCHANGES:;
#FGCHANGES:;

//--------------- dance-single - Pandemonium X ----------------
#NOTES:
     dance-single:
     Pandemonium X:
     Beginner:
     4:
     0,0,0,0,0:
0000
0000
0000
0000
,
0000
0000
0000
0000
,
0000
0000
0000
0000
,
0000
0000
0000
0000
,
0000
0000
0000
0000
,
0000
0000
0000
0000
,
0000
0000
0000
0000
,
0000
0000
0000
0000
,
0000
0000
0000
0000
,
0001
0000
0000
0000
,
1000
0000
0000
0000
,
0001
0000
0000
0000
,
1000
0000
0000
0000
,
0010
0000
0100
0000
,
0001
0000
1000
0000
,
0010
0010
0100
0100
,
2002
0000
0000
3003
,
0001
0000
0000
0000
,
1000
0000
0000
0000
,
0100
0000
0000
0000
,
0010
0000
0100
0000
,
1000
0000
0000
0000
,
0010
0000
0000
0000
,
0100
0000
0000
0000
,
0001
0000
1000
0000
,
0110
0000
0000
0000
,
0001
0000
0000
0000
,
1000
0000
0000
0000
,
0001
0000
0100
0000
,
0010
0000
0000
0000
,
0100
0000
0000
0000
,
0010
0000
0000
0000
,
0100
0000
0010
0000
,
1000
0000
0000
0000
,
0001
0000
0000
0000
,
0100
0000
0010
0000
,
1000
0000
0000
0000
,
0001
0001
0001
0000
,
1000
1000
1000
0000
,
0010
0010
0010
0000
,
0100
0100
0100
0000
,
1001
0000
0000
0001
,
0000
0000
0000
0100
,
0000
0000
0000
0010
,
0000
0000
0000
1000
,
0000
0000
0000
1001
,
0000
0000
0000
0110
,
0001
0001
1000
1000
,
0110
0000
0000
0000
,
0001
0000
0001
0000
,
0001
0000
0000
0000
,
1000
0000
1000
0000
,
1000
0000
0000
0000
,
0010
0000
0010
0000
,
0010
0000
0010
0000
,
0010
0000
0010
0000
,
0010
0010
0010
0000
,
0110
0000
0000
0000
,
0100
0000
0000
0000
,
0010
0000
0000
0000
,
1000
0000
0000
0000
,
0001
0000
0001
0000
,
0001
0000
0001
0000
,
1000
0001
1000
0001
,
1000
0000
0001
0000
1000
0000
0000
1001
;

//--------------- dance-single - Pandemonium X ----------------
#NOTES:
     dance-single:
     Pandemonium X:
     Easy:
     9:
     0,0,0,0,0:
0000
0000
0000
0000
,
0000
0000
0000
0000
,
0000
0000
0000
0000
,
0000
0000
0000
0000
,
0000
0000
0000
0000
,
0001
0001
1000
1000
,
0010
0010
0200
0300
,
0010
0010
1000
1000
,
0002
0000
0000
0003
,
1100
0100
1000
0010
,
0101
0001
0010
0100
,
1001
0001
1000
0010
,
0101
0001
0010
0100
,
1000
0100
0010
0001
,
1000
0100
0010
0001
,
1000
0010
1000
0100
,
2002
0000
0000
3003
,
0001
0100
0001
0000
0100
0000
0010
0000
,
1000
0100
1000
0000
0100
0000
1000
0000
,
0010
0100
0010
0000
0100
0000
0001
0000
,
0010
0100
0010
0000
0001
0000
0011
0000
,
0001
0100
0001
0000
0100
0000
0010
0000
,
1000
0001
1000
0000
0001
0000
0010
0000
,
0100
0010
0100
0000
0010
0000
0001
0000
,
2020
0000
0000
3030
,
1000
0100
0010
0000
0001
0000
0010
0000
,
0001
0010
0100
0000
1000
0000
0010
0000
,
0100
0010
1000
0000
0010
0000
0100
0000
,
0001
0100
0010
0000
0100
0000
1001
0000
,
0001
1000
0010
0000
1000
0000
0100
0000
,
0010
0100
1000
0000
0100
0000
0010
0000
,
0001
0010
0100
0000
0010
0000
0001
0000
,
0100
0010
1001
0110
,
1001
0001
1000
0010
,
1000
0001
0010
0100
,
1000
0100
1000
0001
,
0100
0100
0010
0010
,
0110
0101
0110
1010
,
0110
0101
0110
1010
,
1001
0110
1001
0110
,
0001
0000
0001
0000
1000
0010
1000
0000
,
0001
0000
1000
0000
0001
0000
1000
0100
,
1000
0000
0001
0000
0100
0000
0001
0100
,
0001
0000
0010
0000
0100
0000
1000
0100
,
1000
0000
0100
0000
0010
0000
0001
1000
,
0001
0100
0010
2000
,
3100
0010
0001
2000
,
3002
0203
0320
2030
,
0002
0000
0000
3003
,
0001
1000
0100
0001
,
0100
0010
0001
0100
,
1000
0100
0010
1000
,
0001
0010
0100
1000
,
0000
0001
1000
0001
0000
1000
0001
1000
,
0000
0001
1000
0001
0000
1000
0001
1000
,
0000
0001
1000
0001
0000
1000
0001
1000
,
0001
0001
1010
0101
,
0001
1000
0100
1000
,
0010
0100
0001
0010
,
1000
0010
0100
1000
,
0100
0001
0100
1000
,
0000
0001
1000
0001
0000
1000
0001
1000
,
0000
0001
1000
0001
0000
1000
0001
1000
,
0001
1000
0001
1000
0001
1000
0001
1000
,
0001
0000
0100
0000
0010
0000
1000
1001
;

//--------------- dance-single - Pandemonium X ----------------
#NOTES:
     dance-single:
     Pandemonium X:
     Medium:
     12:
     0,0,0,0,0:
0000
0000
0000
0000
,
0000
0000
0000
0000
,
0000
0000
0000
0000
,
0000
0000
0000
0000
,
0000
0000
0000
0000
,
0001
0000
0000
0001
0000
0000
0000
0000
1000
0000
0000
1000
0000
0000
0000
0000
,
0010
0000
0000
0100
0000
0000
0020
0000
0000
0000
0000
0000
0030
0000
0000
0000
,
1000
0000
0000
1000
0000
0000
0000
0000
0001
0000
0000
1000
0000
0000
0200
0000
,
0000
0000
0000
0300
,
1100
1100
1000
0001
,
0101
0101
0001
1000
,
1010
1010
1000
0001
,
0011
0011
0001
1000
,
0001
0100
0001
0000
1000
0010
1000
0000
,
0001
0100
0001
0000
1000
0010
1000
0000
,
0001
0100
0010
1000
0001
0100
0010
1000
,
0022
0000
0000
0033
,
1000
0000
0100
0000
0010
0000
0000
0001
0000
0100
0000
0010
0100
0000
0001
0000
,
1000
0000
0100
0000
0010
0000
0000
0100
0000
1000
0000
0010
0100
0000
0001
0000
,
0010
0000
0100
0000
1000
0000
0000
0100
0000
1000
0000
0010
0100
0000
0001
0000
,
1000
0000
0100
0000
0010
0000
0000
0100
0000
1000
0000
0010
0100
0000
0001
0000
,
1000
0000
0010
0000
0100
0000
0000
0010
0000
1000
0000
0001
0010
0000
0100
0000
,
0010
0000
0001
0000
0100
0000
0000
0001
0000
1000
0000
0100
0010
0000
0100
0000
,
1000
0000
0001
0000
0100
0000
0000
0010
0000
0100
0000
0001
0100
0000
0001
0000
,
0100
0100
0010
0010
1000
1000
0001
0001
,
1000
0000
0100
0000
0010
0100
0000
1000
0000
1000
0000
0100
0010
0000
0000
0000
,
0010
0000
0001
0000
0100
0010
0000
0100
0000
0100
0000
0010
1000
0000
0000
0000
,
0001
0000
1000
0000
0010
1000
0000
0001
0000
0001
0000
1000
0001
0000
0000
0000
,
0010
0000
0001
0000
0100
0010
0000
1000
0000
0001
0000
0010
0100
0000
0010
0000
,
0001
0000
0100
0000
0010
1000
0000
0010
0000
0010
0000
1000
0001
0000
0000
0000
,
0010
0000
0100
0000
0010
0001
0000
0100
0000
0100
0000
0010
1000
0000
0000
0000
,
0001
0000
1000
0000
0100
1000
0000
0100
0000
0100
0000
1000
0100
0000
1000
0000
,
0010
0000
0000
0100
0000
0000
0001
0000
0000
1000
0000
0000
0001
0000
1000
0000
0001
0000
1000
0000
0000
0001
0000
0000
,
0010
0000
0001
0000
0100
0010
0100
0000
,
0010
0000
1000
0000
0010
0100
0001
0000
,
1000
0100
0001
0100
,
1000
0100
0010
0001
1000
0100
0010
0001
,
0101
0101
0011
0011
,
1100
1100
1010
1010
,
0101
0101
1001
1001
,
0001
0000
0000
0100
0000
0000
0010
0000
0000
1000
0000
0000
0001
0000
1000
0000
0001
0000
1000
0000
0000
0000
0000
0000
,
0002
0203
0320
2030
,
3020
0230
0302
0023
,
0230
2300
3200
0302
,
0203
2300
3020
0230
,
0302
0000
0203
0000
0320
0000
1030
0001
,
1000
0000
0001
0000
0010
0000
0100
1000
,
0100
0010
0001
1000
0100
0010
0001
1000
,
0220
0000
0000
0330
,
0000
0100
1000
0100
0000
0100
1000
0100
,
0000
0100
1000
0010
0000
0100
0010
0100
,
0001
0010
0001
0010
0000
0001
0010
0001
,
0000
0001
0010
0001
0010
0100
1000
0000
,
0001
0100
0100
0100
0000
0010
0010
0010
,
0000
1000
1000
1000
0000
0001
0001
0001
,
1000
0001
0001
0001
1000
0001
0001
0001
,
1000
0000
0000
0001
0000
0000
1000
0000
0000
0001
0000
0000
0100
0000
0010
0000
1000
0000
0001
0000
0000
0010
0000
0000
,
0100
0000
1000
0000
0010
0000
0100
0010
,
1000
0000
0001
0000
0010
0000
0100
0010
,
0001
0000
0100
0000
0010
0100
0001
1000
,
0100
0000
0010
0000
0100
1000
0001
0000
,
1000
0001
0001
0001
0000
0001
0001
0001
,
0000
0001
0001
0001
0000
0001
0001
0001
,
1000
0001
1000
0001
1000
0001
1000
0001
,
1000
0010
0100
0001
0010
0100
1000
1001
;

//--------------- dance-single - Pandemonium X ----------------
#NOTES:
     dance-single:
     Pandemonium X:
     Hard:
     14:
     0,0,0,0,0:
0000
0000
0000
0000
,
0000
0000
0000
0000
,
0000
0000
0000
0000
,
0000
0000
0000
0000
,
0000
0000
0000
0000
,
0001
0000
0000
0001
0000
0000
0001
0000
1000
0000
0000
1000
0000
0000
1000
0000
,
0001
0000
0000
0100
0000
0000
0020
0000
0000
0000
0000
0000
0030
0000
0100
0000
,
0010
0000
0000
0010
0000
0000
1000
0000
0001
0000
0000
0010
0000
0000
0200
0000
,
0000
0000
0000
0300
,
2100
0010
0100
3010
,
0102
0010
0100
0013
,
0021
0001
0100
0031
,
1200
1000
0010
1300
,
0001
0100
0001
0000
1000
0010
1000
0000
,
0001
1000
0001
0000
0010
0100
0010
0000
,
0001
0010
0100
0010
0001
0100
0010
1000
,
0001
0100
1000
0100
0001
1000
1100
0000
,
0010
0000
0001
0000
0100
0010
0000
1000
0000
0001
0000
0010
0100
0000
0010
0000
,
0001
0000
1000
0000
0010
1000
0000
0100
0000
1000
0000
0001
0100
0000
0010
0000
,
1000
0000
0001
0000
0010
0100
0000
0010
0000
0001
0000
1000
0001
0000
0100
0000
,
0010
0000
1000
0000
0010
0100
0000
0001
0000
0010
0000
1000
0010
0000
0001
0100
,
0010
0000
1000
0000
0001
1000
0000
0100
0000
0010
0000
0100
1000
0000
0001
0000
,
0100
0000
0010
0000
1000
0001
0000
0010
0000
0100
0000
0010
0001
0000
0100
0000
,
0010
0000
1000
0000
0001
0100
0000
0010
0000
1000
0000
0100
0010
0000
0100
0000
,
1000
0100
0001
0100
1000
0100
0001
0100
,
1000
0000
0010
0000
0100
0010
0000
1000
0000
0001
0000
0010
0001
0000
0100
0000
,
0010
0000
1000
0000
0001
1000
0000
0100
0000
1000
0000
0010
0100
0000
0001
0000
,
1000
0000
0100
0000
0010
0100
0000
0010
0000
0001
0000
0100
0010
0000
0100
0000
,
0001
0000
0100
0000
1000
0100
0000
1100
0000
0101
0000
0001
1000
0000
0001
0100
,
0010
0000
1000
0000
0001
0010
0000
1000
0000
0010
0000
0001
0100
0000
0010
0000
,
1000
0000
0001
0000
1000
0100
0000
0001
0000
0100
0000
1000
0010
0000
0100
0000
,
1000
0000
0100
0000
0010
1000
0000
0001
0000
0100
0000
0010
1000
0000
0001
0000
,
1000
0000
0000
0100
0000
0000
1000
0000
0000
0000
0000
0000
0001
0000
0000
0100
0000
0000
0001
0000
0000
0000
0000
0000
1000
0000
0000
0000
0001
0000
0000
0000
1000
0000
0000
0000
0001
0000
0000
0000
0000
0000
0110
0000
0000
0000
0000
0000
,
1000
0001
1000
0000
0000
0000
0001
0000
0000
0000
1000
0000
0010
0000
0010
0100
,
0000
0000
0100
0010
0100
0000
0001
0000
1000
0000
0100
0000
0010
0000
0001
0010
,
0001
0001
0100
0010
1000
0001
0100
0010
,
1000
0100
1000
0000
0001
0000
0100
0010
0100
0000
0001
0000
1000
0001
1000
0000
,
0001
0000
0000
0001
0010
0000
0000
0010
0100
0000
0000
0100
1000
0000
0000
1000
,
0010
0000
0000
0010
0100
0000
0000
0100
0001
0000
0000
0001
1000
0000
0000
1000
,
0100
0000
0000
0100
0010
0000
0000
0010
0001
0000
0000
0001
0100
0000
0000
0100
,
0010
0000
0000
0100
0000
0000
0010
0000
0000
0100
0000
0000
0001
0000
1000
0000
0100
0000
0010
0000
0000
0011
0000
0000
,
2100
0000
3200
0000
0320
0000
0031
1000
,
0002
0000
0203
0000
0320
0000
1030
0001
,
2000
0000
3002
0000
0023
0000
0130
1000
,
0200
0000
2300
0000
3020
0000
0130
0010
,
1000
0000
0001
0000
0100
0000
0010
0000
1000
0000
0001
0000
0010
0100
0010
0100
,
0010
0000
0001
0000
0100
0000
0010
0000
1000
0000
0001
0000
0010
0100
0010
0100
,
1000
0001
1000
0001
0100
0010
0100
0010
1000
0001
1000
0001
0100
0010
0100
0010
,
1000
0100
0001
0100
1000
0001
0011
0000
,
1010
0010
0100
0100
0000
0010
1000
1000
,
0000
0001
0001
0010
0000
0010
0001
0001
,
1000
0010
0010
0010
0000
0100
0100
0100
,
0000
0010
0010
0010
1000
0100
0010
0001
,
1000
0010
0010
0010
0001
0010
0010
0010
,
1000
0010
0010
0010
0001
0010
0010
0010
,
1000
0010
0001
0010
1000
0100
0001
0100
,
1000
0000
0000
0100
0000
0000
0001
0000
0000
0100
0000
0000
1000
0000
0100
0000
0010
0000
0001
0000
0000
1000
0000
0000
,
0001
0100
0100
0010
1000
1000
0001
0010
,
0100
0010
0010
0001
0100
0100
0010
0010
,
1000
0001
1000
0001
1000
0100
0010
0001
,
0010
0001
0100
0010
1000
0001
0100
0001
,
1000
0001
0001
0001
1000
0001
0001
0001
,
1000
0001
0001
0001
1000
0001
0001
0001
,
1000
1000
1000
1000
1000
1000
1000
1000
,
1000
0000
0010
0000
0100
0000
0001
0010
0100
0010
0001
0100
0010
1000
0001
0000
;

//--------------- dance-single - Pandemonium X ----------------
#NOTES:
     dance-single:
     Pandemonium X:
     Challenge:
     16:
     0,0,0,0,0:
0000
0000
0000
0000
,
0000
0000
0000
0000
,
0000
0000
0000
0000
,
0000
0000
0000
0000
,
0000
0000
0000
0000
0000
0000
0000
0000
0000
0000
0000
0000
0000
0000
0001
1000
,
0010
0000
0000
0010
0000
0000
0100
0000
0001
0000
0000
0001
0000
0000
0010
0000
,
0100
0000
0000
0010
0000
0000
0002
0000
0000
0000
0000
0000
0003
0000
0010
0001
,
0010
0000
0000
0010
0000
0000
0100
0000
1000
0000
0000
0010
0000
0000
2000
0000
,
0000
0000
0000
0000
0000
0000
0000
0000
0000
0000
0000
0000
3000
0000
0010
1000
,
0002
0100
0010
0103
,
2010
0100
0010
3100
,
0210
1000
0001
1300
,
1020
0001
1000
0001
,
0130
0001
1000
0100
0010
0100
1000
0001
,
0100
0010
1000
0001
0010
0100
0010
0001
,
1000
0001
1000
0001
0100
0010
0100
0010
1000
0010
1000
0010
0100
0001
0100
0001
,
0400
0040
0000
0000
0000
0000
0000
0000
0000
0000
0000
0000
0330
0000
0000
0000
,
0001
0100
0001
1000
0100
0010
0000
0100
0000
1000
0000
0010
0100
0010
1000
0010
,
1000
0001
0100
0001
1000
0100
0000
0010
0000
0100
0000
1000
0001
0000
0100
0001
,
0010
0100
0010
0001
1000
0010
0000
0100
0000
0001
0000
1000
0010
0000
0100
0001
,
1000
0100
1000
0001
0100
0010
0000
0110
0000
0101
0000
0001
0010
0000
0010
0100
,
1000
0100
0010
0100
1000
0001
0000
0100
0000
0001
0000
0010
0100
0000
0010
0001
,
0100
0010
0100
0001
1000
0100
0000
0010
0000
0100
0000
1000
0010
0000
0100
0001
,
0010
0100
0010
0001
1000
0010
0000
0100
0000
0001
0000
0010
0100
0000
0010
0001
,
4000
0040
0000
0000
0000
0000
0000
0000
0000
0000
0000
0000
3030
0000
0000
0000
,
0001
0000
0000
0000
0000
0000
0000
0000
1000
0000
0000
0000
0000
0000
0000
0000
0100
0000
0000
0000
1000
0000
0000
0000
0000
0000
0000
0000
0020
0030
0000
0000
0000
0000
0000
0000
0020
0030
0000
0000
0000
0000
0000
0000
0001
0000
0000
0000
1000
0000
0000
0000
0000
0000
0000
0000
1000
0000
0000
0000
0001
0000
0000
0000
,
0100
0000
0000
0000
0001
0000
0000
0000
0010
0000
0000
0000
0000
0000
0000
0000
0001
0000
0000
0000
1000
0000
0000
0000
0000
0000
0000
0000
0200
0300
0000
0000
0000
0000
0000
0000
0200
0300
0000
0000
0000
0000
0000
0000
0001
0000
0000
0000
1000
0000
0000
0000
0000
0000
0000
0000
0001
0000
0000
0000
1000
0000
0000
0000
,
0010
0000
0000
0000
1000
0000
0000
0000
0100
0000
0000
0000
0000
0000
0000
0000
0010
0000
0000
0000
0001
0000
0000
0000
0000
0000
0000
0000
0020
0030
0000
0000
0000
0000
0000
0000
0020
0030
0000
0000
0000
0000
0000
0000
1000
0000
0000
0000
0001
0000
0000
0000
0000
0000
0000
0000
1000
0000
0000
0000
0001
0000
0000
0000
,
0010
0100
0010
0000
0100
1000
0000
1010
0000
0011
0000
0001
0010
0000
0100
0010
,
0001
0000
0000
0000
0010
0000
0000
0000
1000
0000
0000
0000
0000
0000
0000
0000
0010
0000
0000
0000
0001
0000
0000
0000
0000
0000
0000
0000
0200
0300
0000
0000
0000
0000
0000
0000
0200
0300
0000
0000
0000
0000
0000
0000
1000
0000
0000
0000
0001
0000
0000
0000
0000
0000
0000
0000
1000
0000
0000
0000
0001
0000
0000
0000
,
0100
0000
0000
0000
1000
0000
0000
0000
0100
0000
0000
0000
0000
0000
0000
0000
0010
0000
0000
0000
1000
0000
0000
0000
0000
0000
0000
0000
0020
0030
0000
0000
0000
0000
0000
0000
0020
0030
0000
0000
0000
0000
0000
0000
0001
0000
0000
0000
1000
0000
0000
0000
0000
0000
0000
0000
0100
0000
0000
0000
0010
0000
0000
0000
,
0001
0000
0000
0000
1000
0000
0000
0000
0010
0000
0000
0000
0000
0000
0000
0000
1000
0000
0000
0000
0001
0000
0000
0000
0000
0000
0000
0000
0020
0030
0000
0000
0000
0000
0000
0000
0020
0030
0000
0000
0000
0000
0000
0000
1000
0000
0000
0000
0100
0000
0000
0000
0000
0000
0000
0000
0010
0000
0000
0000
0001
0000
0000
0000
,
1000
0000
0000
0010
0000
0000
0100
0000
0000
0001
0000
0000
1000
0000
0000
0001
0000
0000
0010
0000
0000
0100
0000
0000
1000
0000
0000
0000
1000
0000
0000
0000
1000
0000
0000
0000
1001
0000
0000
0000
0000
0000
0110
0000
0000
0000
0000
0000
,
1001
1000
0100
0000
0000
0000
0011
0000
0000
0000
0100
0000
1100
0000
1000
0001
,
0000
0000
0100
0001
0010
0000
1000
0000
0010
0000
0001
0000
0100
0000
0010
0100
,
0010
0000
0100
0000
0001
0010
0100
1000
0001
0000
0010
0000
0100
0000
0010
0001
,
1000
0100
0010
0001
0100
0010
1000
0001
0100
0010
1000
0001
0100
0001
1000
0001
,
1000
0000
0100
1000
0100
0000
0100
0010
0100
0000
0010
0001
0010
0000
0001
0100
,
0001
0000
0001
1000
0001
0000
1000
0100
1000
0000
0100
0010
0100
0000
0010
0000
,
0001
0000
0000
1000
0001
0000
0000
0001
0100
0000
0000
0100
0010
0000
0000
0040
,
4000
0000
0000
0000
0000
0000
0000
0000
0000
3030
0000
0000
0001
0000
0001
0000
0001
0000
0001
0000
0000
1001
0000
0000
,
0110
0000
0000
0000
1000
0000
0000
0000
0001
0000
0000
0000
0010
0100
0010
0100
,
1000
0000
0000
0000
0001
0000
0000
0000
1000
0000
0000
0000
0010
0100
0010
0100
,
0001
0000
0000
0000
1000
0000
0000
0000
0001
0000
0000
0000
0100
0010
0100
0010
,
1000
0000
0000
0000
0001
0000
0000
0000
1000
0000
0000
0000
0100
0010
0100
0010
,
0001
0000
0000
1000
0000
0000
0010
0000
0000
1000
0000
0000
0001
0000
0000
0010
0000
0000
0100
1000
0100
1000
0100
1000
,
0100
0000
0000
1000
0000
0000
0001
0000
0000
0100
0000
0000
0001
0000
0000
1000
0000
0000
0001
0010
0001
0010
0001
0010
,
0001
0000
1000
0000
0001
0000
1000
0000
0000
0001
0000
0000
1000
0000
0001
0000
1000
0000
0001
0000
0000
1000
0000
0000
0001
0000
1000
0000
0001
0000
1000
0000
0000
0001
0000
0000
1000
0000
0001
0000
1000
0000
0001
0000
0000
1000
0000
0000
,
0040
0400
0000
0000
0000
0000
0000
0000
0000
0000
0000
0000
0330
0000
0000
0000
,
1001
1000
0001
0001
0000
1000
0001
0001
,
1001
0001
0010
0001
0000
1000
0100
1000
,
0010
0100
0001
0001
0000
0100
0001
0001
,
1001
0000
1000
0000
0001
0000
0001
0000
1000
0100
0010
0001
1000
0000
0001
0000
,
0100
0110
1010
0110
0000
0110
0101
0011
,
0000
0011
0110
0011
0000
1100
0110
1100
,
0001
1010
0110
0101
1000
0011
0110
1100
,
1001
0000
0000
0010
0000
0000
1001
0000
0000
0010
0000
0000
0100
0000
0100
0000
0100
0000
0100
0000
0000
0110
0000
0000
,
1001
0001
1000
1000
0001
0010
0010
0010
,
0100
1000
1000
1000
0001
0100
0100
0100
,
0010
0000
0010
0000
0010
0000
1000
0000
0001
0010
0100
0010
0001
0000
1000
0000
,
0001
0000
0001
0000
0001
0000
1000
0000
0001
1000
0010
1000
0100
0000
0010
0000
,
0100
0010
0010
0010
0100
0010
0010
0010
,
0100
0010
0010
0010
0100
0010
0010
0010
,
0100
0100
0100
0100
0100
0100
0100
0100
,
0110
0000
0011
0000
0101
0000
1001
1000
0001
0100
0001
0010
0100
1000
0020
0000
,
0000
0000
0000
0030
;
