#TITLE:Programmed Genom;
#SUBTITLE:;
#ARTIST:kors k;
#TITLETRANSLIT:;
#SUBTITLETRANSLIT:;
#ARTISTTRANSLIT:;
#GENRE:;
#CREDIT:;
#BANNER:Programmed Genom.png;
#BACKGROUND:Programmed Genom-bg.png;
#LYRICSPATH:;
#CDTITLE:;
#MUSIC:Programmed Genom.ogg;
#OFFSET:-0.127000;
#SAMPLESTART:94.527000;
#SAMPLELENGTH:12.800000;
#SELECTABLE:YES;
#BPMS:0.000000=150.000000
;
#STOPS:
;
#BGCHANGES:4.000=Programmed Genom.mp4=1.000=1=0=0=StretchNoLoop==CrossFade==,
99999=-nosongbg-=1.000=0=0=0 // don't automatically add -songbackground-
;
#KEYSOUNDS:;
#ATTACKS:;

//---------------dance-single - Pandemonium X----------------
#NOTES:
     dance-single:
     Pandemonium X:
     Beginner:
     3:
     0.116111,0.209170,0.039842,0.015937,0.000000,102.000000,97.000000,5.000000,2.000000,0.000000,0.000000,0.116111,0.209170,0.039842,0.015937,0.000000,102.000000,97.000000,5.000000,2.000000,0.000000,0.000000:
// measure 0
0000
0000
0000
0000
,  // measure 1
0000
0000
0000
0000
,  // measure 2
0000
0000
0000
0000
,  // measure 3
0000
0000
0000
0000
,  // measure 4
0000
0000
0000
0000
,  // measure 5
0000
0000
0000
0000
,  // measure 6
0000
0000
0000
0000
,  // measure 7
0002
0000
0000
0000
,  // measure 8
0000
0000
0000
0000
,  // measure 9
0000
0000
0000
0000
,  // measure 10
0000
0000
0000
0003
,  // measure 11
1000
0000
1000
0000
,  // measure 12
1000
0000
0000
0000
,  // measure 13
0001
0000
0001
0000
,  // measure 14
0001
0000
0000
0000
,  // measure 15
0100
0000
0100
0000
,  // measure 16
0100
0000
0000
0000
,  // measure 17
0010
0000
0010
0000
,  // measure 18
0010
0000
0000
0000
,  // measure 19
1000
0000
0000
0000
,  // measure 20
0001
0000
0000
0000
,  // measure 21
0010
0000
0000
0000
,  // measure 22
0100
0000
0010
0000
,  // measure 23
0001
0000
0000
0000
,  // measure 24
1000
0000
0000
0000
,  // measure 25
0010
0000
0010
0000
,  // measure 26
1001
0000
0000
0000
,  // measure 27
1000
1000
1000
0000
,  // measure 28
0001
0001
0001
0000
,  // measure 29
0100
0100
0100
0000
,  // measure 30
0010
0010
0010
0000
,  // measure 31
1000
0000
0000
0001
,  // measure 32
0010
0000
0100
0100
,  // measure 33
1000
0000
0100
0000
,  // measure 34
0010
0001
1000
0000
,  // measure 35
1001
0000
0000
0000
,  // measure 36
0001
0000
0000
0000
,  // measure 37
0100
0000
0000
0000
,  // measure 38
0010
0000
0000
0000
,  // measure 39
1000
0000
0000
0000
,  // measure 40
0100
0000
0000
0000
,  // measure 41
0000
0020
0000
0000
,  // measure 42
0000
0000
0000
0030
,  // measure 43
0001
0000
0000
0000
,  // measure 44
1000
0000
0000
0000
,  // measure 45
0010
0000
0100
0000
,  // measure 46
0001
0000
0000
0000
,  // measure 47
0010
0000
0000
0000
,  // measure 48
0100
0000
0000
0000
,  // measure 49
1000
0000
0000
0000
,  // measure 50
0100
0000
1000
0000
,  // measure 51
1001
0000
0000
0000
,  // measure 52
0001
0000
0000
0000
,  // measure 53
1000
0000
0000
0000
,  // measure 54
0010
0000
0000
0000
,  // measure 55
0100
0000
0010
0000
,  // measure 56
1000
0000
0001
0000
,  // measure 57
1000
0000
0001
0000
,  // measure 58
0110
0000
0000
0000
,  // measure 59
0001
0000
0000
0000
,  // measure 60
1000
0000
0000
0000
,  // measure 61
0010
0000
0000
0000
,  // measure 62
0100
0000
0010
0000
,  // measure 63
1000
0000
0000
0000
,  // measure 64
0001
0000
0000
0000
,  // measure 65
0010
0000
0000
0000
,  // measure 66
0100
0000
1000
1000
,  // measure 67
0001
0000
0000
0000
,  // measure 68
0100
0000
0000
0000
,  // measure 69
0010
0000
0000
0000
,  // measure 70
1000
0000
0001
0000
,  // measure 71
1000
0000
0000
0000
,  // measure 72
0100
0000
0000
0000
,  // measure 73
0010
0000
0001
0000
,  // measure 74
1000
0000
0001
1000
,  // measure 75
0110
0000
0000
0000
;

//---------------dance-single - Pandemonium X----------------
#NOTES:
     dance-single:
     Pandemonium X:
     Easy:
     6:
     0.232221,0.369334,0.151399,0.183273,0.000000,204.000000,185.000000,19.000000,23.000000,0.000000,0.000000,0.232221,0.369334,0.151399,0.183273,0.000000,204.000000,185.000000,19.000000,23.000000,0.000000,0.000000:
0000
0000
0000
0000
,
0000
0000
0000
0000
,
0000
0000
0000
0000
,
1001
0000
0000
0000
,
0000
0000
0000
0110
,
0110
0000
0000
0000
,
0000
0000
0000
0000
,
2002
0000
0000
0000
,
0000
0000
0000
0000
,
0000
0000
0000
0000
,
0000
0000
0000
3003
,
0001
0100
0001
1000
,
0100
1000
0001
1001
,
1000
0010
1000
0001
,
0010
0000
0001
0000
1000
0001
1000
0000
,
0001
0100
0001
1000
,
0100
1000
0001
1001
,
1000
0010
1000
0001
,
0021
0000
0000
0000
0130
1000
0010
0000
,
0100
0001
1000
0000
,
0001
1000
0100
0000
,
0010
0100
1000
0000
,
1100
0101
1100
0000
,
1000
0001
0100
0000
0001
0000
0000
0000
,
0010
0001
1000
0000
,
0001
1000
0010
0000
,
1001
0000
0000
0000
,
0001
0010
0001
0100
,
0010
1000
0010
0200
,
0301
0010
0001
1000
,
0100
0000
1000
0000
0010
0000
0100
0001
,
0100
0001
0010
0100
,
0010
0001
1001
0110
,
0002
0003
2000
3000
,
0001
1000
0110
0000
,
0001
0000
0001
0000
,
1000
0000
1000
0000
,
0010
0000
0010
0000
,
0100
0100
0100
0000
,
0010
0000
1000
0000
,
0100
0000
0010
0000
,
0001
2200
0000
0000
,
0000
0000
0000
3300
,
0001
0000
1000
0000
,
0010
1000
0010
0000
,
0100
0000
0002
0000
,
0013
0000
0200
1300
,
0001
0000
0200
0000
,
0310
0000
1000
0001
,
0010
0000
0200
0000
,
0310
0000
0002
1003
,
0020
0000
0030
0000
,
2000
0000
3000
0000
,
0002
0000
0003
0000
,
0200
0000
0300
0000
,
1001
0000
0001
0000
,
1001
0000
1000
0000
,
0002
0000
0203
0000
,
0020
0000
0000
0330
,
1001
0000
1000
0001
,
0010
0000
0100
1000
,
0010
0000
0100
0001
,
1000
0000
0001
1000
,
0100
0000
0010
0100
,
1000
0000
0100
1000
,
0001
0000
0100
0001
,
1000
0000
0002
0000
,
0103
0100
0010
0000
,
1000
1000
0001
0000
,
0010
0010
0100
0000
,
1000
1000
0100
0010
,
0001
0001
0100
0000
,
0010
0010
1000
0000
,
0001
0000
1000
0000
,
0001
0100
0010
1000
,
2002
0000
0000
0000
,
0000
0000
0000
0000
,
0000
3003
0000
0000
;

//---------------dance-single - Pandemonium X----------------
#NOTES:
     dance-single:
     Pandemonium X:
     Medium:
     10:
     0.359715,0.490852,0.151399,0.207178,0.131478,316.000000,297.000000,19.000000,26.000000,0.000000,0.000000,0.359715,0.490852,0.151399,0.207178,0.131478,316.000000,297.000000,19.000000,26.000000,0.000000,0.000000:
0000
0000
0000
0000
,
0000
0000
0000
0000
,
0000
0000
0000
0000
,
1001
0000
0000
0000
,
0000
0000
0000
1100
,
0101
0000
0000
0000
,
0000
0000
0000
0000
,
2002
0000
0000
0000
,
0000
0000
0000
0000
,
0000
0000
0000
0000
,
0000
0000
0000
3003
,
0001
0100
0001
0010
,
0001
0000
0100
0000
0010
1000
1001
0000
,
0001
1000
0100
0010
,
0100
0000
1000
0000
0001
1000
1010
0000
,
0010
0100
0001
0010
,
0001
0000
1000
0000
0010
0100
0110
0000
,
0010
1000
0001
0010
,
1100
0000
1000
0001
0100
0001
0010
0000
,
0100
0000
0000
0100
0000
0000
0100
0000
0000
0000
1000
0000
0001
0000
0000
0000
,
0100
0000
0000
0100
0000
0000
0100
0000
0000
0000
0010
0000
1000
0000
0000
0000
,
0001
0000
0000
0001
0000
0000
0001
0000
0000
0000
0010
0000
0001
0000
0000
0000
,
0100
0000
0000
0100
0000
0000
0100
0000
0010
0000
0000
0000
1000
0000
0000
0000
,
0002
0000
0000
0000
0013
0000
0000
0100
0000
0000
1000
0000
0001
0000
0000
0000
,
1000
0000
0000
1000
0000
0000
1000
0000
0000
0000
0010
0000
0110
0000
0000
0000
,
0001
0000
0000
1000
0000
0000
0001
0000
0000
1000
0000
0000
0001
0000
0000
0000
,
0220
0000
0000
0330
,
1000
0010
0100
0000
0001
0000
0010
0100
,
1000
0100
0010
0000
0001
0000
0201
0000
,
0310
1000
0001
0000
0010
0000
0100
0010
,
0001
1000
0001
0000
1000
0000
0001
0010
,
0100
0100
0010
0000
0001
0000
0100
0010
,
1000
1000
0001
0000
1100
0000
0011
0000
,
0020
0130
2000
3010
,
0200
0320
2030
3001
,
1000
0010
0100
0010
,
1000
0010
0100
0001
,
0010
0100
0010
0001
,
0010
0001
0100
0010
,
1000
0001
1000
0100
,
1000
0010
0100
0001
,
0010
2002
0000
0000
,
0000
0000
0000
3003
,
0001
0000
0000
0001
0000
0000
0001
0000
1000
0000
0000
0000
0000
0000
0000
0000
,
0001
0000
0000
0001
0000
0000
0001
0000
0100
0000
0000
0000
0000
0000
0000
0000
,
0010
0000
0000
0010
0000
0000
0010
0000
2000
0000
0000
0000
0000
0000
0000
0000
,
3100
0000
0000
0100
0000
0000
0100
0000
0020
0000
0000
0000
0130
0000
0000
0000
,
0010
0000
0000
0010
0000
0000
0010
0000
0002
0000
0000
0000
0000
0000
0000
0000
,
0103
0000
0000
0100
0000
0000
0100
0000
0010
0000
1000
0000
0001
0000
0000
0000
,
1000
0000
0000
1000
0000
0000
1000
0000
0002
0000
0000
0000
0000
0000
0000
0000
,
0013
0000
0000
0010
0000
0000
0010
0000
0200
0000
0000
0000
1300
0000
0001
0000
,
0101
0000
1000
0000
,
0011
0000
0001
0000
,
0110
0000
1000
0000
,
0011
0000
1000
0000
,
0001
1000
0010
0000
1000
0000
0001
0000
,
1000
0100
0010
0000
0100
0000
1000
0000
,
0001
0000
0100
0000
0000
0000
0010
0000
0000
1000
0000
0000
0002
0000
0000
0000
,
0000
2000
0000
3003
,
0001
0000
0000
0001
0000
0000
0001
0000
1000
0000
0000
0000
0001
0000
0000
0000
,
0100
0000
0000
0100
0000
0000
0100
0000
0010
0000
0000
0000
1000
0000
0000
0000
,
0100
0000
0000
0100
0000
0000
0100
0000
0010
0000
0000
0000
0001
0000
0000
0000
,
0100
0000
0000
0100
0000
0000
0100
0000
0010
0000
1000
0000
0001
0000
0010
0000
,
0100
0000
0000
0100
0000
0000
0100
0000
1000
0000
0000
0000
0100
0000
0000
0000
,
0010
0000
0000
0010
0000
0000
0010
0000
0001
0000
0000
0000
1000
0000
0000
0000
,
0010
0000
0000
0010
0000
0000
0010
0000
0100
0000
0000
0000
0010
0000
0000
0000
,
1000
0000
0000
0010
0000
0000
0100
0000
0002
0000
0023
0000
0230
0000
2300
0000
,
3001
0000
0000
0100
0000
0000
0010
0000
1000
0000
0000
0000
0100
0000
0000
0000
,
0010
0000
0000
0001
0000
0000
0100
0000
0010
0000
0000
0000
1000
0000
0000
0000
,
0001
0000
0000
0010
0000
0000
0100
0000
1000
0000
0000
0000
0100
0000
0000
0000
,
1000
0000
0000
0010
0000
0000
0100
0000
0010
0000
1000
0000
0001
0000
0010
0000
,
0100
0000
0000
0010
0000
0000
0001
0000
0100
0000
0000
0000
0010
0000
0000
0000
,
1000
0000
0000
0001
0000
0000
0010
0000
0100
0000
0000
0000
0010
0000
0000
0000
,
0001
0000
0000
0010
0000
0000
0100
0000
1000
0000
0100
0000
0010
0000
0001
0000
,
1000
0000
0000
0010
0000
0000
0100
0000
0010
0000
1000
0000
0100
0000
0010
0000
,
2002
0000
0000
0000
,
0000
0000
0000
0000
,
3003
0000
0000
0000
;

//---------------dance-single - Pandemonium X----------------
#NOTES:
     dance-single:
     Pandemonium X:
     Hard:
     12:
     0.433708,0.552209,0.119526,0.215146,0.282878,381.000000,366.000000,15.000000,27.000000,0.000000,0.000000,0.433708,0.552209,0.119526,0.215146,0.282878,381.000000,366.000000,15.000000,27.000000,0.000000,0.000000:
0000
0000
0000
0000
,
0000
0000
0000
0000
,
0000
0000
0000
0000
,
1001
0000
0000
0000
,
0001
0000
0000
0000
0000
0100
0000
0000
0000
0000
0000
0000
0010
0000
0000
0000
,
0000
0000
0000
0000
0000
0000
0000
1000
0000
0000
0000
0000
0000
0000
0000
0000
,
0000
0000
0000
0000
,
0004
4000
0000
0000
0000
0000
0000
0000
0000
0000
0000
0000
0000
0000
0000
0000
,
0000
0000
0000
0000
,
0000
0000
0000
0000
,
0000
0000
0000
3003
,
0001
0100
0001
0000
1000
0100
1000
0000
,
0001
0100
0001
0000
1000
0001
1001
0000
,
1000
0010
1000
0000
0001
0010
0001
0000
,
1000
0010
1000
0000
0001
1001
1010
0000
,
0001
0100
0010
0000
0100
0010
1000
0000
,
0010
0100
0001
0000
0100
0001
1001
0000
,
1000
0010
0100
0000
0010
0100
0001
0000
,
1001
0000
0000
0000
0010
1000
0000
0001
0010
0000
0100
0000
1000
0000
0000
0000
,
0100
0000
0000
1000
0000
0000
0010
0000
0000
0000
0100
0000
0010
0000
0000
0000
,
1000
0000
0000
0001
0000
0000
0010
0000
0000
0000
0100
0000
0010
0000
0001
0000
,
1000
0000
0000
0001
0000
0000
0100
0000
0000
0000
0001
0000
0010
0000
0000
0000
,
1100
0011
2100
3001
,
0201
0000
0000
0000
0301
0000
0100
0010
0000
0000
0100
0000
0010
0000
0000
0000
,
1000
0000
0000
0001
0000
0000
0010
0000
0000
0000
0100
0000
0010
0000
0001
0000
,
1000
0000
0000
0001
0000
0000
0100
0000
0000
0010
0000
0000
1000
0000
0010
0000
,
2002
0000
0000
3003
,
0001
0000
0100
0000
0010
0000
0000
1000
0000
1000
0000
1000
0100
0000
0010
0000
,
0100
0000
1000
0000
0001
0100
0000
0001
0000
0010
0000
0100
2000
0000
0000
0000
,
3100
0000
1000
0000
0010
0000
0000
0100
0000
0100
0000
0100
0010
0000
1000
0000
,
0001
0000
0010
0000
0100
0000
0000
0010
0000
0001
0000
0100
0010
0000
1000
0000
,
0100
0000
1000
0000
0010
0100
0000
0100
0000
0100
0000
0100
0010
0000
0000
0000
,
1000
0000
0001
0000
0010
0100
0000
0100
0010
0000
0000
0000
0011
0000
0000
0000
,
1000
0001
0200
0000
0301
1000
0200
0000
,
1300
0001
0010
0001
1000
0010
2000
0000
,
3001
0100
0010
1000
,
0100
0000
0010
0000
0001
0000
0100
0001
,
0010
0100
1000
0100
,
1000
1000
0001
0001
0100
0100
0010
0010
,
1000
0000
0010
0000
0000
1000
0000
0000
0001
0000
0000
0010
0000
0000
0100
0000
,
0000
0000
0010
0000
0000
0001
0000
0000
0100
0000
0000
0010
0000
0000
1000
0000
,
0001
0000
0000
0000
4000
0400
0000
0000
0000
0000
0000
0000
0000
0000
0000
0000
,
0000
0000
0000
3300
,
0011
0000
0000
0010
0000
0000
0001
0000
1000
0000
0001
0000
0200
0000
0000
0000
,
0301
0000
0000
0001
0000
0000
0001
0000
0100
0000
0001
0000
0020
0000
0000
0000
,
0130
0000
0000
0100
0000
0000
0100
0000
2000
0000
0000
0000
0000
0000
0000
0000
,
3001
0000
0000
0100
0000
0000
0010
0000
0200
0000
0000
0000
0301
0000
0010
0000
,
0100
0000
0000
0010
0000
0000
0001
0000
2000
0000
0000
0000
0000
0000
0000
0000
,
3001
0000
0000
1000
0000
0000
0100
0000
0010
0000
0001
0000
0200
0000
0000
0000
,
0301
0000
0000
1000
0000
0000
0010
0000
2000
0000
0000
0000
0000
0000
0000
0000
,
3010
0000
0000
1000
0000
0000
0001
0000
0020
0000
0000
0000
0130
0000
0010
0000
,
2002
0000
0000
3003
,
0001
0000
0000
0001
0000
0000
0001
0000
0000
0000
0000
0000
0000
0000
0000
0000
,
1000
0000
0000
1000
0000
0000
1000
0000
0000
0000
0000
0000
0000
0000
0000
0000
,
0010
0000
0000
0010
0000
0000
0010
0000
0000
0000
0000
0000
0000
0000
0000
0000
,
0100
0000
0000
0100
0000
0000
0100
0000
0010
0000
1000
0000
0002
0000
0000
0000
,
0013
0000
0000
0010
0000
0000
0010
0000
0100
0000
1000
0000
0020
0000
0000
0000
,
0130
0000
0002
0000
0000
0000
0023
0000
0000
0200
0030
0000
2300
0000
0000
0000
,
0000
0002
0000
3000
,
1003
0000
0000
1000
0000
0000
0001
0000
0010
0000
0000
0000
0100
0000
0000
0000
,
0010
0000
0000
0010
0000
0000
0001
0000
1000
0000
0000
0000
0100
0000
0000
0000
,
0010
0000
0000
0010
0000
0000
0100
0000
1000
0000
0000
0000
0010
0000
0000
0000
,
0100
0000
0000
0100
0000
0000
0010
0000
1000
0000
0100
0000
0001
0000
0100
0000
,
1000
0000
0000
0001
0000
0000
0010
0000
0100
0000
0000
0000
1000
0000
0000
0000
,
0001
0000
0000
0001
0000
0000
0010
0000
0100
0000
0000
0000
1000
0000
0000
0000
,
0010
0000
0000
0010
0000
0000
0100
0000
0001
0000
0000
0000
1000
0000
0000
0000
,
0001
0000
0000
0001
0000
0000
1000
0000
0100
0010
0100
0010
0100
0010
0100
0000
,
1000
0000
0000
1000
0000
0000
1000
0000
0001
0000
0100
0000
0001
0000
0010
0000
,
0100
0000
0000
0100
0000
0000
0100
0000
0010
0000
0001
0000
1000
0000
0010
0000
,
0100
0000
0000
0100
0000
0000
0100
0000
0010
0000
1000
0000
0001
0000
0010
0000
,
0001
0000
0000
0001
0000
0000
0001
0000
0010
0000
0001
0000
1000
0001
1000
0000
,
0001
0000
0000
0100
0000
0000
0001
0000
0010
0000
0100
0000
0010
0000
0001
0000
,
1000
0000
0000
0010
0000
0000
1000
0000
0001
0000
0010
0000
0100
0000
1000
0000
,
0100
0000
0000
1000
0000
0000
0010
0000
0100
0000
0001
0000
0010
0000
0100
0000
,
0010
0000
0000
0001
0000
0000
0100
0000
0010
0000
1000
0000
0001
0010
0100
0000
,
2200
0000
0000
0000
,
0000
0000
0000
0000
,
3300
0000
0000
0000
;

//---------------dance-single - Pandemonium X----------------
#NOTES:
     dance-single:
     Pandemonium X:
     Challenge:
     16:
     0.681866,0.920348,0.095621,0.430293,0.880506,599.000000,587.000000,12.000000,54.000000,0.000000,0.000000,0.681866,0.920348,0.095621,0.430293,0.880506,599.000000,587.000000,12.000000,54.000000,0.000000,0.000000:
0000
0000
0000
0000
,
0000
0000
0000
0000
,
0000
0000
0000
0000
,
2002
0000
0000
3000
,
2000
0000
0000
0000
0003
0200
0000
0000
0000
0000
3000
0000
0320
0000
0000
0000
,
0100
0000
0000
0002
0000
0000
0000
0000
,
0000
0000
0000
0030
,
4003
0004
0000
0000
0000
0000
0000
0000
0000
0000
0000
0000
0000
0000
0000
0000
,
0000
0000
0000
0000
,
0000
0000
0000
0000
,
0000
0000
0000
3003
,
1000
0000
0010
0000
0100
0001
0000
0001
0010
0000
0100
0000
0010
0001
0000
0001
,
1000
0000
0001
0000
0100
0010
0000
0010
1000
0000
0001
0000
2001
0000
0000
0000
,
3001
0000
1000
0000
0010
1000
0000
1000
0100
0000
0010
0000
0001
0010
0000
0100
,
0010
0000
0001
0000
0100
0010
0000
0100
0001
0000
1001
0000
0102
0000
0000
0000
,
0013
0000
0100
0000
1000
0100
0000
0010
0100
0000
0010
0000
0001
0100
0000
0010
,
0100
0000
0010
0000
1000
0001
0000
0010
0100
0000
0010
0000
0012
0000
0000
0000
,
0103
0000
0010
0000
1000
0001
0000
0010
0001
0000
0010
0000
0100
0010
0000
0100
,
2000
0000
0000
0000
3001
0100
0000
0100
0010
0000
1000
0000
1002
0000
0000
0000
,
1003
0000
0000
1000
0000
0000
0100
0010
0000
0000
0001
0000
0010
0000
0001
0000
,
1000
0000
0000
0010
0000
0000
0100
0010
0000
0000
0010
0000
0100
0000
0001
0000
,
1000
0000
0000
1000
0000
0000
0100
1000
0000
0000
0100
0000
0010
0000
0100
0000
,
1100
0000
0000
1000
0001
0000
0000
0001
2000
0000
3002
0000
0023
0000
0000
0000
,
0430
0000
0000
0000
1300
0000
0001
1000
0000
0000
0100
0000
0010
0000
0001
0000
,
1000
0000
0000
0010
0000
0000
0010
0100
0000
0000
0010
0000
1000
0000
0100
0000
,
1000
0000
0001
0100
0000
0010
1000
0000
0001
0100
0000
0010
1000
0000
0001
2000
,
0002
0000
0000
3003
,
1010
0000
0010
0000
0010
1000
0000
1000
0000
1000
0000
1000
0100
0000
0010
0000
,
0001
0000
0001
0000
0001
0100
0000
0100
0000
0100
0000
0100
0002
0000
0000
0000
,
1003
0000
1000
0000
1000
0010
0000
0010
0000
0010
0000
0010
0100
0000
0001
0000
,
1000
0000
0001
0000
0010
0100
0000
0100
0000
0100
0000
0100
2000
0000
3200
0000
,
0310
0000
0001
0000
1000
0100
0000
0100
0000
0100
0000
0100
0010
0000
0001
0000
,
1000
0000
0010
0000
0100
0001
0000
0001
0000
0001
0000
0001
0010
0000
0100
0000
,
1000
0100
0010
0001
1000
0000
0000
0000
0001
0010
0100
1000
0001
0000
0000
0000
,
1000
0010
1000
0010
0100
0010
0100
0010
0100
0001
0100
0001
2000
0000
0000
0000
,
3100
1000
0010
1000
0100
1000
0010
1000
,
0001
0010
0100
0010
0001
0010
0100
0000
,
0010
0001
0100
0010
0100
0001
0010
0001
,
1000
0001
1000
0001
1000
0001
1000
0001
1000
0010
1000
0100
1000
0010
1000
0100
,
0010
0000
0001
0000
0010
0001
0000
0010
0100
0000
0010
0001
0000
0010
0100
0000
,
0010
0000
0001
0000
1000
0010
0000
0100
0010
0000
1000
0010
0000
0100
0010
0000
,
1001
0000
0000
0000
0040
0400
0000
0000
0000
0000
0000
0000
0000
0000
0000
0000
,
0000
0000
0000
0330
,
1001
0000
0001
1000
0000
1000
0001
0000
0001
1000
0001
0000
0200
0000
0000
0000
,
0310
0000
0100
0010
0000
0010
0100
0000
0001
0000
0010
0000
0200
0000
0000
0000
,
0310
0000
0100
1000
0000
1000
0010
0000
0400
0000
0000
0000
0000
0000
0000
0000
,
0310
0000
0000
0000
0000
0000
0100
0000
0000
0010
0000
0000
0000
0000
0000
0010
0000
0000
1000
0000
0000
0000
0000
0000
0004
0000
0000
0000
0000
0000
0000
0000
0000
0000
0000
0000
1003
0000
0010
0000
1000
0000
0010
0000
0000
1000
0000
0000
,
0010
0000
0100
0001
0000
0010
0100
0000
4000
0000
0000
0000
0000
0000
0000
0000
,
3001
0000
0100
0010
0000
1000
0001
0000
1000
0000
0100
0000
0040
0000
0000
0000
,
0031
0000
0100
0010
0000
1000
0100
0000
4000
0000
0000
0000
0000
0000
0000
0000
,
3001
0000
0000
0000
0000
0000
0001
0000
0000
1000
0000
0000
0000
0000
0000
1000
0000
0000
0010
0000
0000
0000
0000
0000
0400
0000
0000
0000
0000
0000
0000
0000
0000
0000
0000
0000
0301
0000
1000
0000
0001
0000
1000
0000
0000
0001
0000
0000
,
2000
0000
0000
0000
,
3001
0000
0100
0001
0000
0001
0010
0000
0100
0000
0000
0000
1000
0000
0000
0000
,
0100
0000
1000
0100
0000
0100
0010
0000
0001
0000
0000
0000
0100
0000
0000
0000
,
0010
0000
0010
1000
0000
1000
0001
0000
0010
0000
0000
0000
0100
0000
0000
0000
,
1000
0000
1000
0001
0000
0001
0100
0000
0010
1000
0010
1000
0010
0000
0100
0000
,
0010
0000
1000
0001
0000
0001
0010
0000
0100
1000
0100
1000
0100
0000
1000
0000
,
0020
0000
0200
0000
0030
0000
0302
0000
0000
2000
0000
0003
0002
0000
0000
0000
,
0000
0000
0000
3000
4000
0000
0000
0000
0000
0000
0000
0000
0000
0000
3003
0000
,
1001
0000
0001
0010
0000
0001
1000
0010
1000
0010
1000
0010
0100
0000
0001
0000
,
1000
0000
0001
0100
0000
0010
1000
0001
1000
0001
1000
0001
1000
0000
0100
0000
,
0010
0000
0100
1000
0000
0001
0100
0010
0100
0001
0100
0001
0100
0000
0001
0000
,
1000
0000
0000
0000
0000
0000
0001
0000
0000
0100
0000
0000
0000
0000
0000
0010
0000
0000
1000
0000
0000
0100
0000
0000
0010
0000
0000
0001
0000
0000
0100
0000
0000
0001
0000
0000
1000
0000
0001
0000
1000
0000
0002
0000
0000
0000
0000
0000
,
0103
0000
0010
1000
0000
0100
0010
0001
1000
0001
1000
0001
1000
0000
0001
0000
,
0100
0000
0010
1000
0000
0100
0010
0100
1000
0010
1000
0010
1000
0000
0010
0000
,
0100
0000
0001
0010
0000
0100
0010
0001
0100
0010
0100
0010
0100
0000
0001
0000
,
1000
0000
0001
0000
0010
0000
0010
0000
0004
0403
0340
4030
3004
4000
0000
3003
,
0021
0000
0031
0200
0000
0310
1000
0100
0010
0001
0010
0001
0020
0000
0032
0000
,
0203
0000
0310
2000
0000
3100
0010
0100
1000
0001
1000
0001
2000
0000
3020
0000
,
0230
0000
0301
0020
0000
0130
0010
0001
0010
0001
0010
0001
0020
0000
0032
0000
,
0203
0000
0000
0000
0000
0000
0310
0000
0000
1000
0000
0000
0000
0000
0000
1000
0000
0000
0010
0000
0000
0100
0000
0000
0001
0000
0000
1000
0000
0000
0100
0000
0000
0010
0000
0000
0001
0000
1000
0000
0001
0000
0200
0000
0000
0000
0000
0000
,
0310
0000
0100
0002
0000
0013
0100
1000
0010
0100
0010
0100
0020
0000
2030
0000
,
3002
0000
0103
0020
0000
1030
0100
0010
0001
0010
0001
0010
0002
0000
0203
0000
,
0320
0000
0000
0000
0000
0000
1030
0000
0000
0200
0000
0000
0000
0000
0000
0310
0000
0000
0100
0000
0000
1000
0000
0000
0001
0000
0000
1000
0000
0000
0001
0000
0100
0000
0001
0000
0200
0000
0000
0000
0000
0000
0302
0000
0000
0000
0000
0000
,
1003
0000
0000
0010
0000
0000
0100
0000
0000
0010
0000
0000
1000
0000
0000
0001
0000
0000
1000
0000
0000
0001
0000
0000
0010
0000
0000
0100
0000
0000
1000
0000
0000
0001
0000
0000
0100
0000
0010
0000
0100
0000
0001
0000
0000
0000
0000
0000
,
4000
0040
0000
0000
0000
0000
0000
0000
0000
0000
0000
0000
0000
0000
0000
0000
,
0000
0000
0000
0000
,
3030
0000
0000
0000
;
