#TITLE:Nowhere;
#SUBTITLE:;
#ARTIST:Nhato;
#TITLETRANSLIT:;
#SUBTITLETRANSLIT:;
#ARTISTTRANSLIT:;
#GENRE:;
#CREDIT:;
#BANNER:Nowhere.png;
#BACKGROUND:Nowhere-bg.png;
#LYRICSPATH:;
#CDTITLE:;
#MUSIC:Nowhere.ogg;
#OFFSET:0.782000;
#SAMPLESTART:2.611000;
#SAMPLELENGTH:13.759000;
#SELECTABLE:YES;
#BPMS:0.000000=140.000000
;
#STOPS:
;
#BGCHANGES:4.000=nowhere.mp4=1.000=0=0=1=====,
99999=-nosongbg-=1.000=0=0=0 // don't automatically add -songbackground-
;
#KEYSOUNDS:;
#ATTACKS:;

//---------------dance-single - ----------------
#NOTES:
     dance-single:
     :
     Beginner:
     3:
     0.105359,0.171027,0.000000,0.000000,0.000000,87.000000,87.000000,0.000000,0.000000,0.000000,0.000000,0.105359,0.171027,0.000000,0.000000,0.000000,87.000000,87.000000,0.000000,0.000000,0.000000,0.000000:
// measure 0
0000
0000
0000
0000
,  // measure 1
0000
0000
0000
0000
,  // measure 2
0000
0000
0000
0000
,  // measure 3
0000
0000
0000
0000
,  // measure 4
0000
0000
0000
0000
,  // measure 5
0000
0000
0000
0000
,  // measure 6
0001
0000
0000
0000
,  // measure 7
1000
0000
0000
0000
,  // measure 8
0100
0000
0010
0000
,  // measure 9
0100
0000
0000
0000
,  // measure 10
1000
0000
0000
0000
,  // measure 11
0001
0000
0000
0000
,  // measure 12
0100
0000
0000
0000
,  // measure 13
0010
0000
1000
0000
,  // measure 14
0001
0000
0001
0000
,  // measure 15
0001
0001
0001
0000
,  // measure 16
1000
0000
0000
0000
,  // measure 17
0000
0000
0000
0000
,  // measure 18
0010
0000
0000
0000
,  // measure 19
0100
0000
0000
0000
,  // measure 20
0001
0000
0001
0000
,  // measure 21
0001
0000
0000
0000
,  // measure 22
1000
0000
0000
0000
,  // measure 23
0010
0000
0000
0000
,  // measure 24
0100
0000
0000
0000
,  // measure 25
0010
0010
0000
0000
,  // measure 26
1000
0000
0000
0000
,  // measure 27
0001
0000
0000
0000
,  // measure 28
0010
0000
0010
0000
,  // measure 29
0010
0000
0000
0000
,  // measure 30
0100
1000
0000
0000
,  // measure 31
0001
0000
0000
0000
,  // measure 32
0100
0000
0000
0000
,  // measure 33
0010
0010
0000
0000
,  // measure 34
1000
0000
0000
0000
,  // measure 35
0001
0000
0000
0000
,  // measure 36
0100
0000
0000
0000
,  // measure 37
0010
0000
0000
0000
,  // measure 38
1000
0000
0000
0000
,  // measure 39
0001
0000
0000
0000
,  // measure 40
0010
0000
0000
0000
,  // measure 41
0100
0000
0000
0000
,  // measure 42
1000
0000
0000
0000
,  // measure 43
0001
0000
0000
0000
,  // measure 44
0100
0000
0000
0000
,  // measure 45
0010
0000
0000
0000
,  // measure 46
1000
0000
0000
0000
,  // measure 47
0100
0000
0000
0000
,  // measure 48
0010
0000
0000
0000
,  // measure 49
0001
0000
1000
0000
,  // measure 50
0010
0000
0000
0000
,  // measure 51
0000
0000
0000
0000
,  // measure 52
0100
0100
0000
0000
,  // measure 53
0010
0010
0000
0000
,  // measure 54
1000
0000
0001
0000
,  // measure 55
1000
0000
0001
0001
,  // measure 56
1000
0000
0000
0000
,  // measure 57
0010
0000
0000
0000
,  // measure 58
0100
0000
0000
0000
,  // measure 59
0001
0000
0000
0010
,  // measure 60
0100
0000
1000
0000
,  // measure 61
0001
0000
1000
0000
,  // measure 62
0001
0000
0100
0000
,  // measure 63
0010
0010
0010
0000
,  // measure 64
0100
0000
0010
0000
,  // measure 65
1000
1000
1000
0000
,  // measure 66
0001
0000
1000
0000
,  // measure 67
0010
0100
0000
0000
;

//---------------dance-single - ----------------
#NOTES:
     dance-single:
     :
     Easy:
     8:
     0.290646,0.432335,0.194975,0.076294,0.016954,240.000000,217.000000,23.000000,9.000000,0.000000,0.000000,0.290646,0.432335,0.194975,0.076294,0.016954,240.000000,217.000000,23.000000,9.000000,0.000000,0.000000:
// measure 0
0000
0000
0000
0000
,  // measure 1
0000
0000
0000
0000
,  // measure 2
0000
0000
0000
0000
,  // measure 3
0000
0000
0000
0000
,  // measure 4
0000
0000
0000
0000
,  // measure 5
0000
0000
0000
0000
,  // measure 6
1000
0000
0000
0001
0000
0000
0100
0000
,  // measure 7
0001
0010
0100
1000
0000
0000
0000
0000
,  // measure 8
0001
0000
0000
1000
0000
0000
0100
0000
,  // measure 9
1000
0100
0010
0001
0000
0000
0000
0000
,  // measure 10
1000
0000
0000
0100
0000
0000
1000
0000
,  // measure 11
0010
0000
0000
0100
0000
0000
0010
0000
,  // measure 12
0100
0000
0000
0001
0000
0000
0100
0000
,  // measure 13
0001
0000
1000
0000
0001
0100
0001
0000
,  // measure 14
1001
0010
1001
0100
,  // measure 15
1001
0110
1001
0110
,  // measure 16
0002
0000
0000
0000
,  // measure 17
2000
0000
0000
0000
0000
0003
3000
0000
,  // measure 18
0002
0103
0100
0010
,  // measure 19
1000
0001
0010
0001
,  // measure 20
1001
0010
1001
0010
,  // measure 21
1001
0010
1001
1001
,  // measure 22
0001
1000
0100
0100
,  // measure 23
1000
0010
0100
0001
,  // measure 24
0010
0100
1000
0001
,  // measure 25
1000
0100
0010
0001
0000
0000
0000
0000
,  // measure 26
2000
3100
0100
0010
,  // measure 27
0001
0100
0001
1000
,  // measure 28
0001
0110
1000
0110
,  // measure 29
0001
0110
1001
1001
,  // measure 30
0001
1000
0100
0010
,  // measure 31
0100
1000
0001
0100
,  // measure 32
0001
0010
0100
1000
,  // measure 33
0001
0010
0100
1000
0000
0000
0000
0000
,  // measure 34
0100
0000
1000
0000
,  // measure 35
0010
0000
0100
0100
,  // measure 36
0001
0000
0010
0000
,  // measure 37
0100
0000
0010
0010
,  // measure 38
0001
0000
1000
0000
,  // measure 39
0010
0000
0000
0000
0100
0001
0100
0000
,  // measure 40
0001
0000
1000
0000
,  // measure 41
0010
0000
0000
0000
0100
0010
0100
0000
,  // measure 42
0010
0000
0000
1000
0000
0000
0001
0000
,  // measure 43
0010
0000
0000
0100
0000
0000
1000
0100
,  // measure 44
0010
0000
0000
0100
0000
0000
1000
0001
,  // measure 45
0100
0000
0000
0001
0000
0000
0010
0100
,  // measure 46
1000
0100
1000
0010
,  // measure 47
0100
0000
0001
0010
0000
0010
0001
0000
,  // measure 48
1000
0001
0100
0010
,  // measure 49
1000
0010
0100
0002
,  // measure 50
0013
0000
0000
0000
,  // measure 51
0000
0000
0000
0000
,  // measure 52
2100
3001
0100
0010
,  // measure 53
0100
0001
1000
0001
,  // measure 54
1001
0010
1001
0100
,  // measure 55
1001
0010
1001
0110
,  // measure 56
1001
1000
0001
0010
,  // measure 57
0001
0100
0010
1000
,  // measure 58
0200
0000
0000
0000
,  // measure 59
0310
0100
1000
0001
0000
0000
0000
0000
,  // measure 60
1000
0000
0000
0000
0000
0000
0001
0000
0000
0001
0000
0000
0001
0000
0000
0000
,  // measure 61
0000
0000
0100
0000
0000
0100
0000
0000
0100
0000
0000
0000
0000
0000
0000
0000
,  // measure 62
0010
1000
0001
0010
,  // measure 63
0100
0010
0001
1000
0000
0000
0000
0000
,  // measure 64
0001
0000
0000
0000
0000
0000
1000
0000
0000
1000
0000
0000
1000
0000
0000
0000
,  // measure 65
0000
0000
0010
0000
0000
0010
0000
0000
0010
0000
0000
0000
0000
0000
0000
0000
,  // measure 66
0100
0001
0010
0100
,  // measure 67
1000
0100
0010
0002
0000
0000
2000
0000
,  // measure 68
3003
0000
0000
0000
;

//---------------dance-single - ----------------
#NOTES:
     dance-single:
     :
     Medium:
     10:
     0.375417,0.432335,0.067817,0.228883,0.084772,310.000000,302.000000,8.000000,27.000000,0.000000,0.000000,0.375417,0.432335,0.067817,0.228883,0.084772,310.000000,302.000000,8.000000,27.000000,0.000000,0.000000:
// measure 0
0000
0000
0000
0000
,  // measure 1
0000
0000
0000
0000
,  // measure 2
0000
0000
0000
0000
,  // measure 3
0000
0000
0000
0000
,  // measure 4
0000
0000
0000
0000
,  // measure 5
0000
0000
0000
0000
,  // measure 6
0001
0100
0000
0010
0000
0000
0100
0000
,  // measure 7
0001
0010
0100
1000
0000
0000
0000
0000
,  // measure 8
0001
1000
0000
0100
0000
0000
1000
0000
,  // measure 9
0001
0010
0100
1000
0000
0000
0000
0000
,  // measure 10
0001
0000
0100
0001
0000
0001
1001
0000
,  // measure 11
1000
0000
0100
0010
0000
0010
0011
0000
,  // measure 12
0001
0000
0100
0010
0000
1000
1010
0000
,  // measure 13
1001
0000
0001
0100
1000
0100
0001
0000
,  // measure 14
1000
0001
1000
0000
0001
1000
0001
0000
,  // measure 15
1000
1000
0001
0001
1000
1000
0001
0000
,  // measure 16
0200
0000
0000
0320
0000
0000
2030
0000
,  // measure 17
3001
0010
0100
2000
0000
0000
3000
0000
,  // measure 18
0201
0000
0310
1000
0010
1000
0010
0000
,  // measure 19
0100
0000
0001
0010
0100
1000
0001
0000
,  // measure 20
1000
0000
0000
1000
0000
0000
1000
0000
0001
0000
0000
0001
0000
0000
0001
0000
,  // measure 21
0100
0000
0000
0100
0000
0000
0100
0000
0010
0000
0000
0010
0000
0000
0010
0000
,  // measure 22
1000
0000
0001
0000
0100
0001
0010
0100
,  // measure 23
1000
0000
0100
0000
1000
0100
0010
0000
,  // measure 24
0100
0000
0000
1000
0000
0000
0010
0000
0000
0100
0000
0000
0001
0000
0010
0000
,  // measure 25
0100
1000
0001
1000
0000
0000
0000
0000
,  // measure 26
2001
0000
3100
0010
0001
0010
0100
0000
,  // measure 27
0010
0000
0001
0000
0100
0010
1000
0000
,  // measure 28
0001
0000
0000
0001
0000
0000
0001
0000
1000
0000
0000
1000
0000
0000
1000
0000
,  // measure 29
0010
0000
0000
0010
0000
0000
0010
0000
0100
0000
0000
0100
0000
0000
0100
0000
,  // measure 30
0010
0000
1000
0000
0000
0000
0001
0000
0000
0001
0000
0000
0001
0000
0000
0000
,  // measure 31
0000
0000
1000
0000
0000
0100
0000
0000
0010
0000
0010
0000
0001
0000
0000
0000
,  // measure 32
0100
0010
1000
0001
,  // measure 33
1000
0100
0010
0001
0000
0000
0000
0000
,  // measure 34
2000
3002
0100
0103
,  // measure 35
0002
0000
2003
0000
0010
0010
3010
0000
,  // measure 36
2000
3002
0100
0103
,  // measure 37
0002
0000
2003
0000
0010
0010
3010
0000
,  // measure 38
2000
3200
0010
0310
,  // measure 39
0200
0000
2300
0000
0001
0001
3001
0000
,  // measure 40
0200
0302
0010
0013
,  // measure 41
0200
0000
2300
0000
0001
0001
3001
0000
,  // measure 42
1000
0000
0100
0000
1000
0000
0010
0100
,  // measure 43
0001
0000
1000
0001
0000
0000
0001
0010
,  // measure 44
0100
0000
1000
0000
0001
0000
1000
0100
,  // measure 45
1000
0000
1000
0100
0000
0000
0010
0001
,  // measure 46
1000
0000
0001
0000
0100
0000
0010
0100
,  // measure 47
0001
0000
0010
0100
0000
0000
0010
0100
,  // measure 48
1000
0000
1000
0000
0001
0000
0010
0100
,  // measure 49
1000
0000
0100
0010
0000
0001
2000
0000
,  // measure 50
3010
0000
0000
0000
,  // measure 51
0000
0000
0000
0000
,  // measure 52
0001
0000
1000
0010
1000
0010
1000
0000
,  // measure 53
0001
0000
0010
0001
0010
0001
0010
0000
,  // measure 54
0001
0000
0000
0100
0000
0000
0100
0000
0010
0000
0000
1000
0000
0000
1000
0000
,  // measure 55
0010
0000
0000
0100
0000
0000
0100
0000
0010
0000
0000
1000
0000
0000
0001
0000
,  // measure 56
1000
0000
0001
0010
0001
0010
0100
0000
,  // measure 57
1000
0000
0010
1000
0010
0100
0010
0000
,  // measure 58
2000
0000
0000
0000
,  // measure 59
3001
0010
0100
1000
0000
0000
1001
0000
,  // measure 60
0101
0000
0100
0000
0000
0000
0001
0000
0000
0001
0000
0000
0001
0000
0000
0000
,  // measure 61
0000
0000
1000
0000
0000
0001
0000
0000
0100
0000
0100
0000
0100
0000
0000
0000
,  // measure 62
0000
0000
0001
0100
0001
1000
0100
0000
,  // measure 63
0010
0100
1000
0002
0000
0000
0003
0000
,  // measure 64
1000
0000
0010
0000
0000
0000
0100
0000
0000
0100
0000
0000
0010
0000
0000
0000
,  // measure 65
0000
0000
1000
0000
0000
0010
0000
0000
0100
0000
0001
0000
0100
0000
0000
0000
,  // measure 66
0001
0000
1000
0100
0001
0100
1000
0000
,  // measure 67
0001
0100
0010
2000
0000
0000
0200
0000
,  // measure 68
3300
0000
0000
0000
;

//---------------dance-single - ----------------
#NOTES:
     dance-single:
     :
     Hard:
     13:
     0.471088,0.518802,0.101726,0.059340,0.381472,389.000000,377.000000,12.000000,7.000000,0.000000,0.000000,0.471088,0.518802,0.101726,0.059340,0.381472,389.000000,377.000000,12.000000,7.000000,0.000000,0.000000:
// measure 0
0000
0000
0000
0000
,  // measure 1
0000
0000
0000
0000
,  // measure 2
0000
0000
0000
0000
,  // measure 3
0000
0000
0000
0000
,  // measure 4
0000
0000
0000
0000
,  // measure 5
0000
0000
0000
0000
,  // measure 6
0001
1000
0001
0000
0000
0000
1000
0000
0000
0000
0000
0000
0001
0000
0000
0000
,  // measure 7
1000
0100
0010
0001
0000
0000
0000
0000
,  // measure 8
1000
0001
1000
0000
0000
0000
0001
0000
0000
0000
0000
0000
1000
0000
0000
0000
,  // measure 9
0001
0010
0100
1000
0000
0000
0000
0000
,  // measure 10
0001
0000
0100
0000
0010
0000
1000
0010
0000
1000
0010
0000
0000
0000
0000
0000
,  // measure 11
1000
0000
0001
0000
0010
0000
0100
1000
0000
0100
1000
0000
0000
0000
0000
0000
,  // measure 12
0100
0000
1000
0000
0001
0000
0100
0010
0000
0100
0010
0000
0000
0000
0000
0000
,  // measure 13
0100
0010
1000
0001
0010
1000
0010
0000
,  // measure 14
0001
0010
0000
0001
0010
0000
0000
0000
0100
1000
0000
0100
1000
0000
0000
0000
,  // measure 15
0001
0001
1000
1000
0010
0010
0100
0000
,  // measure 16
0010
1000
0100
0000
0000
0000
0010
0000
0000
0000
0000
0000
0001
0000
0000
0000
,  // measure 17
1000
0001
0100
0010
0000
0000
0000
0000
,  // measure 18
0200
0000
0301
0001
1000
0001
0100
0001
,  // measure 19
0010
0000
0000
0100
0000
1000
0000
0100
0000
1000
0100
0000
0011
0000
0000
0000
,  // measure 20
0001
0000
0000
1000
0000
0001
1000
0001
0000
0000
0000
0001
0000
1000
0001
1000
,  // measure 21
0000
0000
0000
1000
0000
0001
1000
0001
1000
0000
0000
1000
0000
0000
1000
0000
,  // measure 22
0101
0000
0001
1000
0001
0010
1000
0010
,  // measure 23
0001
0000
0000
1000
0000
0100
0000
0010
0000
0001
0010
0000
0100
0000
0000
0000
,  // measure 24
1000
0000
0000
1000
0000
0000
1000
0000
0000
1000
0000
1000
0100
0000
0100
0000
,  // measure 25
0010
0100
1000
0001
0000
0100
0110
0000
,  // measure 26
2001
0000
3001
0100
0001
1000
0100
0010
,  // measure 27
0001
0000
0010
0001
0100
0010
1000
0000
,  // measure 28
0001
0000
0000
1000
0000
0001
1000
0001
0000
0000
0000
0001
0000
1000
0001
1000
,  // measure 29
0000
0000
0000
1000
0000
0001
1000
0001
0010
0000
0000
0010
0000
0000
0010
0000
,  // measure 30
0100
1000
0001
0000
0000
0000
0010
0000
0000
0010
0000
0000
0010
0000
0100
0000
,  // measure 31
0000
0000
0010
0000
0000
0010
0000
0000
0010
0000
0001
0000
1000
0000
0000
0000
,  // measure 32
0001
0010
0100
0000
1000
0000
0100
0000
0010
0000
0001
0000
1000
0000
0000
0000
,  // measure 33
0001
0010
0100
1000
0000
0000
0000
0000
,  // measure 34
0001
0000
0000
0001
0000
0000
0001
0000
1000
0000
0000
0000
1000
0000
0000
0000
,  // measure 35
0100
0000
0000
0100
0000
0000
0100
0000
0010
0000
0010
0000
0010
0000
0000
0000
,  // measure 36
0001
0000
0000
0001
0000
0000
0001
0000
0010
0000
0000
0000
0010
0000
0000
0000
,  // measure 37
0100
0000
0000
0100
0000
0000
0100
0000
1000
0000
1000
0000
1000
0000
0000
0000
,  // measure 38
0001
0000
0000
0100
0000
0000
0010
0000
1000
0000
0000
0000
1010
0000
0000
0000
,  // measure 39
1000
0000
0000
0010
0000
0000
0100
0000
0001
0000
0001
0000
0001
0000
0000
0000
,  // measure 40
0010
0000
0000
0100
0000
0000
1000
0000
0100
0000
0000
0000
1100
0000
0000
0000
,  // measure 41
1000
0000
0000
0100
0000
0000
0010
0000
0001
0000
0001
0000
0001
0000
0000
0000
,  // measure 42
1000
0000
0001
0100
0000
0010
1000
0001
,  // measure 43
0010
0000
0100
1000
0000
0100
1000
0010
,  // measure 44
0100
0000
0001
0010
0000
0100
0010
0001
,  // measure 45
1000
0000
0001
0100
0110
0010
0110
0000
,  // measure 46
0100
0000
0010
0000
1000
0000
0001
0010
,  // measure 47
1000
0000
0010
0000
0001
0000
1000
0100
,  // measure 48
0001
0100
1000
0000
0010
0100
0010
0000
,  // measure 49
0100
0000
1000
0000
0100
0000
0001
0000
1000
0000
0001
0000
1000
0010
1000
0010
,  // measure 50
0100
0000
0000
0000
,  // measure 51
0000
0000
0000
0000
,  // measure 52
0020
0000
0000
0000
1030
0000
0001
0000
0010
0100
0010
0100
1000
0000
0001
0000
,  // measure 53
1000
0000
0000
0001
0000
1000
0000
0010
0000
1000
0010
0000
0100
0000
0000
0000
,  // measure 54
0001
0000
0000
1000
0000
0001
1000
0001
0000
0000
0000
1000
0000
0001
1000
0001
,  // measure 55
0000
0000
0000
1000
0000
0001
1000
0001
1000
0000
0000
1000
0000
0000
1000
0000
,  // measure 56
0000
0000
0000
0000
0001
0000
0010
0000
0100
1000
0100
1000
0001
0000
0010
0000
,  // measure 57
0001
0000
0000
0100
0000
0001
0000
0010
0000
0100
0010
0000
0001
0000
0000
0000
,  // measure 58
2000
0000
0000
0000
,  // measure 59
3001
0010
0100
1000
0000
0001
1001
0000
,  // measure 60
0001
0100
0010
0000
0000
0000
0110
0000
0000
0110
0000
0000
0110
0000
0000
0000
,  // measure 61
0000
0000
0010
0000
0000
1000
0000
0000
0001
0000
0001
0000
0001
0000
0000
0000
,  // measure 62
0000
0000
0000
0000
1000
0100
0010
0000
0010
0100
1000
0000
1000
0000
0000
0000
,  // measure 63
0001
1000
0010
0200
0000
0000
0010
0000
,  // measure 64
0301
0010
0100
0000
0000
0000
0100
0000
0000
0100
0000
0000
0010
0000
0010
0000
,  // measure 65
0000
0000
0001
0000
0000
1000
0000
0000
0001
0000
0100
0000
0010
0000
0000
0000
,  // measure 66
1000
0000
0000
0000
0001
0100
0010
0000
1000
0010
0100
0000
0001
0000
0000
0000
,  // measure 67
1000
0100
0010
0002
0000
0000
2000
0000
,  // measure 68
3003
0000
0000
0000
;

//---------------dance-single - ----------------
#NOTES:
     dance-single:
     :
     Challenge:
     15:
     0.576447,0.807026,0.262792,0.474721,0.508630,476.000000,445.000000,31.000000,56.000000,0.000000,0.000000,0.576447,0.807026,0.262792,0.474721,0.508630,476.000000,445.000000,31.000000,56.000000,0.000000,0.000000:
// measure 0
0000
0000
0000
0000
,  // measure 1
0000
0000
0000
0000
,  // measure 2
0000
0000
0000
0000
,  // measure 3
0000
0000
0000
0000
,  // measure 4
0000
0000
0000
0000
,  // measure 5
0000
0000
0000
0000
,  // measure 6
0001
0100
2000
0000
0000
0000
3200
0000
0000
0000
0000
0000
0320
0000
0000
0000
,  // measure 7
0130
0010
1000
0002
0000
0000
0003
0000
,  // measure 8
1000
0100
0002
0000
0000
0000
0203
0000
0000
0000
0000
0000
2300
0000
0000
0000
,  // measure 9
3001
0100
0010
2000
0000
0000
3000
0000
,  // measure 10
0001
0000
0100
0000
0010
0000
1000
0100
0000
0100
1000
0000
0100
0000
0000
0000
,  // measure 11
1000
0000
0010
0000
0100
0000
0001
0100
0000
0100
0001
0000
0010
0000
0001
0000
,  // measure 12
0100
0000
0001
0000
1000
0000
0001
0010
0000
0010
0001
0000
0100
0000
0000
0000
,  // measure 13
0010
1000
0001
1000
2100
3010
0101
0000
,  // measure 14
0001
0100
0000
0100
0010
0000
1000
0000
0010
1000
0000
1000
0001
0000
1000
0000
,  // measure 15
0001
0000
0001
0000
1000
0000
1000
0000
0010
0100
0010
0100
0010
0000
0000
0000
,  // measure 16
1000
0010
0002
0000
0000
0000
0023
0000
0000
0000
0000
0000
2030
0000
0000
0000
,  // measure 17
3020
0230
0302
2003
0000
0001
3001
0000
,  // measure 18
1200
0000
0000
0000
0310
0000
0010
0000
0001
0100
0001
1000
0001
0000
0001
0000
,  // measure 19
1000
0000
0000
0100
0000
0010
0000
0001
0000
0100
0010
1000
0010
0000
0000
0000
,  // measure 20
2001
0000
0000
3010
0000
0010
0100
0010
0200
0000
0000
0301
0000
0010
0100
0010
,  // measure 21
0200
0000
0000
1300
0000
0010
0100
0010
0100
0000
0000
0100
0000
0000
0100
0000
,  // measure 22
1001
0000
0000
0000
1000
0000
1000
0000
0001
0100
0001
0010
0100
0000
0100
0000
,  // measure 23
1000
0000
0000
0100
0000
0010
0000
0001
0000
1000
0001
1000
0001
0000
0000
0000
,  // measure 24
0100
0000
0000
0100
0000
0000
0010
0000
0000
0010
0000
0010
0100
0000
0001
0000
,  // measure 25
2000
3200
0320
0032
0000
1000
1003
0001
,  // measure 26
0201
0000
0000
0000
0310
1000
0001
1000
0000
0001
1000
0001
1000
0000
0001
0000
,  // measure 27
0100
0000
0010
0100
0000
0001
0000
0010
0000
0001
1000
0001
1000
0000
0001
0000
,  // measure 28
1000
0000
0000
0000
0000
0000
0001
0000
0000
0100
0000
0000
0000
0000
0000
0001
0000
0000
1000
0000
0001
0000
1000
0000
0001
0000
0000
0000
0000
0000
1000
0000
0000
0100
0000
0000
0000
0000
0000
1000
0000
0000
0001
0000
1000
0000
0001
0000
,  // measure 29
1000
0000
0000
0000
0000
0000
0001
0000
0000
0100
0000
0000
0000
0000
0000
0001
0000
0000
1000
0000
0001
0000
1000
0000
0001
0000
0000
1000
0000
0000
0000
0000
0000
0001
0000
0000
1000
0000
0000
0000
0000
0000
0001
0000
0000
0000
0000
0000
,  // measure 30
0100
0010
2000
0000
3100
1000
0100
0000
0010
0001
0000
0001
1000
0000
1000
0000
,  // measure 31
0001
0000
0100
0000
0010
1000
0000
0001
0010
0100
0010
0100
1000
0000
1000
0000
,  // measure 32
0001
0100
0010
0000
1000
0000
0100
0000
0010
0000
0100
0000
1000
0000
0001
0000
,  // measure 33
1000
0100
0001
0010
0000
1000
1001
0000
,  // measure 34
0002
2003
3200
0001
,  // measure 35
2300
0000
3002
0000
0100
0100
0103
0000
,  // measure 36
0020
0230
1000
0301
,  // measure 37
2000
0000
3200
0000
0010
0010
0310
0000
,  // measure 38
0200
2300
3020
0001
,  // measure 39
2030
0000
3020
0000
0100
0100
0130
0000
,  // measure 40
0020
0032
0203
1000
,  // measure 41
0302
0000
0203
0000
0010
0010
0310
0000
,  // measure 42
1000
0001
0010
1000
0010
0001
0100
0010
,  // measure 43
2010
0000
3001
0021
0000
0031
2100
3002
,  // measure 44
1003
0010
0001
0010
0100
0001
1000
0100
,  // measure 45
0120
0000
0031
0012
0010
0013
0120
0230
,  // measure 46
1300
1100
0101
0101
,  // measure 47
0011
0000
0011
0000
1000
1000
1000
0000
,  // measure 48
0011
1010
0101
1100
,  // measure 49
0001
0000
0000
0000
0000
0000
0100
0000
0000
0000
0000
0000
0010
0000
0000
0000
0000
0000
1000
0000
0000
0000
0000
0000
0001
0000
0000
1000
0000
0000
0001
0000
0000
1000
0000
0000
0001
0000
1000
0000
0001
0000
1000
0000
0001
0000
1000
0000
,  // measure 50
0001
0000
0000
0000
,  // measure 51
0000
0000
0000
0000
0000
0000
0000
0000
0000
0000
0000
0000
1000
0100
0010
0000
,  // measure 52
2100
0000
0000
0000
3010
0000
0010
0000
0100
0001
0010
0001
1000
0000
0001
0000
,  // measure 53
0100
0000
0000
0010
0000
1000
0000
0001
0000
0010
0100
0010
0001
0000
0100
0000
,  // measure 54
1000
0000
0000
0000
0000
0000
0000
0000
0000
0110
0000
0000
0000
0000
0000
0001
0000
0000
1000
0000
0001
0000
1000
0000
0001
0000
0000
0000
0000
0000
0000
0000
0000
0110
0000
0000
0000
0000
0000
0001
0000
0000
1000
0000
0001
0000
1000
0000
,  // measure 55
0001
0000
0000
0000
0000
0000
0000
0000
0000
0110
0000
0000
0000
0000
0000
0001
0000
0000
1000
0000
0001
0000
1000
0000
0001
0000
0000
0000
0000
0000
0001
0000
0000
0010
0000
0000
0000
0000
0000
0010
0000
0000
0100
0000
0000
0000
0000
0000
,  // measure 56
1001
0000
0000
0000
1000
0000
0001
0000
0100
0001
0010
0100
0010
0000
0001
0000
,  // measure 57
1000
0000
0000
0001
0000
0100
0000
0010
0000
1000
0001
0010
0100
0000
1000
0000
,  // measure 58
0002
0000
0000
0000
,  // measure 59
1003
0100
0001
0010
0000
1000
1001
0000
,  // measure 60
0001
0100
1000
0000
0000
0000
0100
0000
0000
0100
0000
0000
0110
0000
0000
0000
,  // measure 61
0000
0000
0010
0000
0000
1000
0000
0000
0001
0000
0010
0000
0010
0000
0000
0000
,  // measure 62
1100
0000
0100
0000
0010
0001
1000
0000
0000
0000
0001
0000
1001
0000
0000
0000
,  // measure 63
0001
0100
1000
0100
0000
0001
1000
0100
,  // measure 64
1000
0100
0001
0000
0000
0000
0100
0000
0000
0100
0000
0000
0100
0000
0010
0000
,  // measure 65
0000
0000
0001
0000
0000
0010
0000
0000
0100
0000
0100
0000
1000
0100
0010
0001
,  // measure 66
1000
0000
0000
0000
0001
0100
1000
0000
1000
0100
0001
0000
1000
0000
0000
0000
,  // measure 67
0001
0100
1000
0010
0000
0001
2000
0000
,  // measure 68
3000
0000
0000
0000
;
