#TITLE:Nocturnal 2097;
#SUBTITLE:;
#ARTIST:Dirty Androids;
#TITLETRANSLIT:;
#SUBTITLETRANSLIT:;
#ARTISTTRANSLIT:;
#GENRE:;
#CREDIT:;
#BANNER:Nocturnal 2097.png;
#BACKGROUND:Nocturnal 2097-bg.png;
#LYRICSPATH:;
#CDTITLE:cdtitle.png;
#MUSIC:Nocturnal 2097.ogg;
#OFFSET:1.081000;
#SAMPLESTART:6.507000;
#SAMPLELENGTH:24.482000;
#LASTBEATHINT:0.211950;
#SELECTABLE:YES;
#BPMS:0.000000=157.000000
,116.000000=39.250000
,120.000000=78.500000
,144.000000=157.000000
;
#STOPS:
;
#BGCHANGES:3.000=Nocturnal 2097.mp4=1.000=0=0=0=StretchNoLoop====,
99999=-nosongbg-=1.000=0=0=0 // don't automatically add -songbackground-
;
#KEYSOUNDS:;
#ATTACKS:;

//---------------dance-single - Pandemonium X----------------
#NOTES:
     dance-single:
     Pandemonium X:
     Beginner:
     5:
     0.156082,0.341428,0.091048,0.000000,0.000000,132.000000,121.000000,11.000000,0.000000,0.000000,0.000000,0.156082,0.341428,0.091048,0.000000,0.000000,132.000000,121.000000,11.000000,0.000000,0.000000,0.000000:
// measure 0
0000
0000
0000
0000
,  // measure 1
0000
0000
0000
0000
,  // measure 2
0000
0000
0000
0000
,  // measure 3
0000
0000
0000
0000
,  // measure 4
0000
0000
0000
0000
,  // measure 5
0001
0000
0000
0000
,  // measure 6
1000
0000
0010
0000
,  // measure 7
1000
0000
0000
0000
,  // measure 8
0100
0000
0010
0000
,  // measure 9
0100
0000
0000
0010
,  // measure 10
0001
0000
0000
1000
,  // measure 11
1000
0000
0000
0001
,  // measure 12
0100
0000
0010
0000
,  // measure 13
1000
0000
0000
0000
,  // measure 14
0001
0000
0000
0000
,  // measure 15
0010
0000
0000
0000
,  // measure 16
0100
0000
1000
0000
,  // measure 17
0001
0000
0000
0000
,  // measure 18
1000
0000
0000
0000
,  // measure 19
0110
0000
0000
0000
,  // measure 20
1000
0001
1000
0000
,  // measure 21
0001
0000
0000
0001
0000
0000
0001
0000
,  // measure 22
0000
0000
0000
0000
,  // measure 23
1000
0000
0000
1000
0000
0000
1000
0000
,  // measure 24
0000
1000
0000
0000
1000
0000
1000
0000
,  // measure 25
0010
0000
0000
0010
0000
0000
0010
0000
,  // measure 26
0000
0000
0000
0000
,  // measure 27
0100
0000
0000
0100
0000
0000
0100
0000
,  // measure 28
0000
0100
0000
0000
0100
0000
0100
0000
,  // measure 29
1001
0000
0000
0000
,  // measure 30
0001
1000
0000
0010
,  // measure 31
0100
0001
0000
0010
,  // measure 32
0100
1000
0000
0100
,  // measure 33
1000
0001
0000
0100
,  // measure 34
0110
0000
0010
0000
,  // measure 35
1000
0001
0000
0010
,  // measure 36
0100
0000
0000
0000
,  // measure 37
1000
0000
0000
0010
,  // measure 38
0100
0000
0000
0010
,  // measure 39
1000
0001
0010
0000
,  // measure 40
0100
0000
0000
0000
,  // measure 41
0000
0000
0000
0000
,  // measure 42
0110
0000
0000
1001
0000
0000
0110
0000
,  // measure 43
0000
1001
0000
0000
0100
0000
0100
0000
,  // measure 44
1001
0000
0000
0000
,  // measure 45
0001
0000
0010
0000
,  // measure 46
0100
0000
0000
0000
,  // measure 47
0010
0000
0001
0000
,  // measure 48
1000
0000
0000
0000
,  // measure 49
0010
0000
1000
0000
,  // measure 50
0100
0000
0000
0000
,  // measure 51
0011
0000
0000
0000
,  // measure 52
0001
0000
1000
0000
,  // measure 53
0010
0000
0000
0000
,  // measure 54
0100
0000
0010
0000
,  // measure 55
1000
0000
0001
0000
,  // measure 56
0010
0000
0100
0100
,  // measure 57
0100
0000
0000
0000
,  // measure 58
0010
0000
0001
0000
,  // measure 59
1000
0000
0001
0000
,  // measure 60
0110
0000
0000
0000
,  // measure 61
0100
0000
0010
0000
,  // measure 62
1000
0000
0000
0000
,  // measure 63
0001
0000
0010
0000
,  // measure 64
0100
0000
0010
0000
,  // measure 65
0001
0000
1000
0000
,  // measure 66
0010
0010
0010
0000
,  // measure 67
0100
0100
0100
0000
,  // measure 68
0001
0000
0000
1000
0000
0000
0110
0000
;

//---------------dance-single - Pandemonium X----------------
#NOTES:
     dance-single:
     Pandemonium X:
     Easy:
     7:
     0.280237,0.372571,0.148987,0.322805,0.033108,237.000000,219.000000,18.000000,39.000000,0.000000,0.000000,0.280237,0.372571,0.148987,0.322805,0.033108,237.000000,219.000000,18.000000,39.000000,0.000000,0.000000:
0000
0000
0000
0000
,
0000
0000
0000
0000
,
0000
0000
0000
0000
,
0000
0000
0000
0000
,
0000
0000
0000
0000
,
0001
0010
0001
0100
,
0001
1000
0001
0001
,
1000
0010
0100
0010
,
1000
0010
0100
0100
,
0010
1000
0001
0010
,
0100
0010
0001
1000
,
0010
1000
0001
0010
,
0100
1000
0100
1000
,
1020
0000
0000
0030
,
0201
0000
0000
0300
,
1002
0000
0000
0003
,
1200
1300
0100
0010
,
0001
0000
0000
1000
0000
0000
0010
0000
,
1000
0000
0000
0001
0000
1000
0000
0010
,
0200
0000
0000
0000
0000
0000
0000
0310
,
2000
3200
0320
0032
,
1003
0000
0000
0010
0000
0000
0100
0200
,
0000
0310
1000
0001
,
0010
0000
0000
0001
0000
0000
1000
0000
,
0000
0010
0000
0000
1000
0000
0001
0000
,
0100
0000
0000
0001
0000
0000
0010
0020
,
0000
0031
0010
0100
,
1000
0000
0000
0010
0000
0000
1000
0000
,
0000
0001
0000
0000
0010
0000
0001
0000
,
2002
0000
0000
3003
,
0001
0000
0100
0000
0010
1000
0100
0000
,
0010
0000
0001
0000
0010
0001
0100
0010
,
1000
0000
0001
0000
0010
0001
1000
0000
,
0001
0000
1000
0000
0010
1000
0100
0010
,
0002
0000
0000
0000
0003
0000
0010
0000
0200
0000
0000
0000
0300
1000
0000
0001
,
0000
0100
0010
2000
0000
0000
0000
0000
0000
0000
0000
3001
0010
0000
0100
0000
,
2100
0000
0000
0000
0000
0000
0000
3200
,
0000
0000
0000
0000
0000
0000
1300
0002
,
0000
0000
0000
0000
0003
0100
0000
0001
,
0000
0010
0001
0200
0000
0320
0000
0000
,
1030
0000
0000
1000
0000
0000
1000
0000
,
0000
1000
0000
0000
1000
0000
0001
0000
,
0101
0000
0000
1010
0000
0000
1100
0000
,
0000
0011
0000
0000
0001
1000
0001
0000
,
1000
0100
1000
0010
,
0001
0010
1000
0100
,
0001
0100
0010
0001
,
0100
1000
0100
0010
,
1000
0100
0001
0100
,
1000
0010
0001
0010
,
0200
0320
2030
3002
,
1003
0000
0000
1000
0000
0000
1000
0000
0000
0000
0000
0000
0000
0000
0000
0000
,
0001
0000
0000
0010
0000
0001
0000
2000
,
0000
0000
0000
3000
,
0010
0000
0000
1000
0000
0100
0000
2000
,
0000
0000
3200
0000
,
0310
0000
0000
0011
0000
1100
0000
2002
,
0000
0000
0000
3003
,
0102
0000
0000
0000
0000
0000
0000
0000
0103
0000
0000
0010
0000
0000
1000
0000
,
0002
0000
0000
0000
0013
0020
0000
0000
,
0130
0000
1000
2000
0000
0000
0000
0000
,
3001
1000
0010
1000
,
0200
0000
0000
0310
0000
0100
0000
1000
,
0100
1000
0010
0100
,
0001
0001
1000
1000
,
0001
0100
0010
1000
,
0001
0000
1000
0200
0000
0000
0000
0000
,
0310
0000
0000
0001
0000
0000
2000
0000
0000
0000
0000
0000
3000
0000
0000
0000
,
1001
0000
0000
0110
0000
0000
1001
2002
,
0000
3003
0000
0000
;

//---------------dance-single - Pandemonium X----------------
#NOTES:
     dance-single:
     Pandemonium X:
     Medium:
     12:
     0.459967,0.573186,0.355913,0.595948,0.144848,389.000000,346.000000,43.000000,72.000000,0.000000,0.000000,0.459967,0.573186,0.355913,0.595948,0.144848,389.000000,346.000000,43.000000,72.000000,0.000000,0.000000:
0000
0000
0000
0000
,
0000
0000
0000
0000
,
0000
0000
0000
0000
,
0000
0000
0000
0000
,
0001
0000
0000
0001
0000
0000
0001
0000
0000
0001
0000
0000
1000
0000
0100
0000
,
0010
0011
0001
0101
,
0100
0000
0110
0000
0100
0001
1000
0100
,
0010
0000
0011
0000
0001
0100
0010
0000
,
0100
0001
1000
0000
0100
1000
0010
0000
,
0100
0000
0010
1000
0000
0001
0010
0100
,
0010
0000
0001
1000
0000
0100
1000
0010
,
0100
0000
0010
1000
0000
0001
0010
1000
,
0010
0000
0100
1000
0100
0001
0100
1000
,
1002
0100
0010
0103
,
2001
0100
0010
3100
,
1002
0010
0100
0013
,
2001
0000
3010
0100
0001
0010
1000
0010
,
0002
0000
0000
0023
0000
0000
0032
0000
,
2003
0000
0000
3020
0000
0230
0000
0310
,
2002
0000
0000
0000
0000
0000
0000
0000
0000
0000
0000
0000
3003
0000
0001
0100
,
0010
1000
0100
0001
0100
0010
0001
1000
,
0001
1000
1000
0001
1000
1000
1001
2002
,
0000
3003
1000
0100
0010
0001
1000
0001
,
0100
0010
0010
0100
0010
0010
0100
0010
,
0010
0100
0010
0010
0100
0100
0100
0000
,
1001
0001
0001
1000
0001
0001
1001
2002
,
3003
0001
0100
0010
1000
0001
1000
0010
,
0110
0100
0100
0010
0100
0100
0010
0100
,
0100
0010
0100
0100
0110
0000
1001
0000
,
1001
0000
0000
0000
0000
0000
0000
0000
0000
0000
0000
0000
0020
0030
0000
0000
,
1001
0000
1100
0000
0100
0010
0011
0000
,
0001
0000
0000
0000
0101
0000
0000
0000
0100
0000
0001
0000
0011
0000
0010
0100
,
1000
0000
0110
0000
0010
0001
1010
0000
,
1000
0001
0100
0001
0000
0010
0000
0200
0000
0000
0000
1300
0100
0001
0100
1000
,
0020
0000
0000
0000
0000
0000
0130
0002
0000
0000
0000
0000
0000
0023
0000
0032
,
0000
1003
0010
2000
0000
0000
0000
0000
0000
0000
0000
3001
0100
0010
1000
0100
,
0010
0000
0001
0000
0010
0000
0100
1000
,
0010
0000
0100
0000
0001
0000
1000
0001
,
0010
0000
0010
0000
0001
0010
0000
0001
,
0000
0100
0010
2000
0000
0002
0000
0000
,
3003
0000
0000
0000
,
0000
0000
0000
0000
,
1001
0001
0001
1000
1000
0010
0010
0100
,
0100
0001
0001
0001
0010
1000
0020
0000
,
0031
0000
0010
0000
0001
0000
0000
0000
0100
0000
0000
0010
0000
0000
1010
0000
,
0000
0000
1000
0000
0100
0000
0000
0000
0100
0000
0000
1000
0000
0000
1010
0000
,
0000
0000
0010
0000
0100
0000
0000
0000
0001
0000
0000
0010
0000
0000
0110
0000
,
0000
0000
0010
0000
0001
0000
0000
0000
0100
0000
0000
0010
0000
0000
1010
0000
,
0000
0000
1000
0000
0001
0000
0000
0000
0010
0000
0000
0001
0000
0000
0101
0000
,
0000
0000
0001
0000
0100
0000
0000
0000
0010
0000
0000
1000
0000
0000
0010
0000
,
2000
3200
0302
0203
2300
3020
0032
0023
,
1030
0000
0000
1000
0000
0000
1000
0000
0001
0000
0100
0000
0010
0000
1000
0000
,
0002
0000
0000
0023
0000
0032
0000
0200
,
0000
0000
0000
0303
,
0020
0000
0000
2030
0000
3200
0000
0020
,
0000
0000
0000
0330
0110
0000
1100
0000
,
2002
0000
3003
0022
0033
2200
3300
0202
,
0000
0000
0000
0000
0000
0000
0000
0303
,
0022
0000
0000
0000
0000
0000
0033
0000
0020
0000
0000
0230
0000
0000
2300
0000
,
0020
0000
3000
0000
0100
0200
0000
0330
,
1001
0000
1001
2002
0000
0000
0000
0003
,
3001
0100
0010
1000
0001
0100
0010
1000
,
0002
0000
0000
0023
0000
2030
0000
3010
,
0002
0000
0000
0023
0000
0000
0130
0000
0020
0000
0000
0002
0000
0000
0030
0000
,
1003
0100
0001
0100
1000
0100
0001
0100
,
1000
0100
0001
0100
1000
0100
0001
0100
,
1000
0010
0100
0002
0000
0000
0000
0000
,
2003
0000
0000
3002
0000
0000
0200
0000
0000
0000
0000
0000
0303
0000
0000
0000
,
1001
0000
0001
1000
0001
1000
0001
0000
1000
0001
1000
0001
1000
0000
2002
0000
,
0000
3003
0000
0000
;

//---------------dance-single - Pandemonium X----------------
#NOTES:
     dance-single:
     Pandemonium X:
     Hard:
     15:
     0.608954,0.888438,0.165541,0.670441,0.471792,515.000000,495.000000,20.000000,81.000000,0.000000,0.000000,0.608954,0.888438,0.165541,0.670441,0.471792,515.000000,495.000000,20.000000,81.000000,0.000000,0.000000:
0000
0000
0000
0000
,
0000
0000
0000
0000
,
0000
0000
0000
0000
,
0000
0000
0000
0000
,
0001
0100
0000
0100
0010
0000
0010
1000
0000
1000
0001
0000
0010
0100
0010
0100
,
1000
0100
1000
0010
0100
0001
0010
0001
,
0100
0001
1000
0001
0020
0130
2000
3001
,
1000
0000
0010
0000
0100
0000
0001
0000
0010
0100
0020
0000
0031
0100
0002
0000
,
0103
0010
0200
0000
0310
1000
0020
0000
1030
0001
2000
0000
3100
0010
0200
0000
,
1300
0001
0010
0001
1000
0010
0100
0001
,
0010
0100
0010
0001
2000
3010
0200
0301
,
0010
0001
1000
0100
1000
0010
0100
0001
,
0010
0000
0100
0000
0110
0000
0100
1000
0001
1000
0001
1000
0001
0000
0000
0000
,
2100
0010
0100
3010
,
0102
0010
0100
0013
,
0021
1000
0001
1030
,
1002
0000
0000
0000
0103
0010
0100
0001
1000
0001
0100
0010
0100
0001
0100
0010
,
2000
0000
3000
0021
0000
0000
0230
0300
,
1002
0000
0000
0010
0000
0010
0000
2003
,
0002
0000
0000
0000
0000
0000
0000
0000
0000
0000
0000
0000
0000
3003
1000
0010
,
0100
0001
0100
0010
0100
0001
1000
0100
0010
0100
1000
0010
0100
0001
1000
0100
,
0010
0000
1000
0100
1000
0100
1000
0000
0001
0100
0001
0100
0001
0000
1002
0000
,
0000
0013
0100
0010
0001
0100
0010
1000
,
0001
0000
1000
0010
1000
0010
1000
0000
0001
0010
0001
0010
0001
0000
1000
0010
,
1000
0010
1000
0000
0001
0010
0001
0010
0002
0000
0000
0000
2003
0000
0000
0000
,
3001
0000
1000
0100
1000
0100
1000
0000
0001
0100
0001
0100
0001
0000
0020
0000
,
0000
0130
1000
0010
0100
0010
1000
0001
,
1000
0000
0001
0100
0001
0100
0001
0000
1000
0100
1000
0100
1000
0000
0001
0100
,
0001
0100
0001
0000
1000
0100
1000
0100
2000
0000
0000
0000
0002
0000
0000
0000
,
3003
0000
0000
0110
,
1000
0001
0011
0000
0010
0100
1100
0000
,
1000
0001
0101
0000
0001
1000
1100
0000
,
1000
0010
0110
0000
0100
0001
0011
0000
,
0100
0000
0000
0000
0000
0000
0010
0000
0000
0000
0000
0000
0010
0000
0000
0000
0000
0000
0200
0000
0000
0000
0000
0000
0000
0000
0000
0000
0000
0000
2300
0000
0000
0000
0000
0000
0000
0000
0000
0000
0000
0000
3002
0000
0000
0000
0000
0000
0000
0000
0000
0000
0000
0000
0000
0000
0000
0000
0000
0000
0000
0000
0000
0000
0000
0000
2003
0000
3000
0000
0000
0000
0200
0000
0000
0000
0300
0000
0200
0000
0000
0300
0000
0000
0020
0000
0000
0030
0000
0000
0002
0000
0000
0003
0000
0000
,
2000
0000
0000
0000
0000
0000
3010
0200
0000
0000
0000
0000
0000
0302
0000
2003
,
0000
0000
3001
0000
0010
0000
0200
0000
0000
0000
0000
0000
0000
0000
0000
0000
0000
0000
0000
0000
0000
0000
0310
0000
0001
0010
0001
0010
0100
1000
0100
1000
,
0020
0000
0100
0000
1030
0000
0010
2000
,
0001
0000
0010
0000
0100
0000
3001
0020
,
0100
0000
0001
0000
0130
2000
0000
3020
,
0000
0130
0001
2000
0000
0002
0000
3003
,
1000
0100
0100
0010
0001
0001
0010
0100
,
0100
1000
0100
0100
0010
0001
1000
0010
,
1001
0000
0001
0100
0001
1000
0001
0000
1000
0100
1000
0001
1000
0000
0001
0100
,
0001
1000
0001
0000
1000
0100
1000
0001
1000
0000
0001
0000
2000
0000
0000
0000
,
3010
0000
0100
0000
1000
0000
0100
0000
0010
0000
1000
0000
0001
0000
0010
0100
,
0000
0000
0010
0000
0001
0000
0100
0000
0010
0000
0001
0000
0010
0000
0100
0010
,
0000
0000
1000
0000
0100
0000
0010
0000
0001
0000
0100
0000
0010
0000
1000
0001
,
0000
0000
0100
0000
0010
0000
0100
0000
0001
0000
0010
0000
0100
0000
1000
0001
,
0000
0000
1000
0010
1000
0000
0010
0000
0100
0000
0001
0000
0010
0000
0100
0010
,
0000
0000
0100
0010
0100
0000
0010
0000
0001
0000
0100
0000
0001
0000
1000
0001
,
0020
0230
2300
3020
0230
0302
0023
0230
,
1300
0000
0001
0100
0000
0100
1000
0000
0001
0100
0010
1000
0100
0010
0001
1000
,
0001
1000
0010
1000
0001
0010
0100
0010
,
0001
0100
0010
0100
0001
1000
0100
0000
,
0010
0100
1000
0010
0100
0001
0010
0100
,
0010
0001
0100
0001
1000
0100
0010
0000
,
1002
0000
0000
2003
0000
3002
0000
0200
,
0000
0000
0000
0000
0000
0000
0000
0303
,
2010
0000
0000
0000
0000
0000
0000
0000
3020
0000
0000
2030
0000
0000
3002
0000
,
0023
0000
0000
0000
0130
2000
0000
0000
,
3002
0000
0010
0020
0000
0000
0000
0003
,
0031
0010
0100
0010
0001
0100
0010
1000
,
0002
0000
0000
2003
0000
3200
0000
2300
,
3020
0000
0000
2030
0000
0000
3002
0000
0023
0000
0000
0230
0000
0000
0000
0000
,
0310
0000
0001
0000
0100
0000
0010
0000
1000
0000
0001
0100
0001
0000
0100
0010
,
0100
0000
0010
1000
0010
0000
1000
0001
1000
0000
0001
0010
0100
0000
0100
0000
,
0010
0100
1000
0020
0000
0000
0000
0000
,
0130
0000
0000
0002
0000
0000
2000
0000
0000
0000
0000
0000
0000
0000
3003
0000
,
1001
0000
0001
0100
0010
1000
0100
0000
0010
0100
1000
0001
0100
0000
2002
0000
,
0000
3003
0000
0000
;

//---------------dance-single - Pandemonium X----------------
#NOTES:
     dance-single:
     Pandemonium X:
     Challenge:
     17:
     0.863178,1.089053,0.455238,0.935307,1.204311,730.000000,675.000000,55.000000,113.000000,6.000000,0.000000,0.863178,1.089053,0.455238,0.935307,1.204311,730.000000,675.000000,55.000000,113.000000,6.000000,0.000000:
0000
0000
0000
0000
,
0000
0000
0000
0000
,
0000
0000
0000
0000
,
0000
0000
0000
0000
,
0001
0100
0000
010M
1000
0000
1000
0100
0000
M100
0001
0000
1000
0001
0100
0010
,
1000
0000
0100
1000
0010
0000
0100
0001
0010
0000
0001
0100
0010
0000
1000
0001
,
0010
0000
0100
0010
0001
0000
0010
0100
2000
0000
3100
0000
0002
0000
0103
0000
,
0010
0000
1000
0001
0010
0000
0100
0010
0001
0100
0001
0100
0010
0100
0010
1000
,
0010
1000
0001
1000
0001
0010
0100
1000
0001
0010
0100
1000
0010
0100
0001
1000
,
0100
0000
0010
0001
1000
0000
0001
0100
0010
0000
1000
0100
0010
0000
0100
1000
,
0010
0000
0100
0001
1000
0000
0001
0010
0200
0000
1300
0000
2000
0000
3010
0000
,
0100
0000
0010
1000
0001
0000
0010
0100
1000
0000
0100
1000
0001
0000
0100
0001
,
1000
0000
0100
0010
0001
0000
0010
0001
0100
0000
0010
0100
0001
1000
0001
1000
,
0100
0000
0000
0010
0001
0000
0100
0000
1010
0000
0000
1000
0010
0000
0100
0000
,
0101
0000
0000
0001
1000
0000
0100
0000
0110
0000
0100
0000
1001
0000
0000
0000
,
0101
0000
0000
0001
1000
0000
0010
0000
1010
0000
0000
1000
0100
0000
0010
0000
,
0011
0000
0000
0000
0001
0100
0010
1000
0001
0010
0001
0100
0010
0100
0010
1000
,
0002
0000
0000
0200
0000
0003
0020
0300
,
2000
0000
0030
3200
0000
0302
0000
0203
,
2000
0000
0000
0000
0000
0000
0000
0000
0000
0000
0000
0000
0000
0000
0000
0000
0000
0000
0300
0000
0000
3001
1000
0001
,
0010
1000
0010
0001
0100
1000
0100
0001
0100
0010
1000
0001
0010
1000
0010
0001
,
1000
0000
0001
0100
0010
1000
1001
0000
1000
0100
0010
0001
1001
0000
2001
0000
,
0000
3010
0001
0010
0100
0001
1000
0100
,
0010
0000
0001
0010
0100
1000
1100
0000
1000
0100
0010
0001
0011
0000
0001
0100
,
0010
1000
1010
0000
1000
0010
0100
0001
0101
0000
0000
0000
0021
0000
0000
0000
,
0130
0000
0010
0001
0100
0001
1001
0000
1000
0010
0100
0001
1001
0000
2001
0000
,
0000
3100
1000
0100
0001
0100
0010
1000
,
0001
0000
1000
0100
0010
0100
1100
0000
0100
0010
0001
0100
0110
0000
0100
0010
,
1000
0001
1001
0000
0001
1000
0100
1000
1010
0000
0000
0000
0011
0000
0000
0000
,
2001
3002
0023
0230
0000
0320
0000
0032
0000
0000
0203
0000
0000
0000
0320
0000
2030
0000
0000
0002
0000
0000
0000
3003
M00M
0000
0000
0000
0000
0000
0000
0000
,
1000
0000
0010
0000
0100
0000
0001
0100
0000
0001
1000
0000
0001
0000
0001
0000
0010
0000
0100
0000
1000
0000
0010
1000
0000
0010
0100
0000
0010
0000
0010
0000
,
0100
0000
0010
0000
1000
0000
0001
1000
0000
0001
0100
0000
0010
0000
0010
0000
1000
0000
0010
0000
0100
0000
0001
0010
0000
0100
0010
0000
0100
0000
0100
1000
,
0010
0000
0100
0000
0001
0000
1000
0010
0000
M010
0001
0000
1000
0000
1000
0000
0001
0000
1000
0000
0001
0000
0001
0100
0000
010M
1000
0000
0001
0000
0100
0000
,
0010
0000
1000
0000
0100
0000
0020
0000
0000
0000
0230
0000
0000
0000
2000
0000
0000
0000
0000
0000
0300
0000
0002
0003
3200
0300
0200
0300
0200
0300
0020
0030
,
2001
0000
0100
0000
0010
0000
3001
0010
0200
0000
0001
0000
1300
0100
0010
0002
,
0000
0000
0013
0000
0100
0000
2000
0000
0001
0000
0000
0000
0010
0000
0000
0000
0001
0000
0000
0000
0100
0000
0000
0000
3001
0010
0001
0100
0010
1000
0100
0010
,
0002
0000
0100
0000
0010
0000
1003
0200
,
0001
0000
0010
0000
0301
0100
2000
3020
,
1000
0000
0100
0000
1030
2020
3030
0022
,
0030
0010
0010
0023
0000
0200
0000
0330
,
1001
0001
0001
0100
0010
0010
1000
0001
,
0001
0000
0010
0000
0100
0000
0100
0000
0010
0000
0001
0010
0100
1000
0001
0100
,
0010
0000
1000
0010
0100
0001
0011
0000
0010
0001
0100
0010
1010
0000
1000
0001
,
0010
0100
1100
0000
0100
1000
0010
0100
0101
0000
0001
0000
2001
0000
0000
0000
,
3100
0010
0001
0100
0010
1000
0001
0010
0001
0100
0010
1000
0001
0010
0100
1000
,
0000
0100
1000
0100
0010
0100
1000
0010
0100
0001
0010
0100
1000
0001
1000
0010
,
0000
0100
0001
0010
0001
1000
0100
0010
0100
1000
0001
0100
0001
0010
0100
1000
,
0000
0100
1000
0010
1000
0001
0010
0100
0010
0001
0100
0010
1000
0001
0010
0100
,
0000
0010
0100
1000
0010
1000
0001
0100
0010
0100
0001
0010
0100
1000
0001
1000
,
0000
0001
0100
0010
1000
0001
0010
0100
0010
0001
1000
0100
0010
0100
1000
0001
,
2000
3200
0320
0032
0023
0230
2300
3020
0230
0302
0023
0230
2300
3200
0320
0032
,
1003
0000
0000
0010
0000
0000
0001
0000
0000
0010
0000
0000
1000
0000
0000
0100
0000
0000
0001
0000
0000
0100
0000
0000
1000
0000
0000
0100
0000
0000
0010
0000
0001
0000
0100
0000
0001
0000
0100
0000
0010
0000
1000
0000
0010
0000
1000
0000
,
0001
1000
0010
1000
0001
0010
0100
1000
0100
1000
0001
0100
0001
0010
0100
1000
,
0002
0100
0010
1003
,
0100
0010
0100
0010
0001
0010
0100
1000
0010
1000
0001
0010
0100
1000
0001
0100
,
0020
1000
0100
1030
,
2002
0000
0000
0000
0000
3003
0202
0000
0000
0303
2020
0000
0000
3030
2002
0000
,
0000
0000
0000
0000
0000
0000
0000
3003
,
0220
0000
0000
0000
0000
0000
0000
0330
2002
0000
3003
0220
0000
0330
0022
0033
,
0202
0000
0000
0000
0000
0000
0303
0000
2020
3030
0220
0000
0000
0000
0330
0000
,
2002
0000
0000
3003
0220
0330
0220
0000
0000
0000
0000
0000
0000
0000
0330
0000
,
1000
0010
1000
0001
0010
0001
1000
0010
1000
0001
0010
0100
1000
0001
0100
0001
,
0020
0000
0000
0230
0000
2300
0000
3020
,
0230
0000
0000
0302
0000
0000
0203
0000
0320
0000
0000
2000
0000
0000
0000
3030
,
0101
0001
0100
0001
0100
0010
0100
0010
1000
0010
1000
0001
1000
0001
0010
0001
,
1000
0000
0000
0001
1000
0001
0010
0000
0000
0001
1000
0001
0100
0000
0000
1000
0001
1000
0100
0000
0000
0100
0000
0000
,
0020
0032
2003
0020
0000
0000
3000
0000
,
0230
0000
0000
0002
0000
0303
0022
0000
0000
0000
0000
0003
0130
0000
0000
0000
,
1001
0000
0001
1100
0001
1100
0001
0000
1000
0101
1000
0101
1000
0000
0220
0000
,
0000
0330
0000
0000
;
