#TITLE:Nightmare Parade 2020s;
#SUBTITLE:;
#ARTIST:FAKE TYPE.;
#TITLETRANSLIT:;
#SUBTITLETRANSLIT:;
#ARTISTTRANSLIT:;
#GENRE:;
#CREDIT:;
#BANNER:Nightmare Parade 2020s.png;
#BACKGROUND:Nightmare Parade 2020s-bg.png;
#LYRICSPATH:;
#CDTITLE:;
#MUSIC:Nightmare Parade 2020s.ogg;
#OFFSET:0.924000;
#SAMPLESTART:43.507000;
#SAMPLELENGTH:14.204000;
#SELECTABLE:YES;
#BPMS:0.000000=135.000000
;
#STOPS:
;
#BGCHANGES:4.000=Nightmare Parade 2020s.mp4=1.000=0=0=1=====,
99999=-nosongbg-=1.000=0=0=0 // don't automatically add -songbackground-
;
#KEYSOUNDS:;
#ATTACKS:;

//---------------dance-single - ----------------
#NOTES:
     dance-single:
     Pandemonium X:
     Beginner:
     4:
     0.160028,0.220695,0.075237,0.000000,0.000000,134.000000,125.000000,9.000000,0.000000,0.000000,0.000000,0.160028,0.220695,0.075237,0.000000,0.000000,134.000000,125.000000,9.000000,0.000000,0.000000,0.000000:
// measure 0
0000
0000
0000
0000
,  // measure 1
0000
0000
0000
0000
,  // measure 2
0000
0000
0000
0000
,  // measure 3
0000
0000
0000
0000
,  // measure 4
0000
0000
0000
0000
,  // measure 5
0001
0000
0000
0000
,  // measure 6
1000
0000
0000
0000
,  // measure 7
0010
0000
0000
0000
,  // measure 8
0100
0000
0000
0000
,  // measure 9
0001
0000
1000
1000
,  // measure 10
0000
0000
0010
0010
,  // measure 11
0000
0000
0100
0100
,  // measure 12
1001
0000
0000
0000
,  // measure 13
0001
0000
0010
0010
,  // measure 14
0000
0000
0001
0001
,  // measure 15
0000
0000
1000
1000
,  // measure 16
0110
0000
0000
0000
,  // measure 17
0001
0000
1000
0000
,  // measure 18
0100
0000
0010
0000
,  // measure 19
0001
0000
0010
0000
,  // measure 20
0100
0000
1000
1000
,  // measure 21
0001
0000
1000
0000
,  // measure 22
0010
0000
1000
0000
,  // measure 23
0100
0000
0010
0000
,  // measure 24
0001
0000
1000
0000
,  // measure 25
0110
0000
0010
0000
,  // measure 26
0100
0100
0100
0000
,  // measure 27
0001
0000
1000
0000
,  // measure 28
0001
0001
0001
0000
,  // measure 29
0010
0000
0100
0000
,  // measure 30
0010
0010
0010
0000
,  // measure 31
0100
0000
1000
0000
,  // measure 32
0001
0001
0001
0000
,  // measure 33
1000
0000
0001
0000
,  // measure 34
0100
0100
0100
0000
,  // measure 35
0001
0000
1000
0000
,  // measure 36
0001
0000
0010
0010
,  // measure 37
0100
0000
0000
0000
,  // measure 38
1000
0000
0000
0000
,  // measure 39
0010
0000
0000
0000
,  // measure 40
0100
0000
0000
0000
,  // measure 41
0001
0000
1000
0000
,  // measure 42
0100
0000
0010
0000
,  // measure 43
0001
0000
0000
0000
,  // measure 44
1000
0000
0000
0000
,  // measure 45
0010
0000
0100
0000
,  // measure 46
0001
0000
1000
1000
,  // measure 47
0001
0000
1000
0000
,  // measure 48
0100
0000
0010
0010
,  // measure 49
0000
0000
0000
0000
,  // measure 50
1001
0000
0001
0000
,  // measure 51
1000
1000
1000
0000
,  // measure 52
0001
0000
1000
0000
,  // measure 53
0100
0100
0100
0000
,  // measure 54
0010
0000
0001
0000
,  // measure 55
0100
0100
0100
0000
,  // measure 56
0010
0000
1000
0000
,  // measure 57
0001
0001
0001
0000
,  // measure 58
1000
0000
0001
0000
,  // measure 59
1000
0000
0110
0000
,  // measure 60
0001
0000
1000
0000
,  // measure 61
0001
0000
0110
0000
,  // measure 62
1000
0000
0001
0000
,  // measure 63
1000
0000
0110
0000
,  // measure 64
0001
0000
1000
0000
,  // measure 65
0110
0000
0010
0010
,  // measure 66
1001
0000
0000
0000
;

//---------------dance-single - ----------------
#NOTES:
     dance-single:
     Pandemonium X:
     Easy:
     7:
     0.326027,0.413803,0.443062,0.091956,0.000000,273.000000,220.000000,53.000000,11.000000,0.000000,0.000000,0.326027,0.413803,0.443062,0.091956,0.000000,273.000000,220.000000,53.000000,11.000000,0.000000,0.000000:
0000
0000
0000
0000
,
0000
0000
0000
0000
,
0000
0000
0000
0000
,
0000
0000
0000
0000
,
0000
0000
0000
0000
,
1000
1000
0001
0001
,
0100
0100
0010
0010
,
1000
0010
0100
0001
,
0010
0100
1000
1001
,
0001
0000
1000
0000
0010
1000
0010
0000
,
1000
0000
0001
0000
0010
0001
0010
0000
,
0001
0000
1000
0000
0100
1000
0100
0000
,
1100
0011
1001
0000
,
0001
0000
1000
0000
0100
1000
0100
0000
,
1000
0000
0001
0000
0100
0001
0100
0000
,
0001
0000
1000
0000
0001
0010
0001
0000
,
0101
1010
1001
0000
,
0001
0001
1000
1000
,
0010
0100
0010
2000
,
3001
0010
0001
0100
,
0010
1000
0100
0010
,
0100
0100
1000
1000
,
0010
0010
0100
0100
,
0001
1000
0010
1000
,
0001
1000
0010
0100
,
0101
0001
1001
1000
,
1100
0011
1001
0000
,
1100
0100
0110
0010
,
0011
1100
1001
0000
,
0101
0100
0110
0010
,
1010
0101
1001
0000
,
1100
0100
0110
0010
,
0011
1100
1001
0110
,
0001
0001
1000
1000
,
0001
0100
1000
0100
,
0001
0001
1000
1000
,
0100
0001
0100
1000
,
0001
0100
0020
0030
,
0100
0001
0020
0030
,
0001
1000
0200
0300
,
0010
0001
0200
0300
,
0010
1000
0001
0010
,
0100
1000
0100
1000
,
0002
0103
0002
1003
,
0002
0023
0200
0330
,
1000
0100
0010
0001
,
1000
0000
0001
0000
0100
0010
0100
0000
,
0010
0100
0001
1000
,
0001
0000
0010
0000
0100
1000
0100
0000
,
0000
0000
0000
0000
,
0101
0100
0110
0010
,
1010
0101
1001
0000
,
0011
0010
0110
0100
,
1100
0011
1001
0000
,
1010
0010
0110
0100
,
0101
1010
1001
0000
,
0011
0010
0110
0100
,
1100
0011
1001
0110
,
0001
0000
1000
0000
,
0010
0000
0110
0000
,
0010
0000
0100
0000
,
0001
0000
1001
0000
,
0001
0000
1000
0000
,
0010
1000
1001
0000
,
0001
0000
0010
0000
,
0200
0000
0300
0000
,
1001
0000
0000
0000
;

//---------------dance-single - ----------------
#NOTES:
     dance-single:
     Pandemonium X:
     Medium:
     9:
     0.374991,0.441390,0.208992,0.058518,0.117035,314.000000,289.000000,25.000000,7.000000,0.000000,0.000000,0.374991,0.441390,0.208992,0.058518,0.117035,314.000000,289.000000,25.000000,7.000000,0.000000,0.000000:
0000
0000
0000
0000
,
0000
0000
0000
0000
,
0000
0000
0000
0000
,
0000
0000
0000
0000
,
0000
0000
0000
0000
,
0010
1001
0100
1001
,
1000
0110
0001
0110
,
1001
0000
0000
0000
0000
0000
0001
0000
0000
0100
0000
0000
0001
0000
0000
0000
0000
1000
0000
0000
0000
0000
0000
0000
,
1001
0000
0000
0000
0000
0000
1000
0000
0000
0100
0000
0000
1000
0000
0000
0000
0000
0001
0000
0000
0000
0000
0000
0000
,
0100
0000
0001
0000
0010
0010
0010
0000
,
0100
0000
1000
0000
0001
0001
0001
0000
,
0100
0000
0010
0000
1000
1000
1000
0000
,
0010
0000
0000
0100
0000
0000
0001
0000
2000
0000
0000
0000
3000
0000
0000
0000
,
0001
0000
0010
0000
0100
0100
0100
0000
,
0010
0000
0100
0000
1000
1000
1000
0000
,
0001
0000
0100
0000
0010
0010
0010
0000
,
0100
0000
0000
0010
0000
0000
1000
0000
0002
0000
0000
0000
0003
0000
0000
0000
,
0010
0001
0100
0010
,
1000
1000
0001
0001
,
0010
0001
0100
0001
,
1000
0100
1000
0010
,
0100
0000
0000
0001
0100
0000
0000
0000
0010
0000
0000
0000
1000
0000
0000
0000
,
0100
0000
0000
0010
0001
0000
0000
0000
0010
0000
0000
0000
0001
0000
0000
0000
,
1000
0000
0000
0001
0100
0000
0000
0000
0010
0000
0000
0100
0001
0000
0000
0000
,
1001
0000
0001
0100
1000
0100
0001
0000
,
1000
0100
1000
0000
0001
0000
0101
0000
,
0001
0000
0000
1000
0000
0000
0001
0000
0000
0000
0000
0010
0000
0000
0000
0100
0000
0000
0000
0000
0000
0000
0000
0000
,
0010
0001
0010
0000
0001
0000
1010
0000
,
1000
0000
0000
0001
0000
0000
0100
0000
0000
0000
0000
0100
0000
0000
0000
0000
0000
0000
0000
0000
0000
0000
0000
0000
,
0010
0100
0010
0000
1000
0000
1010
0000
,
1000
0000
0000
0001
0000
0000
1000
0000
0000
0000
0000
0100
0000
0000
0000
0010
0000
0000
0000
0000
0000
0000
0000
0000
,
0001
0010
0001
0000
0010
0000
0011
0000
,
0001
0000
0000
0100
0000
0000
1000
0000
0000
0100
0000
0000
0001
0000
0000
0000
1000
0000
0000
0000
0000
0000
0000
0000
,
0001
0100
0001
1000
,
0100
0001
0100
1000
,
0001
0010
1000
0010
,
0001
0100
0010
1000
,
0000
0000
0001
0000
0100
0000
0001
0000
0100
0000
0000
0100
0000
0000
0000
0000
,
0000
0000
0010
0000
1000
0000
0010
0000
1000
0000
0000
1000
0000
0000
0000
0000
,
0000
0000
0001
0000
1000
0000
0001
0000
1000
0000
0000
1000
0000
0000
0000
0000
,
0000
0000
0100
0000
0010
0000
0100
0000
0010
0000
0000
0010
0000
0000
0000
0000
,
0011
0001
0101
0100
,
0110
0010
1010
1000
,
1001
0101
1001
1100
,
0001
1000
0010
2000
0002
3000
0003
0000
,
1000
1000
0001
0001
,
1000
0100
0010
0100
1000
0001
1000
0000
,
0001
0001
1000
1000
,
0001
0010
0100
1000
0100
0010
0001
0000
,
0000
1000
0001
0100
0001
0010
0001
1000
,
0100
1000
0010
0000
0100
0000
0101
0000
,
1000
0000
0000
0001
0000
0000
0100
0000
0000
0000
0000
0001
0000
0000
0000
0100
0000
0000
0000
0000
0000
0000
0000
0000
,
0010
1000
0100
0000
0010
0000
0011
0000
,
0001
0000
0000
0100
0000
0000
0010
0000
0000
0000
0000
1000
0000
0000
0000
0000
0000
0000
0000
0000
0000
0000
0000
0000
,
0100
1000
0010
0000
0100
0000
1001
0000
,
0001
0000
0000
0010
0000
0000
0100
0000
0000
0000
0000
0010
0000
0000
0000
0001
0000
0000
0000
0000
0000
0000
0000
0000
,
0010
0001
0100
0000
0010
0000
1010
0000
,
1000
0000
0000
0010
0000
0000
0001
0000
0000
0010
0000
0000
1000
0000
0000
0000
0000
0001
0000
0000
0000
0000
0000
0000
,
1000
0000
0000
1000
0000
0000
1000
0000
0001
0000
0000
0001
0000
0000
0001
0000
,
0100
0000
0000
0100
0000
0000
0000
0000
0000
0000
0000
0000
0000
0000
0000
0000
,
0010
0000
0000
0010
0000
0000
0010
0000
1000
0000
0000
1000
0000
0000
1000
0000
,
0001
0000
0000
0001
0000
0000
0000
0000
0000
0000
0000
0000
0000
0000
0000
0000
,
0010
0000
0000
0010
0000
0000
0100
0000
0100
0000
0000
1000
0000
0000
0100
0000
,
1000
0010
0200
0000
0300
0000
0000
0000
,
0010
0100
0001
0000
0100
0010
1000
0000
,
2002
0000
3003
0000
,
0110
0000
0000
0000
;

//---------------dance-single - ----------------
#NOTES:
     dance-single:
     Pandemonium X:
     Hard:
     12:
     0.511134,0.524151,0.401264,0.167193,0.259150,428.000000,380.000000,48.000000,20.000000,0.000000,0.000000,0.511134,0.524151,0.401264,0.167193,0.259150,428.000000,380.000000,48.000000,20.000000,0.000000,0.000000:
0000
0000
0000
0000
,
0000
0000
0000
0000
,
0000
0000
0000
0000
,
0000
0000
0000
0000
,
0000
0000
0000
0000
,
1001
0010
1001
0100
,
0101
0010
1100
0001
,
0101
0000
0001
0010
0100
0000
1001
0000
,
1100
0000
0100
0010
0001
1000
0010
0000
,
1000
0000
0001
0000
0100
0100
0101
0000
,
0001
0000
1000
0000
0010
0010
1010
0000
,
1000
0000
0100
0000
0010
0010
0110
0000
,
0021
0000
0000
0230
0000
0000
1300
0000
1001
0000
0000
0000
0110
0000
0000
0000
,
0001
0000
0100
0000
0010
0010
1010
0000
,
0100
0000
0010
0000
1000
1000
1001
0000
,
0001
0000
0010
0000
0100
0100
0110
0000
,
2001
0000
0000
3200
0000
0000
0310
0000
0011
0000
0000
0000
1001
0000
0000
0000
,
0001
0100
0010
0000
0100
0001
1000
0000
,
0100
1000
0010
0000
0100
0001
2000
0000
,
3001
0010
0100
0000
0010
0100
1000
0000
,
0010
0100
0001
1000
0100
1000
0001
0000
,
1001
0000
0000
1000
0100
0000
0000
0100
0010
0000
0000
0000
0110
0000
0000
0000
,
1001
0000
0000
0001
0010
0000
0000
0010
0100
0000
0000
0000
1001
0000
0000
0000
,
0001
1000
0010
1000
0001
0010
0100
1000
,
0001
0000
0000
1000
0001
0000
0100
0000
0001
1000
0010
1000
0001
0000
0000
0000
,
1000
0000
0000
0001
0000
0000
1000
0000
0100
0000
0000
1000
0000
0000
0000
0100
0000
0000
1000
0000
0000
1000
0000
0000
,
0001
0000
0000
0010
0000
0000
0100
0000
1000
0000
0000
0001
0000
0000
0000
1100
0000
0000
0000
0000
0000
0000
0000
0000
,
0001
0000
0000
0001
0000
0000
0010
0000
0100
0000
0000
1000
0000
0000
0000
0100
0000
0000
0010
0000
0000
0001
0000
0000
,
1000
0000
0000
0001
0000
0000
0010
0000
0100
0000
0000
1100
0000
0000
0000
0000
0000
0000
0000
0000
0000
0000
0000
0000
,
1000
0000
0000
0010
0000
0000
1000
0000
0001
0000
0000
1000
0000
0000
0000
0001
0000
0000
0010
0000
0000
0001
0000
0000
,
0100
0000
0000
0010
0000
0000
1000
0000
0100
0000
0000
0010
0000
0000
0000
0011
0000
0000
0000
0000
0000
0000
0000
0000
,
0010
0000
0000
0010
0000
0000
0100
0000
0010
0000
0000
0001
0000
0000
0000
0100
0000
0000
0010
0000
0000
1000
0000
0000
,
0100
0000
0000
0010
0000
0100
0010
0000
0000
0010
0000
0010
0100
0000
0000
0000
0110
0000
0000
0000
0000
0000
0000
0000
,
2000
3100
2000
3010
,
0100
0010
0100
0010
0100
0001
1000
0000
,
0001
0010
0001
0000
1000
0100
1000
0000
,
0001
0010
0001
0010
0100
1000
0001
0000
,
0000
0000
1000
0000
0001
0000
0010
0000
0100
0000
0000
0100
0000
0000
0000
0000
,
0000
0000
0010
0000
0001
0000
1000
0000
0010
0000
0000
0010
0000
0000
0000
0000
,
0000
0000
0100
0000
0001
0000
0010
0000
0001
0000
0000
0001
0000
0000
0000
0000
,
0000
0000
1000
0000
0010
0000
0100
0000
0010
0000
0000
0010
0000
0000
0000
0000
,
0100
1010
0010
0101
,
0001
1100
0001
1010
,
1000
0000
0100
1000
0100
0000
1000
0010
1000
0000
0000
0000
0001
0000
1000
0000
,
0010
0100
0001
1000
0001
0010
0010
0000
,
0010
0001
0100
0010
1000
0001
0010
0100
,
0001
0100
1000
0100
0001
1000
0001
0000
,
1000
0100
0010
0100
1000
0001
0010
0001
,
0100
1000
0100
0010
1000
0001
1001
0000
,
0000
0000
0001
0100
0001
0000
0100
0000
0001
0000
1000
0000
0100
0000
0010
0000
,
0001
0000
0000
1000
0000
0000
0001
0000
0100
0000
0000
0001
0000
0000
0000
0100
0000
0000
0001
0000
0000
0001
0000
0000
,
1000
0000
0000
0010
0000
0000
0100
0000
0001
0000
0000
1000
0000
0000
0000
0101
0000
0000
0000
0000
0000
0000
0000
0000
,
1000
0000
0000
1000
0000
0000
0010
0000
0100
0000
0000
0001
0000
0000
0000
0100
0000
0000
0010
0000
0000
1000
0000
0000
,
0001
0000
0000
1000
0000
0000
0010
0000
0100
0000
0000
0101
0000
0000
0000
0000
0000
0000
0000
0000
0000
0000
0000
0000
,
0001
0000
0000
0010
0000
0000
0001
0000
1000
0000
0000
0001
0000
0000
0000
1000
0000
0000
0010
0000
0000
1000
0000
0000
,
0100
0000
0000
0010
0000
0000
0001
0000
0100
0000
0000
0010
0000
0000
0000
1010
0000
0000
0000
0000
0000
0000
0000
0000
,
0010
0000
0000
0010
0000
0000
0100
0000
0010
0000
0000
1000
0000
0000
0000
0100
0000
0000
0010
0000
0000
0001
0000
0000
,
0100
0000
0000
0010
0000
0100
0010
0000
0000
0010
0000
0010
0100
0000
0000
0000
0110
0000
0000
0000
0000
0000
0000
0000
,
2001
0000
0000
3010
0000
0000
1000
0000
1002
0000
0000
0013
0000
0000
1000
0000
,
2001
0000
0000
3010
0000
0000
0000
0000
0100
0000
0010
0200
0000
0000
0300
0000
,
0201
0000
0000
0310
0000
0000
0100
0000
0102
0000
0000
0013
0000
0000
0001
0000
,
0201
0000
0000
0310
0000
0000
0000
0000
0110
0000
0010
2000
0000
0000
3000
0000
,
2100
0000
0000
3010
0000
0000
0100
0000
0120
0000
0000
1030
0000
0000
1000
0000
,
1200
0000
0000
0310
0000
0000
0000
0000
0110
0000
0010
0002
0000
0000
0003
0000
,
1000
0001
0100
1000
0100
0001
0010
0100
,
2000
0000
0100
0000
0001
0001
3001
0000
,
1001
0000
0000
0000
;

//---------------dance-single - ----------------
#NOTES:
     dance-single:
     Pandemonium X:
     Challenge:
     15:
     0.656831,0.772433,0.685493,0.292588,0.551738,550.000000,468.000000,82.000000,35.000000,33.000000,0.000000,0.656831,0.772433,0.685493,0.292588,0.551738,550.000000,468.000000,82.000000,35.000000,33.000000,0.000000:
0000
0000
0000
0000
,
0000
0000
0000
0000
,
0000
0000
0000
0000
,
0000
0000
0000
0000
,
0000
0000
0000
0000
,
0010
1001
0100
1001
,
0001
1010
1000
0011
,
0002
0103
0002
1003
,
0001
0100
0010
1000
1100
0001
0101
0000
,
0001
0000
1000
0000
0010
0000
0100
0001
0010
0000
0010
0000
0011
0000
0000
0000
,
0010
0000
0100
1000
0010
0000
0100
0001
1000
0000
1000
0000
1001
0000
0000
0000
,
0001
0000
1000
0100
0010
0000
0100
1000
0001
0000
0001
0000
0101
0000
0000
0000
,
0011
0000
0000
0110
0000
0000
0100
0000
1001
0000
0000
0000
MMMM
0000
0000
0000
,
1000
0000
0001
0000
0100
0000
0010
1000
0100
0000
0100
0000
1100
0000
0000
0000
,
0100
0000
0000
1000
0010
0000
0100
0001
0010
0000
0010
0000
0110
0000
0000
0000
,
0100
0000
0010
0001
0100
0000
0100
0001
0010
0000
0010
0000
0011
0000
0000
0000
,
1100
0000
0000
0011
0000
0000
0100
0000
1001
0000
0000
0000
MMMM
0000
0000
0000
,
0001
0100
0001
0100
0001
0000
1000
0000
0100
0010
0100
0010
0001
0000
1000
0000
,
0100
1000
0000
0100
1000
0000
1000
0000
0001
0100
0000
0001
0020
0000
0000
0000
,
0130
0010
0001
0000
1000
0000
0001
0000
1000
0100
0010
0000
0100
0000
1000
0000
,
0010
0100
0000
0010
0100
0000
0001
0000
1000
0001
0010
0001
1000
0000
0000
0001
,
0100
0000
0000
0100
0010
0000
0000
0010
1000
0000
1000
0100
0010
0000
0100
0000
,
1000
0000
0000
1000
0100
0000
0000
0100
0010
0000
0010
0001
0100
0000
0001
0000
,
1000
0100
0001
0100
1000
0010
0001
0010
,
1000
0000
0001
1000
0000
1000
0001
0000
0000
1000
0000
0001
1000
0000
1000
0001
0000
0001
1000
0000
0000
0000
0000
0000
,
0011
0000
0000
0010
0000
0000
0100
0000
1100
0000
0000
0011
0000
0000
0000
0001
0000
0010
0001
0000
0001
0010
0000
0001
,
1000
0000
0000
0101
0000
0000
0001
0000
0010
0000
0000
1001
0000
0000
0000
0011
0000
0000
0000
0000
0000
0000
0000
0000
,
1000
0000
0000
1000
0000
0000
1000
0000
1010
0000
0000
1100
0000
0000
1000
0100
0000
0100
1000
0000
1000
0001
0000
0100
,
0001
0000
0000
0110
0000
0000
0010
0000
1000
0000
0000
0101
0000
0000
0000
0000
0000
0000
0000
0000
0000
0000
0000
0000
,
0001
0000
0000
0001
0000
0000
0001
0000
1001
0000
0000
0011
0000
0000
1000
0010
0000
0010
1000
0000
1000
0100
0000
0010
,
0100
0000
0000
1100
0000
0000
1000
0000
0001
0000
0000
1010
0000
0000
0000
0101
0000
0000
0000
0000
0000
0000
0000
0000
,
1000
0000
0000
1000
0000
0000
0010
0000
1010
0000
0000
0101
0000
0000
0001
0100
0000
0100
0001
0000
0001
0010
0000
0000
,
0100
0000
0000
1000
0000
1000
0100
0000
0000
0100
0000
0100
0010
0000
0000
0000
0000
1100
0000
0000
0000
0000
0000
0000
,
1002
0203
2300
3200
,
0310
0100
1000
0100
0010
1000
0001
0000
,
0010
1000
0010
0001
0010
0100
0010
0001
,
0100
1000
0100
0010
1000
0001
1000
0000
,
0001
0000
1000
0100
0010
0000
0001
0000
0021
0000
0000
0200
0000
0000
0330
0000
,
0010
0000
0010
0001
0100
0000
0010
0000
2010
0000
0000
0002
0000
0000
3003
0000
,
0001
0000
0100
0010
1000
0000
0100
0000
0201
0000
0000
2000
0000
0000
3300
0000
,
1000
0000
0001
0100
0010
0000
0001
0000
0021
0000
0000
2000
0000
0000
3030
0000
,
1001
0000
1000
0100
1000
0000
0001
0000
0100
0000
0010
1000
0001
0000
1000
0000
,
0100
0000
1000
0010
1000
0000
0001
0000
0011
0000
0000
2100
0000
0000
0000
0000
,
3001
0000
1000
0001
0100
0000
0010
1000
0001
0000
0001
0000
1000
0000
1000
0000
,
0001
0000
1000
0010
1000
0000
0100
0000
0010
0000
0002
0000
2000
0000
3003
0000
,
0001
0001
0100
0100
1000
1000
0100
0100
,
0001
0010
1000
0010
0001
0010
1000
0000
,
0010
0010
0001
0001
0100
0100
1000
1000
,
0100
0001
0100
1000
0100
0010
1001
0000
,
0000
0000
0010
0100
0010
0000
0110
0000
1002
0000
M013
0000
2001
0000
301M
0000
,
1001
0000
0000
0001
0000
0000
0010
0000
1001
0000
0000
1100
0000
0000
0000
1000
0000
0100
1000
0000
1000
0100
0000
1000
,
0001
0000
0000
1010
0000
0000
1000
0000
0100
0000
0000
1001
0000
0000
0000
1010
0000
0000
0000
0000
0000
0000
0000
0000
,
1000
0000
0000
1000
0000
0000
0001
0000
0101
0000
0000
0011
0000
0000
0001
0010
0000
0010
0001
0000
0001
1000
0000
0010
,
1000
0000
0000
0110
0000
0000
0100
0000
0001
0000
0000
1010
0000
0000
0000
0000
0000
0000
0000
0000
0000
0000
0000
0000
,
0001
0000
0000
0001
0000
0000
1000
0000
1001
0000
0000
1010
0000
0000
0001
0100
0000
0100
0001
0000
0001
0010
0000
0100
,
0010
0000
0000
0011
0000
0000
0001
0000
1000
0000
0000
1001
0000
0000
0000
1100
0000
0000
0000
0000
0000
0000
0000
0000
,
0001
0000
0000
0001
0000
0000
0100
0000
0101
0000
0000
1010
0000
0000
1000
0010
0000
0010
1000
0000
1000
0100
0000
0000
,
0010
0000
0000
0001
0000
0001
0010
0000
0000
0010
0000
0010
0100
0000
0000
0000
0000
1001
0000
0000
0000
0000
0000
0000
,
0022
0000
0033
11MM
0000
0000
1000
0000
2020
0000
3030
M1M1
0000
0000
0100
0000
,
2002
0000
3003
M11M
0000
0000
0000
0000
000M
0000
000M
M000
0000
0000
0000
0000
,
2200
0000
3300
MM11
0000
0000
0001
0000
0202
0000
0303
1M1M
0000
0000
1000
0000
,
2002
0000
3003
M11M
0000
0000
0000
0000
000M
0000
M000
000M
0000
0000
0000
0000
,
1020
0000
0000
M130
0000
0000
0100
0000
0102
0000
0000
0M13
0000
0000
0010
0100
,
1000
0000
0001
0000
1000
0000
0000
0000
00M0
0000
0M00
00M0
0000
0000
0000
0000
,
1000
0000
0100
0000
0010
0000
0001
0000
0100
0010
0000
1000
0000
0000
0004
4000
,
0000
0000
0000
0000
0000
0000
0003
0000
0000
3010
0000
0100
0010
0000
0000
1010
0000
0000
0201
0000
0000
0000
0000
0000
,
0310
0000
0000
0000
;
