#TITLE:Night! Night! Night!;
#SUBTITLE:;
#ARTIST:MM;
#TITLETRANSLIT:;
#SUBTITLETRANSLIT:;
#ARTISTTRANSLIT:;
#GENRE:;
#CREDIT:;
#MUSIC:Night! Night! Night!.ogg;
#BANNER:;
#BACKGROUND:Night! Night! Night!-bg.png;
#CDTITLE:;
#SAMPLESTART:39.143;
#SAMPLELENGTH:12.742;
#SELECTABLE:YES;
#OFFSET:0.493;
#BPMS:0.000=165.000;
#STOPS:;
#BGCHANGES:;
#FGCHANGES:;

//--------------- dance-single - Pandemonium X ----------------
#NOTES:
     dance-single:
     Pandemonium X:
     Beginner:
     5:
     0,0,0,0,0:
0000
0000
0000
0000
,
0000
0000
0000
0000
,
0000
0000
0000
0000
,
0000
0000
0000
0000
,
0000
0000
0000
0000
,
0000
0000
0000
0000
,
0001
0001
0001
0000
,
1000
0000
0001
0000
,
0100
0000
0010
0000
,
1000
0000
0001
0000
,
0110
0000
0000
0000
,
1000
1000
1000
0000
,
0001
0001
0001
0000
,
0100
0000
0010
0000
,
0100
0100
0010
0010
,
1000
1000
1000
0000
,
0001
0001
0001
0000
,
0010
0000
0001
0000
,
1000
1000
0001
0001
,
0110
0000
0000
0000
,
0010
0000
0000
0000
,
1000
0000
0000
0000
,
0100
0000
0000
0000
,
0010
0000
0000
0000
,
0001
0000
1000
0000
,
0010
0000
1000
1000
,
0001
0000
1000
0000
,
0010
0000
0000
0000
,
0100
0100
0100
0000
,
0010
0000
0000
0000
,
1000
1000
1000
0000
,
0100
0000
0000
0000
,
0010
0010
0010
0000
,
0001
0000
0000
0000
,
1000
0000
0000
0000
,
0001
0000
0000
0000
,
0100
0000
0000
0000
,
0010
0000
0000
0000
,
1000
0000
0001
0000
,
1000
1000
1000
0000
,
0100
0000
0000
0000
,
0010
0000
0000
0000
,
0001
0000
0010
0000
,
0100
0100
0100
0000
,
1000
0000
0001
0001
,
0000
0000
0000
0000
,
0000
0000
0100
0100
,
0000
0000
0000
0000
,
0010
1001
1000
1000
,
0000
0000
0000
0000
,
0000
0000
0001
0001
,
0000
0000
0000
0000
,
1000
1000
1000
0000
,
0001
0000
0000
0000
,
0100
0100
0100
0000
,
0010
0000
0000
0000
,
1000
1000
1000
0000
,
0100
0000
0000
0000
,
0010
0000
0000
0000
,
0001
0000
1000
0000
,
0010
0000
0000
0000
,
0100
0000
0000
0000
,
0001
0000
0000
0000
,
0000
0000
0000
0000
,
1000
1000
1000
0000
,
0000
0000
0100
1001
,
0001
0000
0001
0000
,
1000
0001
1000
0000
,
0001
0000
1000
0000
,
0010
0100
0010
0000
,
1000
0000
0000
0000
,
0001
0000
1000
0000
,
0010
0010
0010
0010
,
0100
0010
1000
0001
,
1000
0000
0001
0000
,
1000
0000
0010
0000
,
0110
0000
0010
0000
,
0100
0000
0001
0000
,
1000
1000
1000
0000
,
0001
0001
0001
0000
,
0110
0000
0000
0000
,
0000
0000
0000
0000
0000
1001
0000
0000
;

//--------------- dance-single - Pandemonium X ----------------
#NOTES:
     dance-single:
     Pandemonium X:
     Easy:
     8:
     0,0,0,0,0:
0000
0000
0000
0000
,
0000
0000
0000
0000
,
0000
0000
0000
0000
,
0000
0000
0000
0000
,
0000
0000
0000
0000
,
0000
0000
0000
0000
,
1001
0110
1001
0001
,
0000
1000
0000
0010
,
0100
0001
0100
0010
,
1000
0000
1000
0000
1000
0100
1000
0100
,
0010
0000
0000
0000
,
0001
0100
0001
1000
,
0100
1000
0001
1000
,
0010
0001
0010
1000
,
0001
0001
1000
1000
,
0010
1000
0001
0010
,
0001
1000
0100
1000
,
0001
0100
1000
0100
,
0001
0100
0010
1000
,
1001
0000
0000
0000
,
0001
1000
0010
1000
,
0100
0010
0001
0010
,
0001
0100
0010
1000
,
0001
0001
1000
1000
,
0001
0100
0010
0010
,
1000
0001
0010
0100
,
1000
0100
1000
0001
,
0100
0001
1000
0010
,
1001
0110
1001
0000
,
1000
0001
0000
0100
,
0101
0101
0101
0000
,
0001
1000
0100
1000
,
1010
1010
1010
0010
,
1000
0001
0010
0100
,
1000
1000
1000
0000
,
0001
0001
0001
0000
,
0100
0010
1000
0001
,
0010
0001
1000
0100
,
1000
0010
0100
0001
,
1000
0100
0010
0001
,
0100
1000
0100
0010
,
1000
0010
0001
0010
,
0100
0001
1000
0100
,
0010
0100
1000
0001
,
1000
0001
0100
0100
,
0001
1000
0100
0010
,
0001
0010
0100
0100
,
0010
0001
1000
0010
,
0000
1001
0001
0001
,
1000
0001
0100
0001
,
1000
0010
0100
0100
,
0010
0100
0001
1000
,
1001
0110
1001
0000
,
0001
1000
0000
0100
,
1100
1100
1100
0000
,
0100
0010
0001
0100
,
0110
0110
0110
0100
,
0010
1000
0001
1000
,
0100
0000
0000
0010
0000
0000
0000
0000
,
0100
1000
0010
0100
,
0001
0000
1000
0000
,
0010
0000
0100
0000
,
0001
0000
0010
0000
,
0000
0000
0000
0000
,
0100
0100
0100
0000
,
0010
0000
0001
0000
1000
0001
1000
0000
,
1001
1010
1001
1000
,
0100
0010
0001
0100
,
0110
0101
0110
0010
,
1000
0001
0010
0001
,
1000
0000
0000
0001
0000
0000
0000
0000
,
0100
0010
1000
0001
,
1001
1001
1001
1001
,
1001
0110
1001
0110
,
0001
1000
0010
1000
,
0100
0010
0001
0100
,
0010
0100
0001
0000
1000
0000
0001
0000
,
0010
0001
1000
0010
,
0100
0000
0000
0001
0000
0000
0000
0000
,
1000
0001
0100
0010
,
1001
0000
0110
0000
,
1001
0000
0000
0000
0000
0110
0000
0000
;

//--------------- dance-single - Pandemonium X ----------------
#NOTES:
     dance-single:
     Pandemonium X:
     Medium:
     10:
     0,0,0,0,0:
0000
0000
0000
0000
,
0000
0000
0000
0000
,
0000
0000
0000
0000
,
0000
0000
0000
0000
,
0000
0000
0000
0000
,
0000
0000
0000
0000
,
0101
0011
0101
0001
,
1000
0010
1000
0001
,
0100
0010
1000
0001
,
1000
0000
1000
0000
1000
0100
0010
0001
,
1001
0000
0000
0000
,
0001
0000
1000
0000
0010
1000
0010
0000
,
1000
0000
0001
0000
0010
0001
0010
0000
,
0001
0001
1000
1000
,
0100
0001
0100
1000
,
0001
0000
1000
0000
0100
1000
0100
0000
,
1000
0000
0001
0000
0100
0001
0100
0000
,
0001
0010
1000
0010
,
0001
0000
0010
0000
0100
1000
0010
0000
,
0101
0000
0000
0000
,
0001
1000
0010
1000
,
0100
0001
0100
0010
,
0001
0100
1000
0100
,
0010
0010
0100
0100
,
0010
0000
1000
0000
0001
0100
0001
0010
,
0001
1000
1001
0110
,
0001
0000
1000
0000
0010
1000
0100
1000
,
0010
1000
0001
0100
,
0101
1010
0101
0000
,
0001
1000
0100
0010
,
0011
0110
1100
0000
,
0100
1000
0010
0100
,
0101
0011
0101
0001
,
1000
0010
0100
0010
,
1000
0000
0001
1000
0000
0000
0000
0100
,
0000
0010
0100
1000
0000
0100
0010
0000
,
0001
0010
0001
0100
,
0010
1000
0001
0010
,
0100
1000
0100
0010
,
0011
1100
0101
1010
,
1001
0001
1000
1000
,
0010
0100
0001
0001
,
0010
1000
0010
0001
,
0011
1100
1010
0101
,
0001
0000
1000
0000
0001
0100
0001
0100
,
0001
0100
0010
1000
,
0100
0000
0010
0000
0100
1000
0100
1000
,
0100
1000
0010
0100
,
0001
0000
1010
0000
1000
0001
0010
0001
,
1000
0001
1000
0100
,
1000
0000
0010
0000
1000
0001
0100
0001
,
1000
0001
0100
0010
,
1010
1100
1010
0000
,
1000
0001
0100
0001
,
0011
0110
1100
0100
,
1000
0100
0010
0001
,
0011
0101
0110
0010
,
0100
0001
1000
0001
,
0010
0000
0000
0100
0000
0000
0000
0010
,
0000
0001
0100
0010
0000
0100
0010
0000
,
1000
0000
0001
0000
,
0010
0000
0100
0000
,
1000
0000
0100
0000
,
0000
0000
0000
0000
,
0010
0010
0010
0000
,
0100
0000
0010
0000
0100
0010
1001
0000
,
0101
0110
1010
1000
,
0001
0010
0100
0010
,
0011
1100
1010
0010
,
0100
0001
1000
0010
,
0100
0000
0001
0010
0000
0000
0000
0100
,
0000
0010
0001
0100
0000
0010
1000
0001
,
1001
1001
1001
1001
,
1001
0110
1001
0110
,
0001
0000
0100
0000
0010
0000
1000
0010
,
0000
0100
0000
0001
0000
0010
0000
0000
,
0100
0010
0001
0000
0011
0000
0010
0001
,
0000
0100
0000
0010
0000
1000
0000
0001
,
1000
0000
0100
1000
0000
0000
0000
0100
,
0000
0010
0100
1000
0000
0100
0010
0000
,
0001
0000
1000
0000
,
0001
0000
0000
0000
0000
0110
0000
0000
;

//--------------- dance-single - Pandemonium X ----------------
#NOTES:
     dance-single:
     Pandemonium X:
     Hard:
     13:
     0,0,0,0,0:
0000
0000
0000
0000
,
0000
0000
0000
0000
,
0000
0000
0000
0000
,
0000
0000
0000
0000
,
0000
0000
0000
0000
,
0000
0000
0000
0000
,
1001
1001
1001
0001
,
0000
1000
0000
0010
,
1000
0100
1000
0001
,
0101
0000
1010
0000
0001
0001
1000
1000
,
0110
0000
0000
0000
,
0001
0000
0000
0001
0000
0000
0001
0000
1000
0000
0100
0000
0010
0000
0100
0000
,
1000
0000
0000
1000
0000
0000
1000
0000
0100
0000
0010
0000
0001
0000
1000
0000
,
0001
0100
0001
0000
0100
0000
0010
1000
0010
0000
0100
0000
0001
0000
1000
0000
,
0001
0000
0000
1000
0100
0000
0000
0100
0010
0000
0000
0010
0001
0000
1000
0000
,
0010
0000
0000
0010
0000
0000
0010
0000
0100
0000
0001
0000
0100
0000
1000
0000
,
0100
0000
0000
0100
0000
0000
0100
0000
0010
0000
0001
0000
0010
0000
1000
0000
,
0001
1000
0001
0000
0010
0000
0100
1000
0100
0000
0010
0000
0001
0000
0100
0000
,
0010
0000
0000
0100
0001
0000
0000
0001
0010
0000
0000
0010
0100
0000
0000
0000
,
1001
0000
0000
0000
,
1000
0100
1100
0000
0100
0010
0110
0000
,
0010
0001
0011
0000
0001
0100
0101
0000
,
0100
0010
0110
0000
0010
1000
1010
0000
,
0101
0000
1010
0000
1001
0001
0001
0000
,
1000
0100
1100
0000
0110
0000
0011
0000
,
0001
0100
0110
0000
0101
0000
1010
0000
,
1100
0000
0011
0000
0001
0100
0010
0000
,
1000
0001
0100
0010
,
1001
0000
1001
0000
1001
0000
0000
1000
,
0000
0001
0100
0100
0000
0001
0100
0010
,
1000
0000
1000
0000
1000
0000
0000
0010
,
0000
0100
0001
0010
0000
0100
0010
0001
,
0011
0000
0011
0000
0011
0000
0010
0001
,
0000
0010
0100
1000
0000
0100
1000
0010
,
0100
0000
0001
1000
0000
0000
0000
1001
,
0000
0001
0100
0010
0000
0100
0010
0000
,
1000
0000
0000
0100
0000
0000
1000
0000
0100
0000
0010
0000
0100
0000
1000
0000
,
0001
0000
0000
0100
0000
0000
0001
0000
0010
0000
0100
0000
1000
0000
0001
0000
,
0100
0010
0100
0000
0010
0000
1000
0001
1000
0000
0001
0000
0010
0000
0100
0000
,
0010
0000
0000
0100
0010
0000
0000
0010
0001
0000
0000
0001
1000
0000
0010
0000
,
0100
0000
0000
0001
0000
0000
0100
0000
1000
0000
0100
0000
0001
0000
1000
0000
,
0100
0000
0000
0100
0000
0000
0100
0000
0001
0000
0100
0000
1000
0000
0010
0000
,
0100
0010
0100
0000
0010
0000
1000
0010
1000
0000
0010
0000
0100
0000
0001
0000
,
0010
1000
0010
0001
0100
1000
0100
0000
,
0101
0000
0000
0000
0011
0000
0000
0000
0010
0100
0010
0000
0010
0001
0010
0000
,
0001
1000
0010
1001
,
1000
0000
0000
0000
0001
0000
0000
0000
0010
0100
0010
0000
0010
0001
0010
0000
,
0100
0000
1000
0000
0010
0100
0001
0000
,
0101
0000
0000
0000
1010
0000
0000
0000
1000
0001
1000
0000
1000
0100
1000
0000
,
0100
0010
0001
0100
,
0010
0000
0000
0000
1000
0000
0000
0000
0001
0100
0001
0000
0001
1000
0001
0000
,
1100
0100
0010
0001
,
1001
0000
1001
0000
1001
0000
0000
1000
,
0000
0100
1000
1000
0000
0100
1000
0010
,
0100
0000
0010
0000
1000
0000
0000
0001
,
0000
1000
0001
0001
0000
0010
0100
1000
,
1100
0000
1100
0000
1100
0000
0100
1000
,
0000
0100
0010
0001
0000
0010
0001
0100
,
0010
0000
0100
0001
0000
0000
0000
1000
,
0000
0001
0100
0010
0000
0100
0001
0000
,
1000
0000
0001
0000
0000
0010
0000
0000
0100
0000
0000
0010
0000
0000
0001
0000
,
0000
0000
1000
0000
0000
0100
0000
0000
1000
0000
0000
0010
0000
0000
0100
0000
,
0110
0000
0110
0000
1000
0001
0000
0100
0010
0000
1000
0001
0000
0100
0010
0000
,
0000
0000
0000
0000
,
1001
0000
1001
0000
1001
0000
0000
0001
,
0000
0000
1000
0000
0100
0000
0010
0000
0001
1000
0001
1000
0001
0000
0000
0000
,
1000
0010
0110
0000
0100
0001
0011
0000
,
0010
0001
1000
0010
0110
0000
0101
0000
,
1000
0001
0011
0000
0001
1000
1010
0000
,
1000
0100
0010
0100
1100
0000
0100
1000
,
0010
0000
0100
0001
0000
0000
0000
0010
,
0000
0001
0010
0100
0000
0010
0001
1000
,
1001
1001
1001
1001
,
0101
1010
1100
0011
,
0001
0100
0010
0000
0100
0010
1000
0000
,
0001
0010
1000
0010
0001
0100
1000
0000
,
0101
0000
1010
0100
0001
0000
0001
0010
,
0100
0010
0001
1000
0000
0001
0000
1000
,
0100
0000
0100
0010
0000
0000
0000
0001
,
0000
1000
0100
0001
0000
0100
1000
0000
,
0001
1000
0000
0001
1000
0001
1000
0000
,
0001
0000
1000
0001
0000
1000
0000
0001
0000
1000
0001
0000
0000
0000
0000
0000
;

//--------------- dance-single - Pandemonium X ----------------
#NOTES:
     dance-single:
     Pandemonium X:
     Challenge:
     15:
     0,0,0,0,0:
0000
0000
0000
0000
,
0000
0000
0000
0000
,
0000
0000
0000
0000
,
0000
0000
0000
0000
,
0000
0000
0000
0000
,
0000
0000
0000
0000
,
1001
0110
1001
0101
,
1000
1001
0001
0011
,
1000
1100
0001
0101
,
1001
0000
1001
0000
0110
0110
1001
1001
,
0110
0000
0000
0000
,
1000
0000
0010
1000
0000
1000
0100
0000
1000
0000
0100
0000
0001
0000
0100
0000
,
1000
0000
0001
0010
0000
0100
0010
0000
0001
0000
0010
0000
1000
0000
0010
0000
,
0001
1000
0001
0000
0100
0000
0001
1000
0001
0000
0010
0000
0100
1000
0100
1000
,
0001
0100
0001
0000
1000
0010
1000
0000
0100
0010
0100
0000
0001
1000
0001
0000
,
0001
0000
0100
0001
0000
0010
0100
0000
0010
0000
1000
0000
0010
0000
0001
0000
,
1000
0000
0001
0100
0000
0010
1000
0000
0100
0000
0001
0000
0100
0000
1000
0000
,
0010
1000
0010
0000
0100
0000
0001
0100
0001
0000
0010
0000
0100
1000
0100
1000
,
0001
0000
1000
0001
0010
0000
0001
1000
0010
0000
1000
0001
0010
0000
0000
0000
,
1001
0000
0000
0000
,
1000
0000
0100
0000
1100
0000
0000
0000
0001
0010
0001
0000
1000
0000
0000
0000
,
0001
0100
0101
0000
0010
1000
1010
0000
,
0100
0010
0100
1000
0100
0001
1001
0000
,
1000
0100
1100
0000
0010
0001
0011
0000
,
0100
0000
0010
0000
1000
0000
0000
0000
0100
0010
0100
0000
0101
0000
0000
0000
,
0100
0000
1000
0000
0010
0000
0001
0000
1000
0100
0010
0000
0110
0000
0000
0000
,
1000
0010
0001
0010
0100
0001
1001
0000
,
0100
0010
1010
0000
0010
0100
0101
0000
,
1001
0000
1001
0000
1001
0000
0001
0100
,
0000
0100
0010
0010
0000
1000
0001
0010
,
0011
0000
1100
0000
0011
0000
0000
0001
,
0000
0010
0001
0001
0000
0010
0100
1000
,
1100
0000
0011
0000
0101
0000
0001
1000
,
0000
0010
0100
0100
0000
0010
1000
0001
,
0010
0000
0100
0100
0000
0000
0000
0010
,
0000
0001
0100
0010
0000
0100
0100
0000
,
1001
0000
0001
0000
0010
0000
0001
0000
1000
0100
1000
0000
0001
0100
0001
0000
,
1000
0000
0001
0000
0010
0000
0001
0000
1000
0100
1000
0000
0001
0100
0001
0000
,
1000
0010
1000
0000
0001
0000
0010
0100
0010
0000
0001
0000
0010
0100
0010
0100
,
1000
0000
0100
1000
0010
0000
0100
0001
0010
0000
0100
1000
0010
0000
0100
0000
,
0001
0000
1000
0000
0010
0000
1000
0000
0100
1000
0100
0000
0010
0001
0010
0000
,
0001
0000
0100
0000
0001
0000
1000
0000
0100
0010
0100
0000
0010
0001
0010
0000
,
0001
0100
0001
0000
0100
0000
0010
1000
0010
0000
1000
0000
0001
0010
0001
0010
,
0100
0000
0010
0001
0100
0000
0010
1000
0100
0000
0010
0001
0100
0000
0010
0000
,
1000
0000
0000
0000
0001
0000
0000
0000
0010
0100
0010
0000
0100
1000
0100
0000
,
1000
0000
0000
0000
0010
0000
0000
0000
0100
0001
0100
0000
0010
0100
0010
0000
,
0100
0000
0000
0000
0001
0000
0000
0000
0010
0100
0010
0000
0100
1000
0100
0000
,
1000
0000
0000
0000
0001
0000
0000
0000
0010
0100
0010
0000
0100
1000
0100
0000
,
1001
1000
0100
0000
0011
0000
0000
0000
0010
0100
0010
0000
0100
1000
0100
0000
,
1000
0010
0100
0001
,
0010
0000
0000
0000
0100
0000
0000
0000
1000
0100
1000
0000
0001
0100
0001
0000
,
1000
0001
1000
0100
,
1001
0000
0110
0000
1001
0000
1000
0001
,
0000
0010
0100
0100
0000
0010
0001
0100
,
0101
0000
1010
0000
0101
0000
0001
1000
,
0000
0100
0010
0100
0000
0010
0001
0100
,
0101
0000
1010
0000
1100
0000
0100
0010
,
0000
0100
1000
1000
0000
0100
1000
0010
,
0100
0000
0001
0001
0000
0000
0000
1000
,
0000
0001
0100
1000
0000
1000
0100
0000
,
0001
0000
1000
0000
0001
1000
0000
0001
0100
0000
0001
1000
0000
0001
0010
0000
,
1001
0000
0001
0000
1000
0100
0000
1000
0001
0000
1000
0010
0000
1000
0001
0000
,
1001
0000
0101
0000
0000
0011
0000
0000
0110
0000
0000
1100
0000
0000
1001
0000
,
0000
0000
0000
0000
,
1001
0000
1001
0000
1001
0000
0000
1000
,
0000
0000
0100
0000
0010
0000
0001
0000
1000
0010
0100
0001
1000
0000
0000
0000
,
0001
0010
0100
0010
0001
0100
0010
1000
,
0100
0010
0100
1000
0010
0100
0001
0010
,
0110
0000
1100
0000
1001
0000
0001
0100
,
0010
1000
0001
0010
0100
0010
0001
0100
,
0010
1000
0001
0010
0000
0000
0000
0100
,
0000
0010
0010
0001
0000
0010
0100
1000
,
1001
1001
1001
1001
,
0101
1010
1100
0011
,
0001
0100
0110
0000
1000
0010
0110
0000
,
0001
0100
0010
1000
0100
0001
0100
1000
,
0001
1000
0001
1000
0001
0000
0000
0000
1000
0000
0100
0000
0010
0000
0100
0000
,
1000
0001
0100
0010
1000
0001
0010
0100
,
0010
0001
0100
0001
0100
0010
1000
0010
,
0100
0010
1000
0000
0001
0010
0100
0000
0010
0001
1000
0000
0001
0000
0000
0000
,
0001
1000
0000
1000
0001
0001
1000
0000
,
1000
0000
0001
1000
0000
1000
0000
1000
0000
1000
0001
0000
0000
0000
0000
0000
;
