#TITLE:Midnight Lady;
#SUBTITLE:;
#ARTIST:Dirty Androids;
#TITLETRANSLIT:;
#SUBTITLETRANSLIT:;
#ARTISTTRANSLIT:;
#GENRE:;
#CREDIT:;
#MUSIC:Midnight Lady.ogg;
#BANNER:Midnight Lady.png;
#BACKGROUND:Midnight Lady-bg.png;
#CDTITLE:;
#SAMPLESTART:62.840;
#SAMPLELENGTH:14.990;
#SELECTABLE:YES;
#OFFSET:0.909;
#BPMS:0.000=128.000;
#STOPS:132.000=0.234
,132.500=0.234
,133.000=0.234
,133.500=0.234
;
#BGCHANGES:4.000=Midnight Lady.mp4=1.000=0=0=1,
99999.000=-nosongbg-=1.000=0=0=0=StretchNoLoop====
;
#FGCHANGES:;

//--------------- dance-single - ----------------
#NOTES:
     dance-single:
     Pandemonium X:
     Beginner:
     2:
     0.088926,0.154832,0.015759,0,0,79,77,2,0,0,0,0.088926,0.154832,0.015759,0,0,79,77,2,0,0,0:
0000
0000
0000
0000
,
0000
0000
0000
0000
,
0000
0000
0000
0000
,
0000
0000
0000
0000
,
0000
0000
0000
0000
,
0000
0000
0000
0000
,
0000
0000
0000
0000
,
0000
0000
0000
0000
,
0000
0000
0000
0000
,
0001
0000
0000
0000
,
1000
0000
0000
0000
,
0010
0000
0000
0000
,
0100
0000
0000
0000
,
0001
0000
0000
0000
,
0010
0000
0000
0000
,
0100
0000
0000
0000
,
1000
0000
0001
0000
,
1000
0000
0000
0000
,
0010
0000
0000
0000
,
0100
0000
0000
0000
,
0001
0000
0000
0000
,
0010
0000
0000
0000
,
0100
0000
0000
0000
,
1000
0000
0000
0000
,
0001
0000
1000
0000
,
0010
0000
0000
0000
,
0100
0000
0001
0000
,
1000
0000
0000
0000
,
0001
0000
1000
0000
,
0100
0000
0000
0000
,
0010
0000
0000
0001
,
0001
0000
0000
1000
,
1000
0000
0000
0000
,
0110
0000
0001
0000
,
0000
0000
1000
0000
,
0010
0000
1000
0000
,
0000
0000
0100
0000
,
0010
0000
0100
0000
,
0000
0000
0010
0000
,
0001
0000
1000
0000
,
0000
0000
0001
0000
,
1000
0000
0010
0000
,
0000
0000
0100
0000
,
0010
0000
1000
0000
,
0000
0000
0001
0000
,
0010
0000
0100
0000
,
0000
0000
0010
0000
,
0001
0000
1000
0000
,
0001
0000
0100
0000
,
0010
0000
1000
0000
,
0000
0000
0000
0000
,
0000
0000
0001
0000
,
0000
0000
0000
0000
,
0000
0000
0010
0000
,
0000
0000
0000
0000
,
0000
0000
0100
0000
,
0100
0000
0100
0000
,
0000
0000
1000
0000
,
0001
0000
1000
0000
,
0000
0000
0010
0000
,
0100
0000
0010
0000
,
0000
0000
1000
0000
,
0001
0000
0100
0000
,
0010
0000
0100
0000
,
0001
0000
1000
0000
,
0001
0000
0110
0000
;

//--------------- dance-single - ----------------
#NOTES:
     dance-single:
     Pandemonium X:
     Easy:
     6:
     0.238636,0.387079,0.133951,0.110313,0,212,195,17,14,0,0,0.238636,0.387079,0.133951,0.110313,0,212,195,17,14,0,0:
0000
0000
0000
0000
,
0000
0000
0000
0000
,
0000
0000
0000
0000
,
0000
0000
0000
0000
,
0000
0000
0000
0000
,
0000
0000
0000
0000
,
0000
0000
0000
0000
,
0000
0000
0000
0000
,
0000
0000
0000
0000
,
0001
1000
0010
0000
,
1000
0100
0010
0001
,
1000
0001
0100
0000
,
0010
0010
0100
0001
,
1000
0100
0010
0000
,
0100
1000
0001
0100
,
0001
0001
0010
0000
,
0100
1000
0010
0100
,
0001
1000
0010
0000
,
2000
3100
0020
0031
,
1000
0001
0100
0000
,
0020
0130
0002
1003
,
0100
0010
0100
0000
,
0010
0001
0100
0010
,
1000
0001
1000
0000
,
0100
0100
0010
0010
,
2001
0000
0000
3000
,
0001
0000
0000
1000
0000
0000
0010
0000
,
0020
0000
0000
0000
0000
0130
0000
0200
,
0000
0000
0000
0310
0000
0000
0100
0000
,
1002
0000
0000
0000
0000
0013
0000
0000
,
0100
0000
0000
1000
0000
0000
1000
0000
,
0001
0000
0000
0000
0000
1000
0000
0001
,
0100
0000
0000
0020
0000
0000
0000
0000
,
0130
0010
1000
0001
1001
0000
0001
1000
,
0001
1000
0100
0000
,
1000
0000
0000
0000
0001
0000
1000
0010
,
1000
0000
0001
0000
,
0010
0000
0000
0000
0100
0000
1000
0100
,
1000
0000
0100
0000
,
1000
0000
0000
0000
0010
0000
0100
0001
,
0100
0000
0001
0000
,
1001
0000
0110
0000
1001
0000
0001
0001
,
1000
0001
0100
0000
,
0010
0000
0000
0000
1000
0000
0100
0100
,
0010
0100
1000
0000
,
0010
0000
0000
0000
0100
0000
0010
0010
,
0100
0000
0001
1000
0000
0000
0000
0110
,
0000
0000
0001
0000
1000
0000
0001
0010
,
0001
0010
0100
0010
,
0001
1000
1001
0001
,
1000
0010
0200
0000
,
0010
0000
0301
1000
,
0100
1000
0002
0000
,
0203
0000
0310
1000
,
0001
0010
0002
0000
,
2003
0000
3001
0001
,
1000
1000
1001
0110
,
1001
0000
0110
0000
1001
0000
0001
0100
,
0001
0100
0010
1000
,
0001
0000
0010
0000
0100
0000
1000
0010
,
1000
0010
0100
0010
,
1000
0000
0001
0000
0010
0000
0100
0010
,
0100
0000
0000
0011
0000
0000
0000
1100
,
0000
0000
0011
0001
,
0100
0010
1000
0001
,
0010
0100
1001
0000
;

//--------------- dance-single - ----------------
#NOTES:
     dance-single:
     Pandemonium X:
     Medium:
     8:
     0.32531,0.448736,0.244264,0.283661,0.082734,289,258,31,36,0,0,0.32531,0.448736,0.244264,0.283661,0.082734,289,258,31,36,0,0:
0000
0000
0000
0000
,
0000
0000
0000
0000
,
0000
0000
0000
0000
,
0000
0000
0000
0000
,
0000
0000
0000
0000
,
0000
0000
0000
0000
,
0000
0000
0000
0000
,
0000
0000
0000
0000
,
0000
0000
0000
0000
,
0001
1000
0010
1000
,
0100
0010
0100
0000
0010
0001
0010
0000
,
0001
1000
0010
1000
,
0100
0010
0100
0000
0110
0000
1100
0000
,
1001
0001
1000
0010
,
1000
0001
1000
0000
0001
0010
0001
0000
,
0010
0001
0100
0010
,
1000
0001
1000
0000
0101
0000
1010
0000
,
1001
1000
0001
0010
,
0200
2300
3002
0203
,
0310
0100
0001
1000
,
0001
0010
0100
0000
1100
0000
0011
0000
,
1001
1000
0001
0100
,
0010
1000
0100
0000
0010
0001
0100
0000
,
0010
0100
0001
1000
,
0001
0010
0100
1000
0001
0000
1000
0000
,
0102
0000
0000
0000
,
2003
0000
0000
3200
0000
0000
2300
0000
,
3020
0000
0000
0000
0000
0230
0000
0302
,
0000
0000
0000
0023
0000
0000
0230
0000
,
2300
0000
0000
0000
0000
3002
0000
0000
,
2003
0000
0000
3020
0000
0000
2030
0000
,
3200
0000
0000
0000
0000
0320
0000
0031
,
0200
0000
0320
0000
,
2030
3000
0200
0300
0020
0030
0002
0003
1001
0000
0000
0000
1000
0000
1000
0000
,
0100
0000
0000
0100
0000
0000
0100
0000
0000
0000
0000
0000
0010
0000
0000
0000
,
0001
0000
0010
0000
0100
0000
0010
0010
,
0001
0000
0000
0010
0000
0000
0100
0000
0000
0000
0110
0000
0000
0000
0001
0000
,
1000
0000
1001
0000
0001
0000
1000
1000
,
0001
0000
0000
0001
0000
0000
0001
0000
0010
0000
0000
0000
0001
0000
0000
0000
,
0100
0010
1000
0000
1001
0000
1000
0001
,
0100
0000
0000
0100
0000
0000
0001
0000
0010
0000
0000
0000
0100
0000
0000
0000
,
1100
0000
0011
0000
1001
0000
0001
0001
,
0001
0000
0000
0001
0000
0000
0001
0000
1000
0000
0000
0000
0001
0000
0000
0000
,
0100
0000
0010
0000
1010
0000
1000
1000
,
1000
0000
0000
1000
0000
0000
1000
0000
0100
0000
0000
0000
1000
0000
0000
0000
,
0010
0000
0100
0000
0101
0000
0001
0100
,
0010
0000
0000
0100
0000
0000
1001
0000
0000
0000
0001
0000
1000
0000
0010
0000
,
0000
1000
0001
0010
0100
0000
0010
0010
,
0010
0001
0100
0010
,
1000
0000
1001
0000
0110
0000
1000
0001
,
1000
0000
0000
1000
0000
0000
2000
0000
0000
0000
0000
0000
0000
0000
3001
0000
,
1000
0000
0000
0002
0000
0000
0000
0000
0013
0000
0000
0000
0100
0000
1000
0000
,
0001
0000
0000
0001
0000
0000
0002
0000
0000
0000
0000
0000
0003
0000
0100
0000
,
0020
0000
0000
0200
0000
0000
0000
0330
0000
0000
0010
0000
0100
0000
0001
0000
,
1000
0000
0000
0001
0000
0000
0020
0000
0000
0000
0000
0000
0000
0000
0100
0000
,
0000
0100
0000
0130
0010
0000
0011
0000
,
1000
0000
1100
0000
1000
0100
0010
0001
,
1000
0000
0110
0000
1001
0000
0001
1000
,
0010
0000
0000
0100
0000
0000
0002
0000
0000
0000
0000
0000
0013
0000
0000
0000
,
0100
0000
1000
0000
1100
0000
0100
1000
,
0001
0000
0000
0100
0000
0000
0020
0000
0000
0000
0000
0000
0130
0000
0000
0000
,
0010
0000
1000
0000
0001
0010
0100
1000
,
1001
0000
0000
1010
0000
0000
1001
0000
0000
0000
0001
0000
0100
0000
1000
0000
,
0000
1000
0100
0001
1000
0000
0001
0100
,
0010
1000
0100
0010
,
0001
0000
0000
0010
0000
0000
0100
0000
1100
0000
0000
0000
0000
0000
0000
0000
;

//--------------- dance-single - ----------------
#NOTES:
     dance-single:
     Pandemonium X:
     Hard:
     11:
     0.383843,0.4903,0.267902,0.283661,0.14971,341,307,34,36,0,0,0.383843,0.4903,0.267902,0.283661,0.14971,341,307,34,36,0,0:
0000
0000
0000
0000
,
0000
0000
0000
0000
,
0000
0000
0000
0000
,
0000
0000
0000
0000
,
0000
0000
0000
0000
,
0000
0000
0000
0000
,
0000
0000
0000
0000
,
0000
0000
0000
0000
,
0000
0000
0000
0000
,
1001
0000
1000
0000
0100
0000
0000
0010
0000
0000
0100
0000
0000
0010
0001
0000
,
0100
0010
1000
0000
0010
0100
0001
0000
,
1000
0000
0001
0000
0100
0000
0000
0001
0000
0000
0010
0000
0000
0100
1000
0000
,
0100
1000
0010
0000
0101
0000
0011
0000
,
1100
0000
0100
0000
0010
0000
0000
0001
0000
0000
0100
0000
0000
0010
0100
0000
,
0001
1000
0100
0000
0010
0001
0100
0000
,
0010
0000
1000
0000
0001
0000
0000
0010
0000
0000
0100
0000
0000
0010
0001
0000
,
1000
0010
0100
1000
1100
0000
0101
0000
,
1001
0000
1000
0000
0100
0000
0010
0100
0000
0100
0010
0000
0000
0000
0100
0000
,
2000
3010
0200
0301
,
0010
0000
0001
0000
1000
0000
0001
0100
0000
0100
0010
0000
0000
0000
0100
0000
,
0002
1003
0200
0310
,
0100
0000
1000
0000
0010
0000
0100
0010
0000
0010
1000
0000
0000
0000
0001
0000
,
2000
3100
0020
0032
,
1003
0000
0001
0000
0100
0000
0010
1000
0000
1000
0100
0000
0000
0000
0010
0000
,
0100
1000
0010
0100
0001
0000
0011
0000
,
2001
0000
0000
0000
,
3020
0000
0000
2030
0000
0000
3200
0000
,
0302
0000
0000
0000
0000
0203
0000
2300
,
0000
0000
0000
3020
0000
0000
0032
0000
,
0023
0000
0000
0000
0000
2030
0000
0000
,
3002
0000
0000
0023
0000
0000
2030
0000
,
3020
0000
0000
0000
0000
0032
0000
1003
,
0001
0200
0000
0010
0310
0000
0110
0000
,
0002
0203
0320
2030
3001
0000
0001
0100
,
0001
0000
0000
0001
0000
0000
0001
0000
0000
0000
0000
0000
1000
0000
0000
0000
,
0001
0000
0100
0000
0110
0000
0010
1000
,
0010
0000
0000
0010
0000
0000
0010
0000
0000
0000
1010
0000
0000
0000
0001
0000
,
0010
0000
1100
0000
1001
0000
1000
0100
,
1000
0000
0000
1000
0000
0000
1000
0000
0100
0000
0000
0000
1000
0000
0000
0000
,
0010
0100
0000
0010
0000
1000
0001
0000
0010
0000
0000
0000
0100
0000
1000
0000
,
0100
0000
0000
0100
0000
0000
0100
0000
0010
0000
0000
0000
0001
0000
0000
0000
,
0100
0000
0000
0100
0000
0000
0010
0000
1000
0000
0000
0000
0001
0000
1000
0000
,
0010
0000
0000
0101
0000
0000
0011
0000
0000
0000
0010
0000
0100
0000
1000
0000
,
0000
0100
0010
0001
1000
0000
0001
1000
,
0010
0000
0000
1010
0000
0000
0101
0000
0000
0000
1000
0000
0100
0000
1000
0000
,
0020
0000
0230
0000
0301
0000
0010
0100
,
1000
0000
0000
0011
0000
0000
1001
0000
0000
0000
0001
0000
0100
0000
1000
0000
,
0000
1000
0100
0001
1000
0000
0001
0010
,
0100
0000
0000
0010
0000
0000
0001
0000
1000
0000
0010
0000
0100
0000
0001
0000
,
0010
0100
1000
0000
0001
1000
0010
1000
,
0001
0000
0000
0010
0000
0000
0200
0000
0000
0000
0000
0000
0000
0000
0310
0000
,
0001
0000
0000
0002
0000
0000
0000
0000
0003
0000
1000
0000
0010
0000
1000
0000
,
0100
0000
0000
1000
0000
0000
0020
0000
0000
0000
0000
0000
0000
0000
0130
0000
,
0110
0000
0000
1020
0000
0000
0000
0000
0000
0000
0130
0000
0010
0000
1000
0000
,
0001
0000
0000
0010
0000
0000
0200
0000
0000
0000
0000
0000
0000
0000
0010
0000
,
0000
0010
0000
0310
1001
0000
1001
1000
,
0001
0000
0000
0010
0000
0000
0200
0000
1000
0000
0000
0000
1000
0000
0000
0000
,
1000
0000
0310
0000
1001
0000
1000
0010
,
0100
0000
0000
0001
0000
0000
0011
0000
0000
0000
0010
0000
0001
0000
0100
0000
,
0010
0000
1001
0000
1100
0000
0100
1000
,
0010
0000
0000
0110
0000
0000
0101
0000
0000
0000
0001
0000
1000
0000
0010
0000
,
0100
0001
0010
0100
1000
0100
0010
0001
,
0011
0000
0000
1100
0000
0000
1001
0000
0000
0000
0001
0000
0100
0000
1000
0000
,
0000
1000
0100
0001
1000
0000
0001
0001
,
0010
1000
0010
0000
0100
0010
0001
0100
,
1000
0000
0000
0100
0000
0000
0010
0000
1001
0000
0000
0000
0000
0000
0000
0000
;

//--------------- dance-single - ----------------
#NOTES:
     dance-single:
     Pandemonium X:
     Challenge:
     15:
     0.567322,0.739095,0.354576,0.45701,0.508226,504,459,45,58,0,0,0.567322,0.739095,0.354576,0.45701,0.508226,504,459,45,58,0,0:
0000
0000
0000
0000
,
0000
0000
0000
0000
,
0000
0000
0000
0000
,
0000
0000
0000
0000
,
0000
0000
0000
0000
,
0000
0000
0000
0000
,
0000
0000
0000
0000
,
0000
0000
0000
0000
,
0000
0000
0000
0000
,
1001
0000
0001
0100
0001
1000
0001
0010
0000
0010
0100
0000
0000
0000
1000
0000
,
0010
0100
0001
0100
0010
1000
0010
0100
,
0001
1000
0010
1000
0100
0010
0100
1000
0000
1000
0001
0000
0000
0000
1000
0000
,
0010
0100
0001
0010
0110
0000
1100
0000
,
1001
0000
0001
0100
0001
0010
0001
1000
0000
1000
0100
0000
0000
0000
0010
0001
,
0100
0001
0100
0010
1000
0001
0010
0100
,
0010
0000
0001
0010
0100
0010
0001
1000
0000
1000
0010
0000
0000
0000
0100
0010
,
1000
0100
0010
0100
1001
0000
0011
0000
,
1001
0000
1000
0100
1000
0010
0100
0001
0000
0001
0010
0000
0000
0010
0001
0010
,
0200
1300
0020
0130
0002
0013
0200
1300
,
0010
0000
1000
0010
0100
0010
1000
0100
0000
0100
0010
0000
0000
0010
0100
0000
,
2000
3100
0020
0031
0101
0000
1010
0000
,
1001
0000
1000
0010
0100
0001
0010
0100
0000
0100
0010
0000
0000
0010
0100
1000
,
0002
0103
0020
1030
0200
0310
0002
1003
,
0001
0000
1000
0001
0010
0001
1000
0100
0000
0100
0010
0000
0000
0000
0000
0000
,
0100
0000
0010
0000
0001
0000
0100
0000
0110
0000
0010
1000
0001
0000
1000
0000
,
0102
0010
0100
0013
,
1200
0000
1300
1020
0000
0130
0102
0000
,
0023
0000
0100
0000
0031
0200
1300
0200
,
0001
0000
0301
2001
0001
0000
3200
0000
,
2300
0000
0010
0000
0001
3002
0000
1003
,
0020
0000
0130
0020
0000
1030
0200
0000
,
0320
0000
0001
0000
0130
2100
0000
3020
,
0130
0000
0000
0000
0000
0000
0001
0000
0000
0000
0000
0000
0000
0000
0000
0000
0000
0000
1000
0000
0010
0000
1000
0000
0010
0000
0000
0000
0000
0000
0000
0000
0000
1000
0000
0000
0001
0000
0000
0000
0000
0000
1000
0000
0000
0000
0000
0000
,
1001
0000
0110
0000
1001
0000
0110
0000
1001
0000
0000
0000
0001
0100
0001
0100
,
0001
0000
0000
0001
0000
0000
1000
0000
0000
0000
0100
0000
1000
0000
0010
0000
,
0100
0000
1000
0000
0100
0000
0001
0000
1000
0000
0000
0000
0100
1000
0100
1000
,
0100
0000
0000
0100
0000
0000
1000
0000
0100
0000
1001
0000
0000
0000
0010
0000
,
1001
0000
0000
0000
0001
0000
1000
0000
0101
0000
0000
0000
0010
1000
0010
1000
,
0010
0000
0000
0010
0000
0000
0100
0000
0010
0000
1000
0000
0001
0000
0010
0000
,
1000
0010
0000
0001
0000
0100
0010
0000
1010
0000
0000
0000
0001
0010
0001
0010
,
0001
0000
0000
0001
0000
0000
1000
0000
0100
0000
0000
0000
1001
0000
0000
0000
,
0001
0000
1000
0010
0100
0000
0001
0000
1001
0000
0000
0000
0001
0100
0001
0010
,
0001
0000
0000
1000
0000
0000
0100
0000
1000
0000
0100
1000
0010
0100
0010
1000
,
0001
0000
1000
0100
1000
0001
0100
0001
1000
0000
0000
0000
0100
1000
0100
0010
,
0100
0000
0000
1000
0000
0000
0010
0000
0100
0000
0000
0000
0010
0100
0001
1000
,
0100
0000
0000
0010
0000
0000
0001
0000
1001
0000
0000
0000
1000
0010
1000
0001
,
1000
0000
0000
1100
0000
0000
1001
0000
0000
0000
0001
0010
0001
1000
0200
0000
,
0000
0310
0100
1000
0001
0100
0010
1000
0001
0000
0000
0000
1000
0010
1000
0001
,
0010
0000
0100
0010
0001
0100
0001
1000
0100
0010
0001
0000
0010
0100
1000
0000
,
0100
0010
0001
0010
0100
1000
0010
0100
0001
0000
1000
0000
0100
0000
0001
0000
,
0200
0000
0000
2300
0000
0000
3020
0000
0000
0000
0000
0000
0000
0000
0230
0000
,
0000
0302
0000
0000
0013
0002
0203
2300
,
3200
0000
0000
0320
0000
0000
2030
0000
0000
0000
0000
0000
0000
0000
3002
0000
,
0023
0000
0000
0200
0000
0000
0000
0030
0310
0000
0200
0000
2300
0000
3002
0000
,
2003
0000
0000
3020
0000
0000
0230
0000
0000
0000
0000
0000
0000
0000
0320
0000
,
2030
3200
2300
3002
1000
0000
0103
0010
,
1020
0000
0000
0230
0000
0000
0302
0000
0010
0000
0010
0000
0010
0000
0013
0000
,
0010
0001
0010
0100
1000
0100
0010
0001
1000
0000
0000
0000
1000
0100
0010
0001
,
1000
0000
0000
1001
0000
0000
1100
0000
0000
0000
0100
1000
0100
1000
0010
0000
,
0100
0000
0001
0000
0010
0000
0100
0000
0110
0000
0000
0000
0010
0001
0100
0010
,
1000
0000
0000
0101
0000
0000
0011
0000
0000
0000
0010
0100
0010
0001
1000
0000
,
0010
0000
0100
0000
0001
0000
1000
0000
1100
0000
0000
0011
0000
0000
0001
0010
,
0100
0000
0000
1100
0000
0000
1001
0000
0000
0000
0001
0100
1000
0100
0001
0000
,
0000
1000
0100
0001
0100
1000
0001
0000
1001
0000
0000
0000
0001
0100
0010
1000
,
0100
0000
0010
0001
0100
0000
0010
0000
1000
0000
1000
0000
0001
0100
0000
0010
,
0100
0000
0000
1010
0000
0000
0101
0000
1001
0000
0000
0000
0000
0000
0000
0000
;
