#TITLE:MAX 300 (Super-Max-Me Mix);
#SUBTITLE:;
#ARTIST:Jondi & Spesh;
#TITLETRANSLIT:;
#SUBTITLETRANSLIT:;
#ARTISTTRANSLIT:;
#GENRE:;
#CREDIT:;
#MUSIC:MAX 300 (Super-Max-Me Mix).ogg;
#BANNER:MAX 300 (Super-Max-Me Mix).png;
#BACKGROUND:MAX 300 (Super-Max-Me Mix)-bg.png;
#CDTITLE:./CDTitles/DanceDanceRevolution Ultramix 2.png;
#SAMPLESTART:19.420;
#SAMPLELENGTH:15.000;
#SELECTABLE:YES;
#OFFSET:0.000;
#BPMS:0.000=239.300
,4.000=300.000
,128.000=320.000
,256.000=140.000
,272.000=300.000
,400.000=320.000
;
#STOPS:;
#BGCHANGES:;
#FGCHANGES:;

//--------------- dance-single - Pandemonium X ----------------
#NOTES:
     dance-single:
     Pandemonium X:
     Beginner:
     6:
     0,0,0,0,0:
0000
0000
0000
0000
,
0000
0000
0000
0000
,
0000
0000
0000
0000
,
0000
0000
0000
0000
,
0000
0000
0000
0000
,
0000
0000
0000
0000
,
0000
0000
0000
0000
,
0000
0000
0000
0000
,
0001
0000
0000
0000
,
0000
0000
0000
0000
,
1000
0000
0000
0000
,
0000
0000
0000
0000
,
0001
0000
0000
0000
,
0000
0000
0000
0000
,
1000
0000
0000
0000
,
0000
0000
0000
0000
,
0010
0000
0000
0000
,
0000
0000
0000
0000
,
0100
0000
0000
0000
,
0000
0000
0000
0000
,
0001
0000
0000
0000
,
0000
0000
0000
0000
,
0010
0000
0000
0000
,
0000
0000
0000
0000
,
0100
0000
0000
0000
,
0000
0000
0000
0000
,
1000
0000
0000
0000
,
0000
0000
0000
0000
,
0010
0000
0000
0000
,
0000
0000
0000
0000
,
0100
0000
0000
0000
,
0000
0000
0000
0000
,
0001
0000
0001
0000
,
0001
0000
0000
0000
,
1000
0000
1000
0000
,
1000
0000
0000
0000
,
0010
0000
0010
0000
,
0010
0000
0000
0000
,
0100
0000
0100
0000
,
0100
0000
0000
0000
,
0010
0000
0000
0000
,
0100
0000
0000
0000
,
0001
0000
0000
0000
,
1000
0000
0000
0000
,
0001
0000
0000
0000
,
1000
0000
0000
0000
,
0010
0000
0000
0000
,
0100
0000
0000
0000
,
0001
0000
0100
0000
,
0001
0000
0100
0000
,
0001
0000
0000
0000
,
0000
0000
0000
0000
,
1000
0000
0010
0000
,
1000
0000
0010
0000
,
1000
0000
0000
0000
,
0000
0000
0000
0000
,
0001
0000
0000
0000
,
0100
0000
0000
0000
,
1000
0000
0000
0000
,
0100
0000
0000
0000
,
0001
0000
0000
0000
,
1000
0000
0000
0000
,
0100
0000
0000
0000
,
0010
0000
0000
0000
,
0110
0000
0100
0000
,
1000
1000
1000
0000
,
0001
0000
0010
0000
,
0001
0001
0001
0000
,
1000
0000
0000
0000
,
0001
0000
0000
0000
,
0100
0000
0000
0000
,
0010
0000
1000
0000
,
0001
0000
0010
0000
,
0000
0000
0100
0000
,
0000
0000
1000
0000
,
0000
0000
0100
0000
,
1000
0000
0010
0000
,
1000
0000
0000
0000
,
0001
0000
0100
0000
,
0010
0000
0000
0000
,
0100
0000
0010
0000
,
0100
0000
0000
0000
,
0001
0000
1000
0000
,
0001
0000
0000
0000
,
1000
0000
0000
0000
,
0100
0000
0000
0000
,
0010
0000
0000
0000
,
0001
0000
0100
0000
,
0010
0000
0000
0000
,
0100
0000
0000
0000
,
0001
0000
0000
0000
,
1000
0000
0000
0000
,
0001
0000
1000
0000
,
0100
0000
0000
0000
,
1000
0000
0010
0000
,
0100
0000
0000
0000
,
0010
0000
0100
0000
,
0001
0000
0000
0000
,
1001
0000
0000
0000
,
0000
0000
0000
0000
,
0001
0000
0001
0000
,
1000
0000
1000
0000
,
0010
0000
0010
0000
,
0100
0000
0000
0000
,
0010
0000
0010
0000
,
1000
0000
1000
0000
,
0100
0000
0100
0000
,
0010
0000
0000
0000
,
0001
0000
0001
0000
,
0010
0000
0010
0000
,
0100
0000
0100
0000
,
0010
0000
0000
0000
,
1001
0000
0000
0000
,
0000
0000
0000
0000
,
0000
0000
0000
0000
,
0000
0000
0000
0000
,
0001
0000
0100
0000
,
0010
0000
0000
0000
,
0100
0000
0010
0000
,
1000
0000
0000
0000
,
0001
0000
0010
0000
,
0100
0000
0000
0000
,
0010
0000
0100
0000
,
1000
0000
0000
0000
,
0100
0000
0100
0000
,
0100
0000
1000
0000
,
0010
0000
0010
0000
,
0010
0000
0100
0000
,
0001
0000
0001
0000
,
0001
0000
1000
0000
,
0110
0000
0000
0000
;

//--------------- dance-single - Pandemonium X ----------------
#NOTES:
     dance-single:
     Pandemonium X:
     Easy:
     10:
     0,0,0,0,0:
0000
0000
0000
0000
,
0000
0000
0000
0000
,
0000
0000
0000
0000
,
0000
0000
0000
0000
,
0000
0000
0000
0000
,
0000
0000
0000
0000
,
0000
0000
0000
0000
,
0000
0000
0000
0000
,
0001
0000
0000
0000
,
0000
0000
0000
0000
,
1000
0000
0000
0000
,
0000
0000
0000
0000
,
0010
0000
0000
0000
,
0000
0000
0000
0000
,
0100
0000
0000
0000
,
0000
0000
0000
0000
,
0000
0000
0010
0000
0000
1000
0000
0000
,
0010
0000
0000
1000
0000
0000
0010
0000
,
0000
0000
0100
0000
0000
0001
0000
0000
,
0100
0000
0000
0001
0000
0000
0100
0000
,
0000
0000
0001
0000
0000
0010
0000
0000
,
0001
0000
0000
0010
0000
0000
0001
0000
,
0000
0000
0100
0000
0000
1000
0000
0000
,
0100
0000
0000
1000
0000
0000
0100
0000
,
0000
0000
1000
0000
0000
0100
0000
0000
,
0010
0000
0000
0001
0000
0000
1000
0000
,
0000
0000
0001
0000
0000
0010
0000
0000
,
0100
0000
0000
1000
0000
0000
0001
0000
,
0000
0000
1000
0000
0000
0010
0000
0000
,
0100
0000
0000
0001
0000
0000
1000
0000
,
0000
0000
0001
0000
0000
0100
0000
0000
,
0010
0000
0000
1000
0000
0000
0001
0000
,
1000
0000
0001
0000
,
0010
0100
1000
0000
,
0100
0000
1000
0000
,
0010
0100
0001
0000
,
1000
0000
0001
0000
,
0010
0100
1000
0000
,
0100
0000
1000
0000
,
0010
0100
0001
0000
,
0101
0000
0101
0000
,
1100
0000
1100
0000
,
1010
0000
1010
0000
,
0011
0000
0011
0000
,
1001
0000
1001
0000
,
0110
0000
0110
0000
,
1001
0000
0110
0000
,
1001
0000
0110
0000
,
0001
0100
0001
0100
,
0001
0100
0001
0100
,
0001
0000
1000
0000
,
0010
0000
0100
0000
,
0010
1000
0010
1000
,
0010
1000
0010
1000
,
0010
0000
1000
0000
,
0001
0000
0010
0000
,
0100
1000
0100
1000
,
0100
0010
0001
0000
,
1000
0000
0001
0000
,
0100
0000
0010
0000
,
0100
0010
0100
0010
,
0100
0001
1000
0000
,
0001
0000
0010
0000
,
0100
0000
1000
0000
,
0001
0000
1010
0000
,
1000
0001
0110
0000
,
1000
0000
1001
0000
,
1000
0001
0110
0000
,
1000
0100
1000
0000
,
0100
0010
0100
0000
,
0010
0001
0010
0000
,
0001
0000
1001
0000
,
1000
0010
1000
0000
,
0010
0100
0010
0000
,
0100
0001
0100
0000
,
0001
0000
1001
0000
,
0002
0000
0203
0000
,
0310
1000
0002
0000
,
0023
0000
0230
0000
,
1300
0100
0020
0000
,
0230
0000
2300
0000
,
3010
0100
0002
0000
,
0023
0000
0230
0000
,
1300
0100
0010
0000
,
0002
0000
0000
0200
,
0000
0000
0000
0000
,
0000
0000
0000
0000
,
0003
0000
0320
0000
,
2000
0000
0000
0000
,
0000
0000
0000
0000
,
0000
0000
0000
0000
,
0000
0000
0000
0030
,
3200
0000
0310
0002
,
0000
0000
1000
0000
,
0000
0000
1000
0000
,
0000
0000
2003
0000
,
3020
0000
0100
0000
,
0000
0000
0130
0000
,
0010
0000
0000
0010
0000
0000
0010
0000
,
0000
0010
0000
0000
0010
0000
0000
0000
,
1001
0000
1001
0000
,
0110
0000
0110
0000
,
1010
0000
1010
0000
,
0101
0000
0101
0000
,
0001
0010
0001
0010
,
0100
1000
0010
0100
,
0001
0000
1000
0000
,
0010
0000
0100
0000
,
0101
0000
0101
0000
,
1010
0000
1010
0000
,
1100
0000
1100
0000
,
0011
0000
0011
0000
,
2001
0000
0001
0000
,
0001
0000
0001
0000
,
0001
0000
3010
0000
,
0000
0000
0000
0000
,
1000
0010
0100
0000
,
0001
0000
1000
0000
,
0100
0010
0001
0000
,
0010
0000
0001
0000
,
0100
0010
1000
0000
,
0001
0000
1000
0001
,
0010
0100
1000
0000
,
0100
0000
1000
0000
,
0010
0100
0001
0000
,
0010
0000
0100
0000
,
1000
0100
0010
0000
,
0100
0000
1000
0000
,
0010
0100
0001
0000
,
1000
0000
0001
0100
,
0010
0000
0000
1001
0000
0000
0000
0000
;

//--------------- dance-single - Pandemonium X ----------------
#NOTES:
     dance-single:
     Pandemonium X:
     Medium:
     13:
     0,0,0,0,0:
0000
0000
0000
0000
,
0000
0000
0000
0000
,
0000
0000
0000
0000
,
0000
0000
0000
0000
,
0000
0000
0000
0000
,
0000
0000
0000
0000
,
0000
0000
0000
0000
,
0000
0000
0000
0000
,
1000
0000
0000
0001
0000
0000
0100
0000
,
0000
0010
0000
0000
1001
0000
0000
0000
,
0001
0000
0000
0010
0000
0000
0001
0000
,
0000
0100
0000
0000
1010
0000
0000
0000
,
1000
0000
0000
0001
0000
0000
0010
0000
,
0000
0100
0000
0000
0011
0000
0000
0000
,
0001
0000
0000
0100
0000
0000
0010
0000
,
0000
1010
0000
0000
0101
0000
0000
0000
,
0000
0000
0001
0000
0000
0001
0000
0000
,
1000
0000
0000
1000
0000
0000
0110
0000
,
0000
0000
0001
0000
0000
0001
0000
0000
,
1000
0000
0000
1000
0000
0000
0101
0000
,
0000
0000
0001
0000
0000
0100
0000
0000
,
0010
0000
0000
1000
0000
0000
1100
0000
,
0000
0000
1000
0000
0000
0100
0000
0000
,
0010
0000
0000
0001
0000
0000
0011
0000
,
0000
0000
0201
0000
0000
0001
0000
0000
,
0001
0000
0000
0001
0000
0000
0301
0000
,
0000
0000
2010
0000
0000
0010
0000
0000
,
0010
0000
0000
0010
0000
0000
3010
0000
,
0000
0000
1002
0000
0000
1000
0000
0000
,
1000
0000
0000
1000
0000
0000
1003
0000
,
0000
0000
0201
0000
0000
0001
0000
0000
,
0001
0000
0000
0001
0000
0000
0301
0000
,
0100
0010
1000
0001
,
0010
0100
1100
0000
,
0100
1000
0010
0100
,
0001
0010
0110
0000
,
0010
0001
0100
0010
,
1000
0001
0011
0000
,
0001
0100
0010
1000
,
0001
0010
0100
0000
,
0110
0000
0110
0000
,
1100
0000
1100
0000
,
0011
0000
0011
0000
,
0101
0000
0101
0000
,
1001
0000
1010
0000
,
0011
0000
0110
0000
,
1100
0000
0110
0000
,
0011
0000
0101
0000
,
0001
0001
1000
1000
,
0010
0010
0100
0100
,
0001
0000
0100
0000
,
0010
0000
1000
0000
,
0001
0001
1000
1000
,
0100
0100
0010
0010
,
0001
0000
0010
0000
,
0001
0000
0100
0000
,
0010
0000
1000
0000
0000
0100
0000
0000
,
0010
0000
0000
0001
0000
0000
1001
0000
,
0000
0000
0001
0000
0000
0010
0000
0000
,
0100
0000
0000
1000
0000
0000
0101
0000
,
0000
0000
0001
0000
0000
0001
0000
0000
,
1000
0000
0000
0010
0000
0000
0101
0000
,
0000
0000
0100
0000
0000
0100
0000
0000
,
0010
0000
0000
1000
0000
0000
0001
0000
,
1000
0000
0101
0000
,
0001
0010
0110
0000
,
2100
0000
0010
0000
,
3001
1000
1001
0000
,
0001
0100
0110
0000
,
0100
0001
1001
0000
,
0100
0010
0011
0000
,
0010
0001
0101
0000
,
0010
0001
0101
0000
,
0010
1000
1001
0000
,
1000
0100
0110
0000
,
0100
1000
1001
0000
,
1000
0001
0100
0001
,
0100
0010
1000
0001
,
0010
0100
1000
0100
,
0010
0100
0010
0100
0010
0000
0000
0000
,
0100
1000
0010
0100
,
0001
0010
0001
0010
,
0001
0010
0100
1000
,
0001
1000
0001
1000
0001
0000
0000
0000
,
2000
0000
3020
0000
,
0230
0000
0302
0000
,
0023
0000
2030
0000
,
3020
0000
0032
0000
,
0203
0000
0320
0000
,
2030
0000
3002
0000
,
0203
0000
0320
0000
,
2030
0000
3002
0000
,
0023
0000
0230
0000
,
0302
0000
0203
0000
,
2300
0000
3020
0000
,
0032
0000
0023
0000
,
0230
0000
0302
0000
,
0203
0000
0310
0000
,
1001
0000
0000
1001
0000
0000
1001
0000
,
0000
1001
0000
0000
1001
0000
0000
0000
,
0001
0100
0010
1000
,
0001
0010
0100
0010
,
0001
0100
0010
1000
,
0100
0010
0011
0000
,
0001
0100
0010
1000
,
0001
0010
0100
0010
,
0001
0100
0010
1000
,
0100
0010
0011
0000
,
0001
0100
0001
0100
,
0010
1000
0001
0010
,
0100
0010
0001
0100
,
0010
1000
1010
0000
,
0102
0000
0010
0000
,
0100
0000
1000
0000
,
0103
0000
0001
0000
,
1000
0000
0001
0000
,
1000
0100
0010
0100
,
1000
0001
0101
0000
,
0001
0100
0010
1000
,
0001
0010
0110
0000
,
0010
0001
1000
0100
,
0010
0001
0101
0000
,
0001
0100
0010
1000
,
0001
0010
0110
0000
,
0010
0001
0100
0010
,
1000
0001
0010
0100
,
1100
0100
0010
0001
,
0100
0010
1000
0001
,
0011
0001
0010
0001
,
0100
0010
1000
1001
,
1001
0000
0000
0110
0000
0000
0000
0000
;

//--------------- dance-single - Pandemonium X ----------------
#NOTES:
     dance-single:
     Pandemonium X:
     Hard:
     15:
     0,0,0,0,0:
0000
0000
0000
0000
,
0000
0000
0000
0000
,
0000
0000
0000
0000
,
0000
0000
0000
0000
,
0000
0000
0000
0000
,
0000
0000
0000
0000
,
0000
0000
0000
0000
,
0000
0000
0000
0000
,
0001
0000
0000
0100
0000
0000
0010
0000
,
0000
1000
0100
0000
0011
0000
0000
0000
,
1000
0000
0000
0010
0000
0000
0100
0000
,
0000
0001
0010
0000
0110
0000
0000
0000
,
0010
0000
0000
0100
0000
0000
1000
0000
,
0000
0001
0100
0000
0011
0000
0000
0000
,
0001
0000
0000
1000
0000
0000
0010
0000
,
0000
0100
0001
0000
1001
0000
0000
0000
,
0000
0000
0002
0000
0000
0203
0000
0000
,
0320
0000
0000
2030
0000
0000
3001
0000
,
0000
0000
2000
0000
0000
3200
0000
0000
,
0320
0000
0000
0032
0000
0000
0013
0000
,
0000
0000
0002
0000
0000
0023
0000
0000
,
0230
0000
0000
2300
0000
0000
3001
0000
,
0000
0000
0002
0000
0000
0023
0000
0000
,
0230
0000
0000
2300
0000
0000
3001
0000
,
0000
0000
1010
0000
0000
1100
0000
0000
,
1010
0000
0000
1100
0000
0000
1010
0000
,
0000
0000
0101
0000
0000
0011
0000
0000
,
0101
0000
0000
0011
0000
0000
0101
0000
,
0000
0000
0011
0000
0000
0110
0000
0000
,
1100
0000
0000
0110
0000
0000
0011
0000
,
0000
0000
0101
0000
0000
0110
0000
0000
,
1010
0000
0000
0110
0000
0000
1001
0000
,
1000
0001
1000
0000
0001
0100
0001
0000
,
0100
0010
1010
0000
,
1000
0100
1000
0000
0001
0100
0001
0000
,
0100
0010
1010
0000
,
1000
0100
1000
0000
0001
0100
0001
0000
,
0010
0100
1100
0000
,
1000
0010
1000
0000
0010
0100
0010
0000
,
0100
0000
0001
0000
1001
0000
0000
1000
,
0001
0000
0000
0001
0010
0000
0000
0010
,
0100
0000
0000
0100
1000
0000
0000
1000
,
0100
0000
0000
0100
0010
0000
0000
0010
,
0001
0000
0000
0001
0010
0000
0100
0000
,
1000
0100
0001
0100
,
1000
0010
0001
0010
,
1000
1000
0001
0001
,
0100
0100
0010
0010
,
1010
1010
0110
0110
,
0101
0101
0011
0011
,
0001
0010
0001
1000
,
0100
0010
0001
0000
,
1001
1001
0101
0101
,
0011
0011
0110
0110
,
0100
1000
0010
0100
,
0001
1000
0001
0000
,
1001
0000
1000
0000
0001
0010
0000
0100
,
1000
0000
0100
0010
0000
0010
0001
0000
,
1000
0000
0001
0000
0100
0001
0000
0100
,
0010
0000
1000
0001
0000
0010
0100
0000
,
1000
0000
0100
0000
1000
0010
0000
0010
,
0100
0000
0100
0001
0000
0001
1000
0000
,
0001
0000
1000
0000
0001
0010
0000
0100
,
1000
0000
0100
0010
0000
0001
0100
0000
,
0010
0000
0000
0000
1000
0000
1000
0000
0001
0000
0000
0001
0000
0000
0001
0000
,
0000
0000
0000
0000
0010
0000
0010
0000
0100
0000
0000
0100
0000
0000
0100
0000
,
0000
0000
0000
0000
1000
0000
1000
0000
0001
0000
0000
0001
0000
0000
0001
0000
,
0000
0000
0000
0000
0100
0000
0100
0000
0010
0000
0000
1000
0000
0000
0001
0000
,
0010
0000
0100
0000
1000
0100
0000
1000
,
0010
0000
0100
0000
0001
0010
0000
0100
,
0010
0000
0001
0000
0100
0010
0000
0100
,
0001
1000
1001
0000
,
0001
0000
1000
0000
0010
1000
0000
0010
,
0100
0000
0001
0000
0010
0100
0000
0010
,
0001
0000
0100
0000
0010
0100
0000
0100
,
0001
1000
1001
0000
,
0001
0100
0020
0000
0130
0001
2000
0000
,
3001
0010
0100
1000
0010
0100
0001
1000
,
0001
1000
0020
0000
1030
0001
0020
0000
,
0130
0010
0001
1000
0200
0000
0000
0000
,
0310
0001
2000
0000
3010
0100
0002
0000
,
1003
0001
0010
0100
0010
0001
1000
0010
,
0100
0001
0020
0000
0130
1000
0020
0000
,
0130
0001
1000
0010
2000
0000
0000
0000
,
3001
1000
0010
0100
,
0001
0001
1000
1000
,
0001
0010
0100
0010
,
0001
0001
0010
0010
,
0100
1000
0001
0100
,
0010
0010
1000
1000
,
0001
1000
0010
1000
,
0100
0100
0010
0010
,
0001
0000
0010
0000
0100
1000
0000
0100
,
0010
0000
0001
0000
0100
0010
0000
1000
,
0001
0000
0010
0000
0001
0100
0000
0010
,
1000
0000
0001
0000
0010
0100
0000
0010
,
0001
0000
1000
0000
0100
0010
0000
0100
,
1000
0000
0010
0000
0100
0001
0000
1000
,
0002
0000
0000
0203
0000
0000
0320
0000
,
0000
2030
0000
0000
3010
0000
0100
0000
,
1001
1000
1001
0001
,
1001
1000
1001
0001
,
0100
0010
1000
0010
,
0100
0001
0010
0100
,
0110
0100
1100
1000
,
1010
0010
0110
0100
,
0101
0001
0100
0010
,
1000
0001
0010
0100
,
1100
0100
1100
1000
,
1100
0100
0110
0010
,
0011
0010
0001
0100
,
0010
1000
0001
0010
,
0004
4000
0000
0000
0000
0000
0000
0000
,
0000
0000
0000
0000
,
0000
3003
0000
0000
,
0000
0000
0000
0000
,
0001
0100
0001
0000
0100
0010
0100
0000
,
0010
1000
0010
0000
1000
0000
0001
0000
,
1000
0100
1000
0000
0100
0010
0100
0000
,
0010
0001
0010
0000
0001
0000
1000
0000
,
0100
0010
0001
0000
0010
0100
1000
0000
,
0100
1000
0010
0000
0100
0000
0001
0000
,
1000
0010
0100
0000
0001
1000
0100
0000
,
0010
0100
1000
0000
0100
0000
0010
0000
,
0001
0100
0001
1000
0001
0010
0001
0000
,
1000
0100
1000
0001
1000
0010
1000
0000
,
1000
0100
1000
0001
1000
0100
1000
0000
,
0001
0100
0001
1000
0001
0100
0001
0000
,
1000
0010
0100
0001
0010
0100
0010
0001
,
0100
0010
1000
0100
0010
0001
0100
0000
,
0110
0000
0000
2002
0000
0000
0000
0000
,
3003
0000
0000
0000
;

//--------------- dance-single - Pandemonium X ----------------
#NOTES:
     dance-single:
     Pandemonium X:
     Challenge:
     16:
     0,0,0,0,0:
0000
0000
0000
0000
,
0000
0000
0000
0000
,
0000
0000
0000
0000
,
0000
0000
0000
0000
,
0000
0000
0000
0000
,
0000
0000
0000
0000
,
0000
0000
0000
0000
,
0000
0000
0000
0000
,
1000
0000
0001
0100
0001
0000
0010
0000
,
1000
0010
0011
0000
,
1001
0000
0001
0100
0001
0000
0100
0000
,
1000
0100
0101
0000
,
1001
0000
0001
0100
0001
0000
0010
0100
,
0000
1000
0010
0000
0101
0000
0000
0000
,
1001
0000
1000
0100
1000
0000
0001
0010
,
0000
0100
0010
0000
0001
1000
0000
0000
,
0000
0000
0102
0000
0000
0010
0000
0000
,
0100
0000
0000
0013
0000
0000
1001
0000
,
0000
0000
2100
0000
0000
0010
0000
0000
,
0100
0000
0000
3010
0000
0000
1001
0000
,
0000
0000
0201
0000
0000
1000
0000
0000
,
0001
0000
0000
1300
0000
0000
0110
0000
,
0000
0000
0120
0000
0000
0001
0000
0000
,
1000
0000
0000
0031
0000
0000
1001
0000
,
0000
0000
2000
0000
0000
3200
0000
0000
,
0320
0000
0000
0032
0000
0003
2002
0000
,
3003
0000
0002
0000
0000
0203
0000
0000
,
0320
0000
0000
2030
0000
3000
2002
0000
,
0000
3003
0002
0000
0000
0203
0000
0000
,
2300
0000
0000
3020
0000
0000
0032
0000
,
0000
0000
2003
0000
0000
3200
0000
0000
,
0302
0000
0000
0023
0000
0000
2030
0000
,
3001
0100
0001
0000
0100
0010
0100
0000
,
0010
1000
0010
0000
1001
0000
0000
0000
,
1000
0001
0100
0000
0010
1000
0100
0000
,
0010
0100
1000
0000
0011
0000
0000
0000
,
0100
0010
0100
0000
0010
0001
0010
0000
,
0001
0100
0001
0000
1001
0000
0000
0000
,
0001
0100
0010
0000
1000
0100
0010
0000
,
0100
0010
0001
0000
1100
0000
0000
0000
,
0101
0001
0011
0001
,
0101
0001
0011
0010
,
0110
0100
1100
1000
,
1010
0010
0110
1000
,
1100
1000
1010
1000
,
1100
1000
1010
1000
,
0020
0230
0302
2003
,
3020
0230
0302
2003
,
3100
0010
0100
0000
0010
0001
0010
0000
,
0001
0100
0001
0000
0100
0010
0100
0000
,
0001
0001
1000
1000
,
0010
0010
0100
0100
,
0010
1000
0010
0000
0100
0001
0100
0000
,
0001
0010
0001
0000
0100
1000
0100
0000
,
1000
0100
0001
0100
,
1000
0010
0001
0010
,
1000
0000
0001
0000
0100
0010
0000
1000
,
0100
0000
0010
0001
0000
0010
0100
0000
,
1000
0000
0001
0000
0100
0010
0000
1000
,
0100
0000
0010
0001
0000
0010
0100
0000
,
1001
0000
0001
0000
0100
0001
0000
1000
,
0010
0000
0100
0001
0000
0010
0100
0000
,
1100
0000
0100
0000
0010
0001
0000
1000
,
0100
0000
1000
0010
0000
0100
0001
0000
,
1001
0000
0000
0000
0001
0000
0100
0000
0010
0000
0000
0010
0000
0000
0010
0000
,
0000
0000
0000
0000
0100
0000
0001
0000
1000
0000
0000
1000
0000
0000
1000
0000
,
1002
0000
0000
0000
1000
0000
1000
0000
1000
0000
0000
0100
0000
0000
0100
0000
,
0000
0000
0000
0000
0103
0000
0001
0000
0010
0000
0000
0100
0000
0000
1000
0000
,
1001
0000
0001
0000
0001
0100
0000
0100
,
0010
0000
0100
0000
0010
0100
0000
0100
,
0001
0000
1000
0000
0001
1000
0000
1000
,
0100
0010
0011
0000
,
0001
0000
0001
0000
1000
0001
0000
0100
,
0010
0000
0010
0000
0100
0001
0000
1000
,
0001
0000
0001
0000
1000
0100
0000
0100
,
0010
0001
0001
0000
,
0001
0010
0001
0000
1000
0100
1000
0000
,
0001
0100
0001
1000
0100
0010
0001
1000
,
0010
0100
0010
0000
0100
0001
0100
0000
,
0001
0100
1000
0100
0002
0000
0000
0000
,
1003
0010
1000
0000
0001
0010
0001
0000
,
1000
0001
0010
0100
0010
0001
1000
0010
,
0100
0001
0100
0000
0010
1000
0010
0000
,
1000
0100
0001
0100
2000
0000
0000
0000
,
3001
0000
1000
0100
1000
0000
1000
0010
,
2000
3002
0200
0303
,
0001
0000
0100
0001
0100
0000
0100
0010
,
0100
0001
1000
0100
,
0010
0000
0001
0100
0001
0000
0001
1000
,
0002
0023
0200
0330
,
0100
0000
0100
1000
0100
0000
0100
0010
,
0200
2300
0002
3003
,
1000
0000
0100
0000
1000
0010
0000
0100
,
0001
0000
0010
0000
0100
1000
0000
0100
,
0010
0000
0001
0000
0100
0010
0000
0100
,
0001
0000
1000
0000
0001
0010
0000
0100
,
1000
0000
0001
0000
0100
0010
0000
1000
,
0010
0000
0100
0000
0001
0010
0000
0100
,
2000
0000
0000
3002
0000
0000
0203
0000
,
0000
0320
0000
0000
2030
0000
3020
0000
,
0130
0001
0100
0000
0010
0100
0010
0000
,
1000
0010
1000
0000
0001
1000
0001
0000
,
1000
0100
1000
0000
0100
0010
0100
0000
,
0010
0001
0010
0000
0001
0100
0001
0000
,
1002
0013
2001
3010
,
1002
0013
2001
3010
,
0201
0301
0120
0130
,
1020
1030
1200
1300
,
1000
0100
0010
0000
0001
0010
0100
0000
,
0010
0001
1000
0000
0010
0100
0001
0000
,
1000
0010
0100
0000
0001
1000
0100
0000
,
0010
0100
1000
0000
0001
0100
0010
0000
,
1000
0010
0100
0001
1000
0010
0100
0001
,
1000
0010
0100
0001
1000
0001
0010
0100
,
1000
0010
0200
0000
0000
0000
0000
0000
,
0001
0000
0310
0000
,
1001
0000
1000
0100
0010
0000
0100
1000
,
0001
0000
0100
0010
1000
0001
0010
0001
,
1000
0001
0010
0000
0100
0010
0001
0000
,
0010
0001
0100
0000
0010
1000
0010
0100
,
0001
0010
0100
0000
0010
0001
1000
0000
,
0001
1000
0010
0000
0100
0010
1000
0100
,
0010
0001
0100
0000
0010
1000
0001
0000
,
1000
0100
0010
0000
0100
1000
0001
1000
,
0001
0010
0001
0010
0001
0010
0001
0000
,
1000
0100
1000
0100
1000
0100
1000
0000
,
0010
1000
0010
1000
0010
1000
0010
0000
,
0100
0001
0100
0001
0100
0001
0100
0000
,
0001
0100
0010
1000
0001
0010
0100
0010
,
0001
1000
0100
0010
0001
0010
0100
1000
,
0001
0000
0000
2020
0000
0000
0000
0000
,
3030
0000
0000
0000
;

//--------------- dance-double - Pandemonium X ----------------
#NOTES:
     dance-double:
     Pandemonium X:
     Challenge:
     16:
     0,0,0,0,0:
00000000
00000000
00000000
00000000
,
00000000
00000000
00000000
00000000
,
00000000
00000000
00000000
00000000
,
00000000
00000000
00000000
00000000
,
00000000
00000000
00000000
00000000
,
00000000
00000000
00000000
00000000
,
00000000
00000000
00000000
00000000
,
00000000
00000000
00000000
00000000
,
10000000
00000000
00000000
01000000
00100000
00000000
00010000
00000100
,
00000000
00000010
00000100
00000000
00001010
00000000
00000000
00000010
,
00000100
00000000
00000001
00001000
00000000
00000000
00000100
00010000
,
00000000
00001000
00010000
00000000
00011000
00000000
00000000
00001000
,
00010000
00000000
00001000
00100000
00000000
00000000
00010000
00100000
,
00000000
01000000
00100000
00000000
10010000
00000000
00000000
00010000
,
01000000
00000000
10000000
00100000
00000000
01000000
00001000
00000000
,
00010000
00000000
00011000
00000000
00000000
00011000
00000000
00000000
,
00000000
00000000
00020000
00000000
00000000
00030020
00000000
00000000
,
00000230
00000000
00000000
00000302
00000000
00000000
00001003
00000000
,
00000000
00000000
00000020
00000000
00000000
00020030
00000000
00000000
,
00032000
00000000
00000000
02003000
00000000
00000000
03010000
00000000
,
00000000
00000000
20000000
00000000
00000000
32000000
00000000
00000000
,
03020000
00000000
00000000
00032000
00000000
00003000
00000011
00000000
,
00000000
00000000
00000002
00000000
00000000
00000203
00000000
00000000
,
00002300
00000000
00000000
00023000
00000000
00030000
10100000
00000000
,
00000000
00000000
00020000
00000000
00000000
02030000
00000000
00000000
,
23000000
00000000
00000000
30200000
00000000
00000000
00310000
00000000
,
00000000
00000000
00200000
00000000
00000000
00302000
00000000
00000000
,
00023000
00000000
00000000
00030200
00000000
00000000
00001300
00000000
,
00000000
00000000
00000002
00000000
00000000
00000203
00000000
00000000
,
00002300
00000000
00000000
00003020
00000000
00000000
00000031
00000000
,
00000000
00000000
00002000
00000000
00000000
00003200
00000000
00000000
,
00000302
00000000
00000000
00000023
00000000
00000000
00002030
00000000
,
00003001
00001000
00000001
00000000
00001000
00000010
00001000
00000000
,
00000100
00010000
00011000
00000000
,
00001000
00100000
00001000
00000000
00100000
00010000
00100000
00000000
,
01000000
10000000
10100000
00000000
,
10000000
01000000
00100000
00000000
01000000
00001000
00010000
00000000
,
00000100
00010000
00010100
00000000
,
00001000
00000010
00010000
00000000
00001000
01000000
00100000
00000000
,
10000000
01000000
00110000
00000000
,
02010000
03001000
00021000
00030100
,
00002100
00003010
00000102
00000013
,
00002100
00003010
00000102
00000013
,
00002100
00003010
00020010
00031000
,
00100000
10000000
00100000
00010000
,
01000000
10000000
01000000
00001000
,
00010000
00000100
00001000
00000100
,
00000010
00000001
00001000
00000000
,
00000101
00000101
00001010
00001010
,
00010010
00010010
00011000
00011000
,
00001000
01000000
00100000
10000000
,
01000000
00100000
00010000
10000000
,
00110000
00110000
00101000
00101000
,
00011000
00011000
00010010
00010010
,
00000010
00000100
00000001
00000010
,
00000100
00001000
00000100
00010000
,
00001000
00000000
00100000
00000000
01000000
10000000
00000000
01000000
,
00100000
00000000
01000000
00010000
00000000
00100000
00001000
00000000
,
00010000
00000000
00000100
00000000
00001000
00000010
00000000
00000100
,
00000001
00000000
00000010
00000100
00000000
00000010
00000001
00000000
,
00001000
00000000
00000100
00000000
00010000
00001000
00000000
01000000
,
00100000
00000000
10000000
01000000
00000000
00100000
00010000
00000000
,
00100000
00000000
00001000
00000000
00010000
00000100
00000000
00001000
,
00000010
00000000
00000100
00000010
00000000
00010000
00001000
00000000
,
00012000
00000000
00000000
00000000
00100000
00000000
00100000
00000000
00100000
00000000
00000000
00000000
00100000
00000000
00000000
00010000
,
00000000
00000000
00000000
00000000
00100000
00000000
00100000
00000000
00100000
00000000
00000000
00100000
00000000
00000000
00010000
00000000
,
00023000
00000000
00000000
00000000
00000100
00000000
00000100
00000000
00000100
00000000
00000000
00000100
00000000
00000000
00001000
00000000
,
00000000
00000000
00000000
00000000
00000100
00000000
00000000
00000000
00000100
00000000
00000000
00000100
00000000
00000000
00031000
00000000
,
00010000
00000000
00001000
00000000
00100000
00010000
00000000
10000000
,
01000000
00000000
10000000
00000000
00100000
01000000
00000000
00001000
,
00010000
00000000
00000100
00000000
00001000
00000010
00000000
00000100
,
00000001
00000010
00001100
00000000
,
00010000
00000000
00001000
00000000
01000000
00100000
00000000
10000000
,
00010000
00000000
00100000
00000000
01000000
00100000
00000000
01000000
,
10000000
00000000
00100000
00000000
01000000
00001000
00000000
00010000
,
00000100
00001000
00000101
00000000
,
00001000
00000001
00000010
00000000
00000100
00001000
00000010
00000000
,
00000100
00000010
00010000
00001000
01000000
00100000
10000000
01000000
,
00100000
01000000
10000000
00000000
00010000
00100000
01000000
00000000
,
00100000
00001000
00010000
00000100
00002000
00000000
00000000
00000000
,
00003010
00001000
00000010
00000100
00000010
00001000
00000010
00000100
,
00000010
00010000
00001000
00010000
00100000
01000000
10000000
00010000
,
10000000
00100000
10000000
01000000
00100000
00010000
00100000
00000000
,
01000000
10000000
00100000
01000000
00020000
00000000
00000000
00000000
,
00130000
01000000
10000000
00100000
,
01000000
00001000
00010000
00000100
,
00001000
00000010
00000100
00000001
,
00000010
00000100
00000010
00000001
,
00000100
00000010
00001000
00000100
,
00010000
00001000
01000000
00100000
,
10000000
01000000
00010000
01000000
,
10000000
00100000
01000000
00001000
,
00010000
00000000
00000000
00000000
00010100
00000000
00000000
00001000
,
00000100
00000010
00000011
00000000
,
00000101
00000000
00000000
00000000
00001010
00000000
00000000
00000010
,
00010000
00001000
00011000
00000000
,
00101000
00000000
00000000
00000000
10100000
00000000
00000000
10000000
,
01000000
00100000
00110000
00000000
,
00200000
00000000
00000000
00302000
00000000
00000000
00023000
00000000
,
00030000
00000020
00000000
00000000
00000130
00000000
00000000
00000000
,
00001001
00000000
00000001
00001000
00000010
00000000
00000100
00000010
,
00010000
00000000
00001000
00100000
01000000
00000000
10000000
00100000
,
01000000
00000000
00010000
00100000
00001000
00000000
00010000
00000100
,
00001000
00000000
00000010
00000100
00000001
00000000
00001000
00000100
,
00000010
00000011
00001100
00001010
,
00010100
00011000
00110000
11000000
,
10000000
01000000
00010000
01000000
,
10000000
00100000
00010000
00100000
,
10000000
00010000
00100000
00000000
01000000
10000000
00100000
00000000
,
01000000
00001000
00010000
00000000
00000100
00001000
00000010
00000000
,
00000100
00000001
00000010
00000000
00000100
00010000
00001000
00000000
,
00010000
00001000
01000000
00000000
00100000
10000000
01000000
00000000
,
00100000
00001000
00100000
00001000
00010000
00001000
00010000
00001000
,
00010000
00000010
00010000
00000010
00000100
00000010
00000100
00000010
,
00001000
00000001
00001000
00000000
00000000
00000000
00000000
00000000
,
00000000
00000000
00000000
00000000
,
00000001
00000100
00000010
00001000
00000100
00010000
00001000
00100000
,
01000000
10000000
00100000
01000000
00010000
10000000
01000000
00000000
,
00100000
00001000
00010000
00000100
00001000
00000010
00000100
00000001
,
00000010
00000100
00001000
00000010
00000100
00000001
00001000
00000000
,
00000001
00000100
00000010
00001000
00000100
00010000
00001000
00100000
,
01000000
10000000
00100000
01000000
00010000
00000000
10010000
00000000
,
00010000
10000000
00100000
01000000
00010000
00100000
00001000
00010000
,
00000100
00001000
00000010
00000100
00000001
00001000
00000001
00000000
,
00000100
00000010
00010000
00001000
00100000
01000000
10000000
00010000
,
00100000
00001000
00010000
00000010
00000100
00000001
00001000
00000100
,
00010000
00001000
01000000
00100000
10000000
00010000
00100000
01000000
,
10000000
01000000
00100000
00001000
00010000
00000100
00001000
00000010
,
00000100
00000001
00000010
00000100
00010000
00001000
01000000
00100000
,
10000000
00010000
00100000
01000000
10000000
00010000
10000000
00000000
,
10010000
00000000
00000000
00022000
00000000
00000000
00000000
00000000
,
00000000
00000000
00000000
00000000
,
00033000
00000000
00000000
00000000
;
