#TITLE:Love Is Eternity 2018;
#SUBTITLE:;
#ARTIST:kors k;
#TITLETRANSLIT:;
#SUBTITLETRANSLIT:;
#ARTISTTRANSLIT:;
#GENRE:;
#CREDIT:;
#BANNER:Love Is Eternity 2018.png;
#BACKGROUND:Love Is Eternity 2018-bg.png;
#LYRICSPATH:;
#CDTITLE:cdtitle.png;
#MUSIC:Love Is Eternity 2018.ogg;
#OFFSET:1.043000;
#SAMPLESTART:12.671000;
#SAMPLELENGTH:15.437000;
#LASTBEATHINT:0.100333;
#SELECTABLE:YES;
#BPMS:0.000000=140.000000
,32.000000=70.000000
,34.000000=140.000000
,194.000000=70.099998
,198.000000=140.000000
;
#STOPS:
;
#BGCHANGES:;
#KEYSOUNDS:;
#ATTACKS:;

//---------------dance-single - ----------------
#NOTES:
     dance-single:
     :
     Beginner:
     2:
     0.105059,0.195216,0.066105,0.000000,0.000000,89.000000,81.000000,8.000000,0.000000,0.000000,0.000000,0.105059,0.195216,0.066105,0.000000,0.000000,89.000000,81.000000,8.000000,0.000000,0.000000,0.000000:
0000
0000
0000
0000
,
0000
0000
0000
0000
,
0000
0000
0000
0000
,
0000
0000
0000
0000
,
0000
0000
0000
0000
,
0001
0000
0000
0000
,
1000
0000
0000
0000
,
0110
0000
0000
0000
,
0000
0000
1000
0000
,
0000
0000
0001
0000
,
0000
0000
0010
0000
,
0000
0000
0100
0000
,
1000
0000
0010
0000
,
0000
0000
0100
0000
,
0000
0000
0001
0000
,
0000
0000
0010
0000
,
0001
0000
1001
0000
,
0000
0000
1000
0000
,
0000
0000
0010
0000
,
0000
0000
1000
0000
,
0001
0000
0010
0000
,
0000
0000
0100
0000
,
0000
0000
0010
0000
,
0000
0000
0001
0000
,
1000
0000
0010
0000
,
0000
0000
0100
0000
,
0000
0000
0001
0000
,
0000
0000
1000
0000
,
0000
0000
0100
0000
,
0000
0000
0010
0000
,
0000
0000
0001
0000
,
0000
0000
1000
0000
,
0001
0000
0110
0000
,
0000
0000
0100
0000
,
0000
0000
0010
0000
,
0000
0000
1000
0000
,
0000
0000
0001
0000
,
0000
0000
0010
0000
,
0000
0000
0001
0000
,
0000
0000
1000
0000
,
0000
0000
0110
0000
,
0000
0000
0001
0000
,
0000
0000
1000
0000
,
0000
0000
0100
0000
,
0000
0000
0010
0000
,
0000
0000
0001
0000
,
0000
0000
1000
0000
,
0001
0000
0100
0000
,
0000
0000
1001
0000
,
0000
0000
0000
0000
,
0000
0000
0000
0000
,
0000
0000
1001
0000
,
0001
0000
1000
0000
,
0000
0000
0010
0000
,
0100
0000
0010
0000
,
0000
0000
1000
0000
,
1000
0000
0001
0000
,
0001
0000
0100
0000
,
0100
0000
0010
0000
,
0010
0000
1001
0000
,
0001
0000
1000
0000
,
0000
0000
0100
0000
,
0010
0000
0100
0000
,
0000
0000
1000
1000
,
1000
0000
0001
0001
,
0001
0000
0100
0000
,
0010
0000
0100
0000
,
0001
0000
1001
0000
;

//---------------dance-single - ----------------
#NOTES:
     dance-single:
     :
     Easy:
     5:
     0.182969,0.278880,0.049579,0.082631,0.000000,155.000000,149.000000,6.000000,10.000000,0.000000,0.000000,0.182969,0.278880,0.049579,0.082631,0.000000,155.000000,149.000000,6.000000,10.000000,0.000000,0.000000:
0000
0000
0000
0000
,
0000
0000
0000
0000
,
0000
0000
0000
0000
,
0000
0000
0000
0000
,
0000
0000
0000
0000
,
0001
0000
1000
0000
,
0010
0000
0100
0000
,
2002
0000
0000
0000
,
3003
0000
0001
0000
,
1000
0000
0010
0000
,
1000
0100
0010
0000
,
0001
0000
0100
0000
,
0010
0100
0001
0000
,
1000
0000
0100
0000
,
0010
0000
0001
0010
,
0100
0000
0010
0000
,
0001
1000
0110
0000
,
0100
0000
0010
0000
,
1000
0001
0010
0000
,
0001
0000
1000
0000
,
0100
1000
0010
0000
,
0100
0000
0001
0000
,
1000
0001
0010
0000
,
0001
0000
0200
0000
,
0000
0000
0310
1000
,
0010
0000
0100
0001
,
0100
0000
0001
0010
,
0001
0000
1000
0100
,
1000
1000
0001
1000
,
0010
0000
1000
0001
,
0010
0000
0001
1000
,
0100
0000
1000
0001
,
0100
0000
0001
0000
,
0010
0000
1000
0000
,
0010
0000
0001
0000
,
1000
0000
0010
0000
,
1000
0000
0001
0000
,
0100
0000
1000
0000
,
0100
0000
0001
0000
,
1000
0000
0100
0000
,
0010
0000
0001
0010
,
0200
0300
1000
0001
,
2000
3000
0010
1000
,
0002
0003
0010
0001
,
0200
0300
0010
1000
,
0002
0003
0010
0100
,
2000
3000
0100
0100
,
0010
0010
0001
1000
,
0010
0100
1001
0000
,
0000
0000
0000
0000
,
0000
0000
0000
0000
,
0000
0110
1001
0000
,
0001
0000
1000
0000
,
0010
1000
0100
0000
,
0010
0000
0001
0000
,
0100
0001
1000
0000
,
0001
0000
0100
0000
,
0010
0000
1000
0000
,
0010
0000
0100
0000
,
0010
0100
1001
0000
,
0001
0000
1000
0000
,
0100
0010
0001
0000
,
0010
0000
0001
0000
,
0100
0010
1000
0000
,
0001
0000
0100
0000
,
0010
0000
1000
0000
,
0001
0000
0200
0000
,
0000
0000
0310
0000
;

//---------------dance-single - ----------------
#NOTES:
     dance-single:
     :
     Medium:
     8:
     0.332885,0.446207,0.057842,0.148736,0.016526,282.000000,275.000000,7.000000,18.000000,0.000000,0.000000,0.332885,0.446207,0.057842,0.148736,0.016526,282.000000,275.000000,7.000000,18.000000,0.000000,0.000000:
0000
0000
0000
0000
,
0000
0000
0000
0000
,
0000
0000
0000
0000
,
0000
0000
0000
0000
,
0000
0000
0000
0000
,
0001
1000
0010
1000
,
0001
0010
0100
1000
,
0012
0000
1000
0000
,
0200
0000
0000
0303
1001
0000
1000
0000
,
0001
0010
0001
0100
,
0010
0000
1000
0100
0010
0000
0100
0000
,
1000
0001
0100
0010
,
0100
0001
1000
0001
0010
0000
0100
0000
,
0010
0001
1000
0010
,
1000
0000
0001
0000
0010
0001
0100
0000
,
0001
1000
0001
0010
,
0000
0100
0010
0001
1000
0000
0001
0000
,
0100
0001
1000
0100
,
0010
0000
0100
1000
0001
0000
0100
0000
,
0010
1000
0001
0010
,
0100
0010
0001
1000
0010
0000
0100
0000
,
0001
0010
0001
1000
,
0100
0000
0010
0000
0100
1000
0010
0000
,
0100
0000
0001
0000
1000
0100
0010
0001
,
1000
0100
0010
0001
1000
0000
0001
0000
,
0100
0100
0001
1000
,
0010
0010
1000
0100
,
0010
0010
0001
0100
,
0010
0010
0100
0001
,
1000
1000
0001
1000
,
0100
0100
1000
0010
,
0100
0010
1000
0001
,
0010
0100
2000
3100
,
0020
0031
0200
0310
,
2000
3001
0020
0130
,
2000
3010
0200
0301
,
0020
0130
0020
0031
,
2000
3010
2000
3001
,
0020
0130
0020
0031
,
0200
0310
2000
3001
,
0020
0130
0110
0000
,
0100
0000
0000
0100
0000
0000
0100
0000
0000
0000
0000
0000
0000
0000
0000
0000
,
0010
0000
0000
0010
0000
0000
0010
0000
0000
0000
0000
0000
0000
0000
0000
0000
,
0001
0000
0000
0001
0000
0000
0001
0000
0000
0000
0000
0000
0000
0000
0000
0000
,
1000
0000
0000
1000
0000
0000
1000
0000
0001
0000
0000
0000
1000
0000
0000
0000
,
0010
0100
0001
1000
,
0100
0000
0010
0000
0001
0010
0100
0000
,
0010
0100
1000
0000
0100
0010
0001
0100
,
0010
1000
1100
0000
0011
0000
0000
0000
,
0000
0000
1000
0001
,
1000
0001
0100
0010
,
0100
1001
0001
0100
,
0010
1000
0001
0010
,
0100
0000
0010
0001
1000
0000
0001
0000
,
1000
0010
1000
0100
,
0010
0000
0100
1000
0010
0000
1000
0000
,
0001
0000
0010
0100
1000
0000
0100
0000
,
0010
0000
0100
1000
0001
0000
0100
0000
,
0010
0000
1000
0010
0100
0000
0010
0000
,
1000
0001
0010
0100
1000
0000
0100
0000
,
1000
0010
0100
0001
,
0010
0000
0100
0010
0001
0000
0010
0000
,
0001
1000
0010
0100
,
0001
0000
1000
0001
0010
0000
0001
0000
,
0100
0000
0010
1000
0001
0000
0010
0000
,
0100
0000
1000
0100
0010
0000
0100
0000
,
1000
0000
0001
0000
1000
0100
0010
0001
,
0010
0100
0010
0001
1001
0000
0000
0000
;

//---------------dance-single - ----------------
#NOTES:
     dance-single:
     :
     Hard:
     11:
     0.442666,0.474095,0.140473,0.041315,0.594943,375.000000,358.000000,17.000000,5.000000,0.000000,0.000000,0.442666,0.474095,0.140473,0.041315,0.594943,375.000000,358.000000,17.000000,5.000000,0.000000,0.000000:
// measure 0
0000
0000
0000
0000
,  // measure 1
0000
0000
0000
0000
,  // measure 2
0000
0000
0000
0000
,  // measure 3
0000
0000
0000
0000
,  // measure 4
0000
0000
0000
0000
,  // measure 5
1000
0010
1000
0000
0101
0000
1100
0000
,  // measure 6
0001
0010
0001
0000
1010
0000
0101
0000
,  // measure 7
2000
3100
0020
0031
,  // measure 8
2020
0000
0000
0000
0000
0000
3030
0000
0100
0000
0000
0010
0000
0000
1000
0000
,  // measure 9
0000
0001
0000
0000
0010
0000
0000
0001
0000
0000
1000
0000
0000
0100
0000
0000
,  // measure 10
0010
0000
0000
0100
0000
0000
1000
0000
0001
0000
0000
0100
0000
0000
0001
0000
,  // measure 11
0000
0010
0000
0000
0001
0000
0000
1000
0000
0000
0100
0000
0000
0010
0000
0000
,  // measure 12
0100
0000
1000
0000
0010
0000
0100
0000
0001
0000
0000
0010
0000
0000
0001
0000
,  // measure 13
0000
1000
0000
0000
0010
0000
0000
0100
0000
0000
0001
0000
0000
0010
0000
0000
,  // measure 14
0100
0000
0000
0010
0000
0000
0001
0000
1000
0000
0001
0000
1000
0000
0000
0001
,  // measure 15
0000
0000
0010
0000
0000
0001
0000
0000
0100
0000
0000
0010
0000
0000
1000
0000
,  // measure 16
0000
0000
0001
0000
0010
0000
0100
0000
1100
0000
0000
0100
0000
0000
1000
0000
,  // measure 17
0000
0010
0000
0000
0100
0000
0000
0001
0000
0000
0010
0000
0000
0001
0000
0000
,  // measure 18
1000
0000
0000
0001
0000
0000
0100
0000
0001
0000
0000
0010
0000
0000
0100
0000
,  // measure 19
0000
0010
0000
0000
0001
0000
0000
1000
0000
0000
0010
0000
0000
0100
0000
0000
,  // measure 20
0010
0000
1000
0000
0001
0000
0010
0000
0100
0000
0000
0010
0000
0000
0001
0000
,  // measure 21
0000
1000
0000
0000
0010
0000
0000
1000
0000
0000
0100
0000
0000
0010
0000
0000
,  // measure 22
0001
0000
0000
0100
0000
0000
0010
0000
1000
0001
0000
0000
1000
0000
0000
0001
,  // measure 23
0000
0000
0010
0000
0000
0001
0000
0000
1000
0000
0100
0000
0001
0000
0100
0000
,  // measure 24
1000
0000
0010
0000
0100
0000
0001
0000
0101
0000
0001
0000
0000
1000
0000
0000
,  // measure 25
0001
0000
0000
0010
0000
0000
0100
0000
0000
0000
0010
0000
0000
0001
0000
0000
,  // measure 26
1000
0000
0000
0100
0000
0000
0010
0000
0000
0000
0100
0000
0000
1000
0000
0000
,  // measure 27
0010
0000
0000
0100
0000
0000
0001
0000
0000
0000
0010
0000
0000
1000
0000
0000
,  // measure 28
0010
0000
0000
0001
0000
0000
1001
0000
0000
0000
0001
0000
0000
1000
0000
0000
,  // measure 29
0010
0000
0000
0100
0000
0000
0001
0000
0000
0000
0100
0000
0000
0001
0000
0000
,  // measure 30
1000
0000
0000
0100
0000
0000
1000
0000
0000
0000
0100
0000
0000
0010
0000
0000
,  // measure 31
0100
0000
0000
0010
0000
0000
0001
0000
0000
0000
0100
0000
0000
1000
0000
0000
,  // measure 32
0100
0000
0000
0001
0000
0000
1001
0000
1000
0000
0000
0001
0000
1000
0000
0000
,  // measure 33
0001
0000
0000
0100
0000
0010
0000
0000
1000
0000
0000
0100
0000
0010
0000
0000
,  // measure 34
0100
0000
0000
1000
0000
0010
0000
0000
0100
0000
0000
0001
0000
0010
0000
0000
,  // measure 35
0100
0000
0000
0010
0000
0001
0000
0000
0100
0000
0000
0010
0000
1000
0000
0000
,  // measure 36
0001
0000
0000
0010
0000
0100
0000
0000
0010
0000
0000
0001
0000
1000
0000
0000
,  // measure 37
0010
0000
0000
1000
0000
0100
0000
0000
0010
0000
0000
0001
0000
0100
0000
0000
,  // measure 38
0010
0000
0000
0100
0000
0001
0000
0000
1000
0000
0000
0001
0000
0010
0000
0000
,  // measure 39
0100
0000
0000
0010
0000
0001
0000
0000
0100
0000
0000
0010
0000
1000
0000
0000
,  // measure 40
0001
0000
0000
1000
0000
0001
0000
0000
0000
0000
1000
0001
0000
1000
0000
0000
,  // measure 41
0001
0000
0000
0100
0000
0000
0010
0000
0000
0000
1000
0010
0000
1000
0000
0000
,  // measure 42
0010
0000
0000
1000
0000
0000
0100
0000
0000
0000
0010
0001
0000
0010
0000
0000
,  // measure 43
0001
0000
0000
0100
0000
0000
0010
0000
0000
0000
1000
0001
0000
1000
0000
0000
,  // measure 44
0001
0000
0000
0100
0000
0000
0110
0000
0000
0000
0100
0001
0000
0010
0000
0000
,  // measure 45
0100
0000
0000
1000
0000
0000
0100
0000
0000
0000
1000
0100
0000
0010
0000
0000
,  // measure 46
0001
0000
0000
1000
0000
0000
0001
0000
1000
0000
0010
0000
1000
0000
0010
0000
,  // measure 47
0100
0001
0100
0001
0010
1000
0020
0000
,  // measure 48
0031
0100
0110
0000
1001
0000
0000
0000
,  // measure 49
0000
0000
0001
1000
,  // measure 50
0010
0000
0100
0000
0001
1000
0010
0100
,  // measure 51
0001
0000
1000
0000
1001
0000
0000
0000
0000
0001
0000
0000
1000
0000
0000
0001
,  // measure 52
0000
0001
0000
0000
0010
0000
0000
0100
0000
0100
0000
0000
1000
0000
0000
0100
,  // measure 53
0000
0100
0000
0000
1000
0000
0010
0100
0000
0010
0000
0000
1000
0000
0000
0001
,  // measure 54
0000
0001
0000
0000
0010
0000
0000
0001
0000
0001
0000
0000
0100
0000
0000
0010
,  // measure 55
0000
0010
0000
0000
1000
0000
0010
1000
0000
0000
0010
0000
0000
1000
0000
0000
,  // measure 56
0100
0000
0000
0010
0000
0000
0011
0000
0000
0000
0001
0000
0000
0010
0000
0000
,  // measure 57
0100
0000
0000
1000
0000
0000
1001
0000
0000
0000
0001
0000
0000
1000
0000
0000
,  // measure 58
0010
0000
0000
1000
0000
0000
1100
0000
0000
0000
1000
0000
0000
0100
0000
0000
,  // measure 59
0010
0000
0001
0000
0100
0000
0010
0000
1000
0000
0001
0000
0100
0000
0000
0001
,  // measure 60
0000
0010
0000
0000
0100
0000
0000
1000
0000
0010
0000
0000
0100
0000
0000
0010
,  // measure 61
0000
1000
0000
0000
0001
0000
1000
0010
0000
0100
0000
0000
0010
0000
0000
1000
,  // measure 62
0000
0001
0000
0000
0010
0000
0000
0100
0000
0010
0000
0000
0001
0000
0000
1000
,  // measure 63
0000
0100
0000
0000
1000
0000
0010
0100
0000
0000
0001
0000
0000
1000
0000
0000
,  // measure 64
0010
0000
0000
0100
0000
0000
0001
0000
0000
0000
0010
0000
0000
0100
0000
0000
,  // measure 65
1000
0000
0000
0100
0000
0000
0010
0000
0000
0000
0001
0000
0000
0100
0000
0000
,  // measure 66
0010
0000
0000
1000
0000
0000
0001
0000
1000
0000
0100
0000
0010
0000
0001
0000
,  // measure 67
0100
0010
0100
0001
1001
0000
0000
0000
;

//---------------dance-single - ----------------
#NOTES:
     dance-single:
     :
     Challenge:
     15:
     0.681115,0.920302,0.206577,0.057842,1.127913,577.000000,552.000000,25.000000,7.000000,0.000000,0.000000,0.681115,0.920302,0.206577,0.057842,1.127913,577.000000,552.000000,25.000000,7.000000,0.000000,0.000000:
0000
0000
0000
0000
,
0000
0000
0000
0000
,
0000
0000
0000
0000
,
0000
0000
0000
0000
,
0000
0000
0000
0000
,
0001
0100
0010
0000
1000
0000
0011
0000
,
0001
1000
0100
0000
0010
0000
1100
0000
,
1000
0020
0000
0000
1000
0000
0130
0000
,
0001
0100
0010
1000
0010
1000
0001
0010
0001
1000
0100
0010
0001
0010
0100
1000
0001
0000
0000
0000
1000
0000
0010
0000
0000
0000
0010
0000
0100
0000
0000
0000
,
0100
0001
0000
0001
0010
0000
0010
0100
0000
0100
1000
0000
1000
0001
0000
0001
,
1000
0000
1000
0010
0000
0010
0100
0000
0001
0000
1000
0001
0000
0001
0010
0000
,
0010
0100
0000
0100
1000
0000
1000
0010
0000
0010
0100
0000
0100
0001
0000
0001
,
1000
0100
0010
0001
0010
0100
1000
0000
0001
0000
0100
0001
0000
0001
0010
0000
,
0010
0001
0000
0001
1000
0000
1000
0010
0000
0010
1000
0000
1000
0001
0000
0001
,
0100
0000
0010
1000
0000
0001
0100
0000
0010
1000
0100
0000
0010
0000
0001
0010
,
0000
0010
0100
0000
0100
1000
0000
1000
0001
0000
0001
0100
0000
0100
0010
0000
,
0000
0010
0100
0010
1000
0001
0010
0100
1000
0000
0001
0010
0000
0100
1000
0000
,
1000
0010
0000
0100
0001
0000
0010
0100
0000
0010
0001
0000
0100
0010
0000
1000
,
0010
0000
0100
0010
0000
0100
0001
0000
0010
0000
0001
0010
0000
0100
1000
0000
,
0100
0010
0000
0100
1000
0000
0010
0100
0000
0001
0010
0000
0100
0010
0000
0100
,
1000
0100
0010
0100
1000
0001
0100
0000
0001
0000
0100
0010
0000
1000
0001
0000
,
0010
0100
0000
0010
0001
0000
1000
0100
0000
1000
0010
0000
0100
0001
0000
0010
,
0100
0000
1000
0100
0000
0010
0001
0000
1000
0001
0100
0000
0010
0000
1000
0100
,
0000
0010
0001
0000
0001
0100
0000
0000
0010
0100
0001
1000
0001
0010
0001
1000
,
0001
0010
0100
1000
0100
0010
0001
1000
0010
0000
1000
0001
0000
0001
0000
0000
,
0010
0000
0000
0100
0000
0000
1100
0000
0000
0000
0100
0010
0000
0010
0000
0000
,
0001
0000
0000
0100
0000
0000
1010
0000
0000
0000
1000
0001
0000
0001
0000
0000
,
0010
0000
0000
0001
0000
0000
0101
0000
0000
0000
0001
0100
0000
0100
0000
0000
,
0010
0000
0000
1000
0000
0000
0101
0000
0000
0000
0001
0010
0000
0010
0000
0000
,
0100
0000
0000
0010
0000
0000
0011
0000
0000
0000
0001
1000
0000
1000
0000
0000
,
0010
0000
0000
1000
0000
0000
0011
0000
0000
0000
1000
0010
0000
0010
0000
0000
,
0100
0000
0000
0001
0000
0000
1001
0000
0000
0000
1000
0001
0000
0001
0000
0000
,
0010
0000
0000
0100
0000
0000
0011
0000
0001
0000
0000
0100
0000
0010
0000
1000
,
0100
0000
0000
0010
0000
0100
0000
1000
0010
0000
0000
0100
0000
0010
0000
1000
,
0001
0000
0000
0010
0000
0001
0000
1000
0100
0000
0000
1000
0000
0010
0000
0100
,
0010
0000
0000
0100
0000
0001
0000
1000
0100
0000
0000
0010
0000
0100
0000
1000
,
0001
0000
0000
0100
0000
0001
0000
0010
0001
0000
0000
0010
0000
0001
0000
0100
,
0010
0000
0000
0100
0000
0010
0000
1000
0001
0000
0000
0010
0000
0100
0000
1000
,
0100
0000
0000
0010
0000
0100
0000
1000
0001
0000
0000
0010
0000
0001
0000
0010
,
0100
0000
0000
1000
0000
0100
0000
0010
0001
0000
0000
0100
0000
0010
0000
1000
,
0001
0000
0000
0100
0000
0010
0000
1000
0001
0000
1000
0001
0000
0010
0000
0000
,
1100
0000
0000
1010
0000
0000
0101
0000
0000
0000
0001
0100
0000
0010
0000
0000
,
1010
0000
0000
0101
0000
0000
0011
0000
0000
0000
0001
0010
0000
0100
0000
0000
,
1100
0000
0000
0101
0000
0000
1100
0000
0000
0000
0001
0100
0000
0010
0000
0000
,
1010
0000
0000
0011
0000
0000
1001
0000
0001
0000
0100
0000
0010
0000
1000
0000
,
0001
0010
0100
1000
0100
0010
0001
0100
,
0010
0000
1000
0000
0001
0000
0010
0000
0100
1000
0100
1000
0100
1000
0100
1000
,
0100
0010
0001
0010
0001
0010
0001
0010
0002
0000
0000
0000
0203
0000
0000
0000
,
0320
1030
1001
0000
,
0000
0000
1000
0001
,
0010
0000
0001
0000
0100
0010
1000
0001
,
0100
0010
1000
0001
1001
0000
0000
0000
0001
1000
0000
0000
0001
0000
0000
0010
,
0000
0010
0000
0000
0100
0000
0000
1000
0000
1000
0000
0000
0100
0000
0000
1000
,
0000
1000
0000
0000
0010
0000
0100
0001
0000
0010
0000
0000
0100
0000
0000
1000
,
0000
1000
0000
0000
0100
0000
0000
1000
0000
1000
0000
0000
0010
0000
0000
0100
,
0000
0100
0000
0000
0001
0000
0010
0001
0000
0000
0100
0000
0100
0001
0000
0001
,
1000
0000
1000
0100
0000
0100
0010
0001
0000
1000
0100
0000
0010
0001
0000
0100
,
0010
0000
1000
0001
0000
0010
0001
1000
0000
0001
0100
0000
0001
0010
0000
0100
,
1000
0000
0100
0010
0000
0010
0001
1000
0000
0001
0100
0000
0010
1000
0000
0001
,
0100
0000
0020
0000
2030
0000
3002
0000
0013
0100
0000
0100
1000
0000
0000
0100
,
0000
0010
0000
0001
0100
0000
0010
1000
0000
0001
0000
0000
0010
0000
0001
1000
,
0000
0010
0000
1000
0001
0000
0001
1000
0000
0100
0000
0000
0010
0000
0001
0010
,
0000
0100
0000
1000
0010
0000
0100
0001
0000
0010
0000
0000
0001
0000
0010
0001
,
0000
0100
0010
0000
1000
0000
0001
1000
0000
0001
1000
0000
0010
0100
0000
0001
,
1000
0000
0010
0100
0000
0001
1000
0010
0000
1000
0100
0000
0010
0001
0000
1000
,
0100
0000
0010
0001
0000
1000
0001
0100
0000
0010
0100
0000
0001
1000
0000
0010
,
0100
0000
0001
1000
0000
0010
0100
0001
1000
0010
0100
0001
0100
0001
1000
0100
,
1000
0001
0010
0100
1000
0100
0010
0001
1001
0000
0000
0000
0000
0000
0000
0000
;
