#TITLE:Let Me See Your Dance;
#SUBTITLE:;
#ARTIST:kors k vs BEMANI Sound Team "SYUNN";
#TITLETRANSLIT:;
#SUBTITLETRANSLIT:;
#ARTISTTRANSLIT:;
#GENRE:;
#CREDIT:;
#MUSIC:Let Me See Your Dance.ogg;
#BANNER:;
#BACKGROUND:Let Me See Your Dance-bg.png;
#CDTITLE:;
#SAMPLESTART:11.448;
#SAMPLELENGTH:14.392;
#SELECTABLE:YES;
#OFFSET:1.352;
#BPMS:0.000=150.000
,84.000=37.500
,84.500=75.000
,97.500=150.000
,101.500=37.500
,102.000=75.000
,109.000=150.000
;
#STOPS:;
#BGCHANGES:;
#FGCHANGES:;

//--------------- dance-single - Pandemonium X ----------------
#NOTES:
     dance-single:
     Pandemonium X:
     Beginner:
     7:
     0,0,0,0,0:
0000
0000
0000
0000
,
0000
0000
0000
0000
,
0000
0000
0000
0000
,
0000
0000
0000
0000
,
0001
0000
1000
0000
,
0010
0010
0010
0000
,
0100
0100
0100
0000
,
0001
0000
1000
0000
,
0110
0000
0000
0000
,
0001
0001
0001
0000
,
1000
1000
1000
0000
,
0010
0010
0010
0000
,
0100
0010
1000
0001
,
1000
1000
1000
0000
,
0001
0001
0001
0000
,
0100
0000
0010
0000
,
1000
0001
0100
0010
,
1000
1000
1000
0000
,
0001
0001
0001
0000
,
0010
0000
0001
0000
,
0100
0000
0010
0010
,
1000
0000
0001
0001
0001
0001
0001
1000
,
0000
0001
1000
1000
1000
1000
0000
0001
,
0000
0100
0010
1000
,
0000
0000
0100
0010
0000
0000
0000
0001
,
0000
0000
0000
1000
0101
0001
0010
0000
,
0000
0000
0100
0000
1000
0000
0001
0100
,
0010
1000
0001
0000
0001
0000
0010
0000
,
0010
0100
0100
1000
,
1000
0001
0010
0100
,
1000
0001
0100
0010
,
1000
0000
0001
1000
,
0000
0000
0100
0010
,
0000
0000
0100
1000
,
0000
0000
0010
0100
,
0001
0000
0010
0001
,
0000
0000
1000
0010
,
0000
0000
0100
0001
,
0000
0010
0001
1000
,
0010
0000
0100
0001
,
0010
0000
0100
1000
,
0010
0000
0100
0010
,
1000
0001
0000
1000
,
0000
0001
0010
0100
,
0000
0010
0001
1000
,
0000
0100
1000
0010
,
0000
0100
0000
0001
,
0000
1000
1000
1000
,
0000
0001
0001
0001
,
0000
0100
0100
0010
,
0010
1001
0000
0000
,
0000
0001
0100
0010
,
0000
0100
0010
1000
,
1000
0100
1000
0010
,
0000
0100
0100
0100
,
0000
0010
1000
0001
,
0000
0010
0001
1000
,
0000
0100
1000
0010
,
0000
1001
1001
0001
,
1000
0000
0001
0101
,
0101
0000
1000
1100
,
1100
0000
1000
1010
,
0101
1001
0000
0000
,
0000
0001
0010
0011
,
0011
0001
1000
1010
,
1010
1000
0001
1001
,
0000
0110
0000
1001
,
0000
0110
0000
0000
;

//--------------- dance-single - Pandemonium X ----------------
#NOTES:
     dance-single:
     Pandemonium X:
     Easy:
     10:
     0,0,0,0,0:
0000
0000
0000
0000
,
0000
0000
0000
0000
,
0000
0000
0000
0000
,
0000
0000
0000
0000
,
1000
0001
0100
0100
,
0001
0010
0100
0100
,
1000
0010
0100
0100
,
0010
0100
0001
1000
,
0000
0001
0010
0100
1000
0001
1001
0000
,
0001
1000
0010
1010
,
1000
0001
0010
0011
,
0001
1000
0010
1010
,
1000
1001
0110
1001
,
0001
1000
0100
1100
,
1000
0001
0100
0101
,
1001
0001
1001
1000
,
0001
0100
0001
1000
,
0100
0100
0100
0100
,
0010
0001
0010
0001
,
1100
0000
0011
0000
,
1001
0010
1001
0100
,
2002
3003
0001
0100
1000
0100
0001
2002
,
0000
3003
1000
0100
0001
0100
1000
1001
,
0000
0000
1010
0000
0001
1000
0100
0000
1000
0001
0100
0000
0010
0000
1001
0000
,
0001
1100
1000
0002
0000
0000
0000
2003
,
0000
0000
0000
0000
0000
0000
3010
0000
1001
0000
0001
1000
0020
0000
0000
0000
,
0000
0000
0130
0001
0010
0100
1100
1001
,
1100
1001
1002
0000
0013
0000
2001
0000
,
3010
1002
0013
2001
,
3010
1001
0110
1001
,
0110
0000
1000
0100
0010
0001
1000
0100
,
1000
0000
0000
0000
0100
0000
1000
0001
,
0000
0000
0000
0000
0100
0000
0001
1000
,
0000
0000
0000
0000
0100
0000
1000
0001
,
0000
0000
0000
0000
1000
0000
0001
0010
,
0100
1000
0000
0000
0001
0000
1000
0010
,
0000
0000
0000
0000
1000
0000
0001
0010
,
0000
0000
0000
0000
0001
0000
1000
0010
,
0000
0000
0100
0010
,
1000
0000
0000
0000
0001
0000
1000
0010
,
0200
0000
0300
0000
0010
0000
1000
0001
,
0020
0000
0030
0000
0100
0000
0010
0001
,
0100
0002
0000
0000
0000
0000
0103
0100
,
0001
1000
0000
0000
0001
0000
1000
0100
,
0020
0000
0030
0000
0100
0000
1000
0001
,
0200
0000
0300
0000
0010
0000
0100
0001
,
0000
0020
0130
2000
,
3001
1000
1000
1000
,
1001
0001
0001
0001
,
1001
0100
1001
0010
,
1001
0000
0000
0001
0100
0010
1000
0100
,
0010
0011
1100
0011
,
1100
0101
1010
0101
,
1010
1001
1001
0110
,
0110
0000
0001
0001
1000
0000
1000
1000
,
0001
0000
1000
0100
0001
0100
1000
0000
,
1001
0000
0001
0100
1000
0100
0001
0000
,
1001
0000
0001
0010
1000
0010
0001
0000
,
1001
0000
0001
0001
0001
0000
1000
1000
,
1000
0000
0001
0000
0100
0000
0010
1000
,
0200
0000
0300
0000
0010
0000
0001
0100
,
0020
0000
0030
0000
0100
0000
0010
1000
,
0001
2000
0000
0000
0000
0000
3100
0000
,
0010
0000
0001
0000
0010
0000
0100
1000
,
0002
0000
0103
0000
0010
0000
1000
0010
,
0200
0000
0310
0000
1000
0000
0001
2000
,
0000
0000
3000
0100
1000
0010
0100
0001
,
0010
2200
0000
0000
,
0000
0000
0000
0000
,
0000
3300
0000
0000
;

//--------------- dance-single - Pandemonium X ----------------
#NOTES:
     dance-single:
     Pandemonium X:
     Medium:
     12:
     0,0,0,0,0:
0000
0000
0000
0000
,
0000
0000
0000
0000
,
0000
0000
0000
0000
,
0000
0000
0000
0000
,
0001
0100
0010
1000
1001
0000
1001
0000
,
1000
0000
0000
0000
0100
0000
0000
0000
0010
0000
0000
0010
0000
0000
0010
0000
,
0100
0000
0000
0000
1000
0000
0000
0000
0001
0000
0000
0001
0000
0000
0001
0000
,
1000
0010
1000
0010
0100
0001
0100
0001
,
1001
0001
0100
1000
0100
0001
1000
0000
,
1200
0000
0000
0000
0001
0000
0000
0000
1300
0000
0000
1000
0100
0000
0010
0000
,
0021
0000
0000
0000
0001
0000
0000
0000
1030
0000
0000
0010
0001
0000
0100
0000
,
0120
0000
0000
0000
0001
0000
0000
0000
1000
0000
0000
0031
1000
0000
0000
0000
,
0001
1000
0001
0010
1000
0010
0001
1000
,
1020
0000
0000
0000
0001
0000
0000
0000
1030
0000
0000
0010
1000
0000
0100
0000
,
0210
0000
0001
0000
1000
0000
0301
0100
,
2100
0000
3010
0000
0100
0100
0001
0001
,
0010
0200
2300
3002
,
0103
0000
0000
0000
0001
0000
0000
0000
0010
0000
0000
0010
0000
0000
0010
0000
,
0100
0000
0000
0100
1000
0000
0010
0000
0100
0000
0000
0010
1000
0000
0001
0000
,
1001
0001
0000
0000
1001
1000
0000
0000
,
1001
0000
0001
1000
0001
0000
1000
0000
0100
0000
0010
0000
0001
0000
1000
0000
,
2002
0000
3003
0000
1010
0000
0101
0000
1010
0000
0101
0000
1010
0000
0001
0010
,
0100
0100
1000
0000
1100
0000
0011
0000
1100
0000
1001
0000
1000
0001
0010
0000
,
0000
0000
0100
0000
1000
1000
0001
0000
1000
1000
0001
0000
1000
0001
0010
0000
,
0100
0000
1000
0000
0001
0001
0200
0000
0000
0000
0000
0000
0000
0000
0020
0000
,
0000
0000
0000
0000
0330
0000
1001
0000
1010
0000
0010
0100
0002
0000
0000
0000
,
0000
0000
0000
0000
0013
0000
0100
0100
1000
0000
0100
0000
1100
0000
0011
0000
,
1001
1010
1001
0000
1001
0000
0101
0000
,
0101
0011
0011
1100
,
1100
0000
1000
0100
1000
0100
0010
0001
,
0010
0001
0010
0100
1000
0100
0001
0100
,
2000
3000
0000
0000
0002
0000
0100
0103
,
0000
0000
0000
0000
0020
0000
1000
1030
,
0000
0000
0000
0000
0002
0000
0010
0013
,
0000
0000
0000
0000
0200
0000
0310
0100
,
1000
0001
0000
0000
2000
0000
0010
3010
,
0000
0000
0000
0000
0200
0000
0001
0301
,
0000
0000
0000
0000
0020
0000
0100
0130
,
0000
0000
0000
0000
0000
0000
1000
0100
0000
0100
1000
0000
0001
0000
0100
0000
,
0010
1000
1001
0000
1000
0000
0100
0000
,
0110
0011
0000
0000
0010
0000
0001
0000
,
0101
0110
0000
0000
0010
0000
1000
0000
,
1010
0210
0000
0000
0000
0000
0310
1000
,
0001
0010
0000
0000
0100
0000
0010
0000
,
0110
0011
0000
0000
0001
0000
0100
0000
,
1010
1100
0000
0000
1000
0000
0100
0000
,
1001
0101
0001
0000
0000
0000
1000
0000
,
0000
0000
0001
0001
1000
1000
0001
0000
,
1001
0000
1000
1000
0001
0001
1000
0000
,
1001
0000
0001
0100
0010
1000
0001
0100
,
0010
1000
0000
0001
0100
1000
0100
0001
,
1000
1200
0001
1300
,
1001
1020
0001
1030
,
1001
1200
0001
1000
,
0301
0000
0000
0000
1000
0000
1000
0000
0001
0000
0001
0000
0100
0000
0100
0010
,
0000
0100
0010
0000
1000
0000
0001
0000
0010
0000
0100
0000
2000
0000
0000
0000
,
3010
0000
0100
0010
1000
0001
0020
0000
,
0130
0000
0010
0001
0100
0001
2000
0000
,
3100
0000
0000
0000
1001
0000
1000
0001
1000
0000
0000
0000
0101
0000
0000
1010
,
0000
1100
0011
0000
1001
0000
1010
1000
,
0200
0000
0310
0000
0011
0000
1100
0100
,
0020
0000
0031
0000
0101
0000
0110
0010
,
2000
0002
0000
0000
3003
0000
1000
0100
,
0001
0100
1000
0000
2100
0000
3010
0100
,
0101
0000
0011
0000
1200
0000
0310
0001
,
1002
0000
0103
0000
1010
0000
0010
0100
,
0002
0000
1003
0100
0001
0100
1000
0010
,
0100
2002
0000
0000
,
0000
0000
0000
0000
,
0000
3003
0000
0000
;

//--------------- dance-single - Pandemonium X ----------------
#NOTES:
     dance-single:
     Pandemonium X:
     Hard:
     14:
     0,0,0,0,0:
0000
0000
0000
0000
,
0000
0000
0000
0000
,
0000
0000
0000
0000
,
0000
0000
0000
0000
0001
0100
1000
0000
,
0100
0010
1000
0001
0010
1000
0010
0001
,
1000
0000
0000
0000
0001
0000
0000
0000
0100
0000
0000
0010
1000
0000
0001
0000
,
1000
0000
0000
0000
0100
0000
0000
0000
0010
0000
0000
0001
0010
0000
0100
0000
,
1000
0000
1000
0000
0001
0000
0001
0000
0100
0010
0100
0010
0100
0010
0100
0010
,
0100
0000
0000
0000
,
0001
0000
0100
0000
0010
0000
1000
0000
0001
0000
0010
0001
0000
0200
0000
0000
,
0310
0000
1000
0000
0001
0000
0010
0000
0100
0000
1000
0100
0000
0020
0000
0000
,
0031
0000
0100
0000
0010
0000
1000
0000
0001
0000
0001
0010
0000
0200
0000
0000
,
0310
0001
0100
1000
0100
0001
0100
1000
,
0100
0000
0010
0000
1000
0000
0001
0000
0010
0000
0100
1000
0000
0200
0000
0000
,
0310
0000
0001
0000
0100
0000
0001
0000
1000
0000
0100
0010
0000
0200
0000
0000
,
2300
0000
3200
0000
0320
0031
0020
0130
,
1100
0200
0320
0032
,
1003
0000
0000
0000
0001
0000
0000
0000
0100
0000
0000
0010
0000
0000
1000
0000
,
0001
0000
0000
0010
0100
0000
1000
0000
0001
0000
0000
0100
0010
0000
1000
0000
,
1100
0011
0000
0000
0101
1010
0000
0000
,
1001
0000
0001
1000
0001
0000
1000
0000
0100
0000
0010
0000
0001
0000
0100
0000
,
2002
0000
3003
0000
0101
0000
0011
0000
0101
0000
0011
0000
0101
0000
0001
0100
,
0010
1000
0100
0000
1100
0000
1010
0000
1100
0000
1010
0000
1100
0000
1001
0000
,
0001
0000
0000
0000
0100
0000
0000
0000
0010
1000
0010
0000
0100
0000
0000
0000
0001
0100
0001
0000
0010
0000
0000
0000
0100
0000
0100
0000
1000
0000
0000
0000
,
0001
0000
0000
0000
0100
0000
0000
0000
0010
0100
0010
0000
2000
0000
0000
0000
0000
0000
0000
0000
0000
0000
0000
0000
0000
0000
0000
0000
3002
0000
0000
0000
,
0000
0000
0000
0000
0000
0000
1003
0010
0101
0000
0001
0100
0020
0000
1000
0000
,
0100
0000
1030
0000
0100
0010
0001
0001
1001
0000
0001
0000
2100
0000
3010
0000
,
0102
0013
0100
1000
0100
1000
0001
0100
,
0001
0100
0010
1000
0010
1000
0001
0100
,
0001
0100
0010
0010
0100
0100
0001
0001
,
1000
0000
1000
0000
0001
0000
0100
0000
0010
0000
1000
0000
0001
1000
0001
1000
,
0001
0000
0000
0000
2000
0000
0100
0200
,
0000
0000
3300
0000
0020
0000
0001
0002
,
0000
0000
0033
0000
0200
0000
0010
0020
,
0000
0000
0330
0000
1001
0000
0001
0010
,
1000
0010
0001
0000
0200
0000
0010
0020
,
0300
0000
0130
0000
0002
0000
1000
2000
,
0003
0000
3001
0000
0020
0000
0100
0200
,
0030
0000
0000
0000
0310
0000
0001
0010
0000
0100
1000
0000
1001
0000
0010
0000
,
1001
0100
1001
0000
0001
0000
0100
0010
,
1010
0101
0000
0000
0001
0000
0010
0001
,
0011
1100
0000
0000
0100
0000
1000
0010
,
1010
0202
0000
0000
0000
0303
1001
0001
,
1001
1000
0001
0000
0100
0000
0010
1000
,
1100
0110
0100
0000
1000
0000
0010
0100
,
0110
0101
0001
0000
0010
0000
0100
0010
,
0011
1100
0100
0010
0001
0010
0200
0000
,
1000
0000
0000
0000
0310
0000
0010
0000
0001
0000
0100
0000
0010
0000
0000
1000
,
0001
0000
0100
0000
0010
0000
0010
0000
0100
0000
0001
0000
1000
0000
0000
0100
,
0010
0000
0100
0000
1000
0000
1000
0000
0001
0000
0001
0000
0100
0010
0100
0010
,
0100
0010
0100
0010
0100
0000
0000
0000
0000
0000
0000
0000
0000
0000
0000
0000
,
0000
0000
0000
0000
0001
0000
0100
0000
1000
0000
0100
0000
0001
0000
0001
0100
,
0000
0010
1000
0000
0001
0000
0010
0000
1000
0000
0010
0000
0001
0000
1000
0100
,
0000
0010
0001
0000
0100
0000
1000
0000
0100
0000
0001
0000
0100
0000
0010
1000
,
0000
0010
0100
0000
1001
0000
1000
0100
0010
0000
0010
0001
0100
0000
0010
0200
,
0000
0000
0000
0000
0301
0000
1000
0000
1000
0000
1000
0000
1000
0000
0001
0010
,
0000
0100
1000
0000
0001
0000
0001
0000
0001
0000
0001
0000
0001
0000
1000
0100
,
0000
0010
0001
0000
1000
0000
0010
0000
0010
0000
0010
0000
0010
0000
0100
0010
,
0000
1000
0001
0000
1001
0000
0010
0100
0010
0000
0000
0000
1001
0000
0000
1001
,
0000
0000
1001
0000
0101
0000
0000
0000
1010
0000
0000
1000
0001
0000
0010
0000
,
0200
0000
0000
0000
1300
0000
0000
0000
1100
0000
0000
0100
1000
0000
0001
0000
,
0200
0000
0000
0000
0310
0000
0000
0000
0101
0000
0000
0001
0010
0000
0100
0000
,
1000
0100
0110
0011
0000
0000
0110
1100
,
1000
0001
1000
0000
0101
0000
0000
0010
1000
0000
0000
0001
0100
0000
0001
0000
,
0020
0000
0000
0130
1000
0000
0000
0100
0010
0000
0000
0100
1000
0000
0001
0000
,
0200
0000
0000
0000
0310
0000
0000
1000
0010
0000
0000
0100
0001
0000
0010
0000
,
0100
0000
1000
0001
0100
1000
0010
0001
,
1000
2002
0000
0000
,
0000
0000
0000
0000
,
0000
3003
0000
0000
;

//--------------- dance-single - Pandemonium X ----------------
#NOTES:
     dance-single:
     Pandemonium X:
     Challenge:
     16:
     0,0,0,0,0:
0000
0000
0000
0000
,
0000
0000
0000
0000
,
0000
0000
0000
0000
,
0000
0000
0000
0000
1000
1200
0310
0000
,
0110
1000
0001
0010
0100
0000
0100
0000
,
2001
0000
0000
0000
0010
0000
0000
0000
3001
0000
0000
0001
0100
0000
0010
0000
,
1002
0000
0000
0000
0100
0000
0000
0000
1003
0000
0000
1000
0100
0000
1000
0000
,
0010
0000
0100
0000
0001
0000
1000
0000
0001
0100
0001
0100
0010
1000
0010
1000
,
0001
0200
2300
3020
0032
1003
1001
0000
,
0101
0000
0000
0000
1001
0000
0001
0000
0101
0000
0000
0001
0010
0000
0100
0000
,
0110
0000
0000
0000
1100
0000
0100
0000
0110
0000
0000
1000
0100
0000
0010
0000
,
0011
0000
0000
0000
0110
0000
0100
0000
1100
0000
0000
1000
0001
0000
0010
0000
,
0100
0010
0001
0002
1000
2003
3020
0130
,
0101
0000
0001
0000
0011
0000
0010
0000
0110
0000
0000
0100
1000
0000
0010
0000
,
1010
0000
0010
0000
0110
0000
0100
0000
0101
0000
0000
1000
0001
0000
0010
0000
,
0110
0000
0011
0000
1200
0320
0032
0203
,
0320
0000
0230
0000
0302
0000
2000
3003
,
1001
0000
0000
0000
1001
0000
0000
0000
1001
0000
0000
1010
0000
0000
0110
0000
,
1001
0000
0000
0001
0010
0000
0100
0000
1100
0000
0000
1000
0100
0000
0010
0000
,
0021
0130
0000
0000
1020
0130
0000
0000
,
1001
0000
0001
1000
0001
0000
2000
0000
3002
0000
0203
0000
2300
0000
3020
0000
,
0032
0000
0000
0000
0000
0000
0000
0000
0003
0000
0000
0000
0000
0000
0000
0000
0102
0000
0000
0000
0000
0000
0010
0003
0002
0000
0000
0000
0000
0000
0100
0003
0002
0000
0000
0000
0000
0000
0010
0003
0002
0000
0000
0000
0000
0000
0100
0003
0002
0000
0000
0000
0000
0000
0000
0000
2003
0000
0000
0000
3200
0000
0000
0000
,
0320
0000
0000
0000
0000
0000
0000
0000
0000
0030
0000
0000
0020
0000
0000
0000
0000
0000
0030
0000
0000
0000
0000
0000
1001
0000
0000
0000
0000
0000
0000
0000
0000
0000
0000
0000
0000
0000
0000
0000
0000
0000
0000
0000
0000
0000
0000
0000
2100
0000
0000
0000
0000
0000
0000
0000
0000
0000
0000
0000
0000
0000
0000
0000
0000
0000
0010
0000
3000
0000
0000
0000
2000
0000
0000
0000
0000
0000
0000
0000
0000
0000
0000
0000
0000
0000
0000
0000
0000
0000
0100
0000
3000
0000
0000
0000
2000
0000
0000
0000
0000
0000
0000
0000
0000
0000
0000
0000
0000
0000
0000
0000
0000
0000
0000
0000
0000
0000
0000
0000
3020
0000
0000
0000
0000
0000
0000
0000
0000
0000
0000
0000
0032
0000
0000
0000
0000
0000
0000
0000
0000
0000
0000
0000
0023
0000
0000
0000
0000
0000
0000
0000
0000
0000
0000
0000
0230
0000
0000
0000
0000
0000
0000
0000
0000
0000
0000
0000
0302
0000
0000
0000
0000
0000
0000
0000
0000
0000
0000
0000
0000
0000
0000
0000
0000
0000
0000
0000
0000
0000
0000
0000
,
0203
0000
0000
0000
0310
0000
0000
0000
1000
0100
0001
0000
0201
0000
0000
0000
0301
0100
1000
0000
1100
0000
1000
0000
0001
0000
0001
0000
1001
0000
2000
0000
,
3001
0000
0010
0000
1001
0000
0000
0000
1000
0010
0001
0000
0021
0000
0000
0000
0000
0000
0000
0000
0000
0000
0000
0000
0000
0000
0000
0000
0200
0000
0000
0000
,
0000
0000
0000
0000
0000
0000
0000
0000
0000
0000
0000
0000
0000
0000
0000
0000
0000
0000
0000
0000
0000
0000
0000
0000
0000
0000
0000
0000
0000
0000
0000
0000
0000
0000
0000
0000
0000
0000
0000
0000
0000
0000
0000
0000
0000
0000
0000
0000
0000
0000
0000
0000
0000
0000
0000
0000
0000
0000
0000
0000
0000
0000
0000
0000
0000
0000
0000
0000
0000
0330
0000
0000
2002
0000
0000
0000
0000
0000
0000
0000
0000
0000
0000
0000
0000
0000
0000
0000
0000
0000
0000
0000
0000
0000
3003
0000
0110
0000
0000
0000
0000
0000
0000
0000
0000
0000
0000
0000
0000
0000
0000
0000
0000
0000
0000
0000
0000
0000
0000
0000
0001
0000
0000
0000
0000
0000
0000
0000
0000
0000
0000
0000
1000
0000
0000
0000
0000
0000
0000
0000
0000
0000
0000
0000
0040
0000
0000
0000
0000
0000
0400
0000
0000
0000
0000
0000
0000
0000
0000
0000
0000
0000
0000
0000
0000
0000
0000
0000
0000
0000
0000
0000
0000
0000
0000
0000
0000
0000
0000
0000
0000
0000
0000
0000
0000
0000
0000
0000
0000
0000
0000
0000
,
0000
0000
0000
0000
0000
0000
0000
0000
0000
0000
0000
0000
0000
0000
0000
0000
0000
0000
0330
0000
0000
0000
0000
0000
2001
0000
0000
0000
0000
0000
3200
0000
0000
0000
0000
0000
0320
0000
0000
0000
0030
0000
0020
0000
0000
0030
0000
0000
1001
0000
0000
0000
0000
0000
0000
0000
0000
0000
0000
0000
0001
0000
0000
0000
0000
0000
1000
0000
0000
0000
0000
0000
0002
0000
0000
0000
0000
0000
0000
0000
0000
0000
0000
0000
0203
0000
0000
0000
0000
0000
0000
0000
0000
0000
0000
0000
,
0320
1030
2001
3010
1002
0013
2001
3100
,
1002
0103
2100
3100
0210
0310
0021
0031
,
2000
3002
2003
3200
0302
0023
2030
3200
,
0302
0000
0023
0000
1030
0001
1000
0001
0100
0010
0100
0010
1000
0010
1000
0001
,
0040
0030
0000
0000
0200
0000
1300
1100
,
0000
0000
0000
0000
0002
0000
0013
0011
,
0000
0000
0000
0000
2000
0000
3001
1001
,
0000
0000
0000
0000
0201
0000
0301
0010
,
1000
0010
0001
0000
0020
0000
0130
2100
,
0000
0000
3100
0000
2000
0000
3010
0120
,
0000
0000
0130
0000
0002
0000
1003
1002
,
0000
0000
0000
0000
1003
0000
0001
0010
0000
0010
0100
0000
0110
0000
1100
0000
,
0011
1100
1001
0000
1100
0000
0001
1000
,
0101
0011
0000
0000
0110
0000
0100
1000
,
0011
1001
0000
0000
0100
0000
0010
1000
,
1010
0000
2001
0000
0000
0000
0000
0000
3100
0010
0000
0010
0100
0000
1100
0000
,
0101
1010
1001
0000
0101
0000
0100
0010
,
1001
0011
0000
0000
1001
0000
0001
0100
,
1010
0101
0000
0000
0001
0000
1000
0100
,
0110
0011
0020
0000
0000
0000
0032
0000
,
0000
0000
0000
0000
2003
0000
3010
0000
0002
0000
0013
0000
1001
0000
0000
0010
,
0100
0000
0001
0000
2000
0000
3100
0000
0002
0000
0103
0000
1001
0000
0000
1000
,
0001
0000
0000
0000
0021
0000
0130
0000
1020
0000
0130
0000
0001
0100
0001
1000
,
0100
0010
0100
1000
0001
0000
0200
0000
2300
0000
3020
0000
0032
0000
2003
0000
,
3001
0000
0000
0000
0101
0000
0100
0000
0110
0000
0010
0000
1010
0000
1000
0010
,
0000
0010
0100
0000
0110
0000
0100
0000
0101
0000
0001
0000
0011
0000
0010
0100
,
0000
0100
1000
0000
1100
0000
1000
0000
1010
0000
0010
0000
0110
0000
0100
0001
,
0000
0001
0010
0000
0210
0000
2300
0000
3020
0000
0230
0000
0301
0000
1000
0020
,
0000
0000
0030
0000
0110
0000
0100
0000
0101
0000
0001
0000
0011
0000
0001
0100
,
0000
0010
1000
0000
1001
0000
0001
0000
1001
0000
1000
0000
1001
0000
1000
0010
,
0000
0100
0001
0000
1000
0000
0001
0100
0010
0000
0100
0001
1000
0000
0001
0010
,
0000
0100
1000
0000
1001
0000
0001
1000
1001
0000
0000
0000
0011
0000
0000
1001
,
0000
0000
0011
0000
1001
0000
0000
0001
0200
0000
0000
1300
0200
0000
0302
0000
,
2000
0000
3003
0000
1001
0000
0000
0001
0020
0000
0000
1030
0020
0000
0032
0000
,
2000
0000
3003
0000
1001
0000
0000
1000
0020
0000
0000
0031
0020
0000
2030
0000
,
3002
1003
1100
0110
0000
0000
0110
0011
,
0001
1000
0001
0000
0101
0000
0000
1000
0020
0000
0000
0031
0020
0000
2030
0000
,
0002
0000
3003
0000
1001
0000
0000
1000
0200
0000
0000
0301
0200
0000
2300
0000
,
0002
0000
3003
0000
1001
0000
0000
0001
0200
0000
0000
1300
0200
0000
0302
0000
,
2003
3001
1000
0002
0203
2300
3020
0032
,
2000
0000
3003
0000
0040
0400
0000
0000
0000
0000
0000
0000
0000
0000
0000
0000
,
0000
0000
0000
0000
,
0000
0330
0000
0000
;
