#TITLE:LOCUS OF THE TRAVEL;
#ARTIST:CANVAS feat. Quimär & BEMANI Sound Team "L.E.D.-G";
#ARTISTTRANSLIT:CANVAS feat. Quimär & L.E.D.-G;
#BANNER:LOCUS OF THE TRAVEL.png;
#BACKGROUND:LOCUS OF THE TRAVEL-bg.png;
#JACKET:LOCUS OF THE TRAVEL-jacket.png;
#CDTITLE:./CDTITLES/BEATMANIA IIDX.PNG;
#MUSIC:LOCUS OF THE TRAVEL.ogg;
#SAMPLESTART:11.868;
#SAMPLELENGTH:15;
#BPMS:0=182;

//---------------dance-single - t7r/forced----------------
#NOTES:
     dance-single:
     t7r/forced:
     Beginner:
     5:
     :
0000
0000
0000
0000
,
0000
0000
0000
0000
,
0000
0000
0000
0000
,
0000
0000
0000
0000
,
0000
0000
0000
0000
,
0100
0000
0000
0000
,
0010
0000
0000
0000
,
1000
0000
1000
0000
,
0001
0000
0000
0000
,
1000
0000
0000
0000
,
0100
0000
0000
0000
,
0010
0000
0000
0000
,
0001
0000
0001
0000
,
0100
0000
0000
0000
,
0010
0000
0000
0000
,
1000
0000
1000
0000
,
1000
0000
0000
0000
,
0001
0000
0000
0000
,
0010
0000
0000
0000
,
0001
0000
0000
0000
,
0100
0000
0100
0000
,
0010
0000
0000
0000
,
1000
0000
0000
0000
,
0001
0000
0000
0000
,
0010
0000
0000
0000
,
0100
0000
0100
0000
,
0100
0100
0100
0000
,
1000
0000
1000
0000
,
1000
1000
1000
0000
,
0001
0000
0001
0000
,
0001
0001
0001
0000
,
0100
0000
0100
0000
,
0100
0100
0100
0000
,
0010
0000
0010
0010
,
0010
0000
0010
0000
,
1000
0000
1000
1000
,
1000
0000
1000
0000
,
0001
0000
0001
0001
,
0001
0000
0001
0000
,
0010
0000
0010
0010
,
0010
0000
0000
0000
,
1001
0000
0000
0000
,
0000
0000
0000
0000
,
0100
0000
0000
0000
,
0000
0000
0000
0000
,
0010
0000
0000
0000
,
0000
0000
0000
0000
,
1000
0000
0000
0000
,
0000
0000
0000
0000
,
0110
0000
0000
0000
,
0001
0000
0100
0000
,
0001
0000
0000
0000
,
1000
0000
0100
0000
,
1000
0000
0000
0000
,
0010
0000
0100
0000
,
2002
0000
0000
0000
,
3003
0000
0000
0000
,
1000
1000
0000
1000
,
0000
1000
1000
0000
,
0001
0001
0001
0000
,
0001
0000
0001
0000
,
0110
0000
0000
0000
,
1001
0000
0010
0100
,
0010
0000
1000
0000
,
0001
0010
0001
0010
,
0200
0000
0000
0000
,
0000
0000
0000
0000
,
2300
0000
0000
0000
,
3002
0000
0000
0000
,
0103
0000
0010
1000
,
0010
0000
0100
0000
,
0001
0000
0010
0000
,
0001
0000
0000
0000
,
1000
0000
0010
0000
,
1000
0000
0100
0000
,
0010
0000
0001
0000
,
0100
0000
0010
0000
,
1000
0000
0000
0000
,
1001
0000
0010
0000
,
0110
0000
0100
0000
,
1001
0000
0001
0000
,
0100
0000
0001
0000
,
1000
0100
1000
0000
,
0001
0100
0001
0000
,
0010
0100
0010
0000
,
0002
0000
1000
0000
,
0013
0000
0000
0000
,
0001
0000
0100
0000
,
0001
0000
1000
0000
,
0001
0000
0010
0000
,
0100
0000
0000
0000
;

//---------------dance-single - forced/Pandy----------------
#NOTES:
     dance-single:
     forced/Pandy:
     Easy:
     9:
     :
0000
0000
0000
0000
,
0000
0000
0000
0000
,
0000
0000
0000
0000
,
0000
0000
0000
0000
,
0000
0000
0000
0000
,
1001
0000
0000
0000
,
0110
0000
0000
0000
,
1001
0000
0110
0000
,
2002
3003
1000
0001
,
0101
0000
1000
0010
,
0100
0000
0001
0000
0010
0000
0000
0200
,
0000
1000
1300
0100
,
0010
0000
0001
1000
0000
0010
0000
0000
,
1010
0000
1000
0001
,
0010
0100
1000
0001
,
0101
0000
0010
1000
,
1100
0000
0000
0000
0001
0010
0001
0000
,
0100
0010
1000
0001
,
0010
0000
0100
0000
1000
0010
0000
0200
,
0000
0001
0301
0100
,
0010
0000
1000
0001
0000
0010
0000
0000
,
0011
0001
0100
0001
,
1010
1000
0100
1000
,
0201
0010
0001
0310
,
1000
0001
0000
0010
0000
0100
0000
0000
,
1000
0010
1000
0100
,
1000
0010
0100
0001
,
0010
0001
0100
0001
,
0010
0000
0100
0000
1000
0001
1000
0000
,
0010
0100
0001
0100
,
0010
0100
0001
1000
,
0100
0010
0100
1000
,
0100
0010
0000
0010
0002
0000
0003
0000
,
1000
0001
0100
0001
,
1000
0100
1000
0001
,
1001
1000
0010
0100
,
0001
0000
0010
0000
0100
0010
0100
0000
,
1000
0000
0100
0000
1000
0000
0001
0100
,
0001
0100
0001
1000
,
0110
0001
0110
1000
,
2002
3003
1000
0100
,
0020
0000
0000
0000
,
0031
0000
0100
0000
,
0020
0000
0000
1030
,
0001
0000
0010
0100
,
2000
0000
0000
3001
,
0200
0000
0320
0000
,
2030
0000
0000
3001
,
2000
0000
0000
3001
0000
0000
0100
0000
,
0001
0100
0020
0000
,
0130
0001
1000
0100
,
1000
0001
0020
0000
,
0031
1000
0010
1000
,
0001
1000
0020
0000
,
1030
0000
0001
0000
0100
0000
0000
2002
,
0000
0000
0000
0000
,
3003
0000
0000
0000
,
0001
0000
0000
1001
0000
0000
1000
0000
,
0001
0000
0000
0011
0000
0000
0000
0000
,
0000
0010
0001
0000
0100
0000
0010
0000
,
1000
0001
0010
0100
,
1000
0000
0000
0011
0000
0000
0001
0000
,
0100
0000
0000
1010
0000
0000
0000
0000
,
1001
0000
0101
0000
,
0110
1010
1001
0011
,
1010
0000
0000
0000
,
0000
0001
0000
0001
0000
0001
0000
0001
,
0000
0100
0010
0000
1000
0000
0001
0000
,
0010
0100
1000
0001
,
1001
0000
0000
0000
0001
1000
0010
0000
,
0101
0001
0100
0010
,
1010
0000
0001
0000
0010
0100
0000
2200
,
0000
0000
3300
0100
,
1000
0000
0000
0001
0000
0001
0000
0000
,
0101
0001
0010
0100
,
1100
0100
1000
0010
,
0110
0100
0010
1000
,
1001
0000
0000
0000
0001
0100
0010
0000
,
0110
0000
0110
0000
0001
1000
0000
1000
,
1001
0000
1010
0000
0001
0010
0100
2000
,
0000
0000
3000
0001
,
1000
0000
0000
0010
0000
1000
0000
0000
,
1001
0000
1001
0000
0001
1000
0010
0000
,
1001
0000
1001
0000
1000
0001
0100
0010
,
0220
0000
0000
0030
,
0302
0000
0000
1003
,
0200
0000
0000
0320
0000
0000
0000
0000
,
0230
2300
3020
0230
,
0302
0000
0000
2003
0000
0000
0000
0000
,
3002
0000
0000
1003
0010
0100
0001
0010
,
0100
0000
0000
0000
;

//---------------dance-single - Pandy/t7r----------------
#NOTES:
     dance-single:
     Pandy/t7r:
     Medium:
     13:
     :
0000
0000
0000
0000
,
0000
0000
0000
0000
,
0000
0000
0000
0000
,
0000
0000
0000
0000
,
0000
0000
0000
0000
,
1001
1000
0010
1000
,
1001
0001
0010
0001
,
1001
0000
0001
0000
0100
0000
0100
0000
0001
0000
0000
0010
0000
0000
0100
0000
,
0010
0000
0001
1000
0001
0000
0000
0000
1000
0000
1000
0000
1000
0000
0000
0000
,
0201
0000
0300
0001
0100
0010
0000
1000
,
2100
0000
3000
0001
0001
1000
0000
0220
,
0000
0000
0000
0000
0330
0000
0001
0100
,
0010
0000
0000
0000
1000
0000
0002
0000
0000
0000
0023
0000
0000
0030
0000
0000
,
1200
0000
0300
0010
0001
1000
0000
0001
,
0102
0000
0000
0013
0100
1000
0000
0001
,
2000
0000
0000
3100
0010
0001
0000
1000
,
1002
0000
0000
0000
0000
0000
1003
0000
0001
1000
0001
1000
0001
0000
0000
0000
,
0201
0000
0300
0010
1000
0100
0000
0010
,
0120
0000
0030
0100
0010
0001
0000
2200
,
0000
0000
0000
0000
3300
0000
0100
1000
,
0010
0000
0100
0020
0000
2030
0000
3000
,
1002
0000
0003
1000
0100
0001
0000
0100
,
2100
0000
0000
3010
0100
0001
0000
1000
,
2002
0000
0000
3003
,
0001
1000
0000
0001
1000
1000
1000
0001
,
0100
0010
1000
0100
0000
0010
0100
1000
,
0001
0100
0001
0020
0000
0000
0030
0000
,
0000
0000
0100
0000
0100
0000
0100
0000
0010
0000
0000
0001
0000
0000
0101
0000
,
0000
0000
0010
0000
1000
0000
1000
0000
0001
0000
0000
1000
0000
0000
0010
0000
,
0100
0001
0010
0001
0000
1000
0001
1000
,
0100
0010
0100
2000
0000
0000
3000
0000
,
0000
0000
0001
0000
0001
0000
0001
0000
0010
0000
0000
0100
0000
0000
1001
0000
,
1000
0000
0110
0001
0001
1000
1000
1000
,
0100
0010
0100
1000
0010
0100
0001
0020
,
0000
0000
0000
0130
1000
0001
1000
0010
,
0100
0000
0001
0000
0001
0000
0001
0000
1000
0000
0000
0001
0000
0000
0010
0000
,
0000
0100
1000
1000
0100
0010
1001
0000
,
0001
0100
0100
0110
0000
0010
1000
0001
,
0010
0010
0100
1200
0000
0000
0000
0000
,
0000
0000
0310
0000
0010
0000
0010
0000
0100
0000
0000
1000
0000
0000
0001
0000
,
2001
0000
0000
3200
0000
0000
0320
0000
0032
0000
0000
0000
1003
0000
0000
0000
,
0102
0000
0000
2003
0000
0000
3002
0000
,
0000
0000
0023
0000
,
0230
0000
0000
0000
0000
0000
0310
0001
,
0200
0000
0320
1030
,
0002
0000
0000
0000
0000
1003
0001
0001
,
2000
0000
3200
0000
,
2300
0000
3000
1000
,
0020
0000
0000
0230
0000
0000
0301
0001
,
1000
0100
0010
0100
2000
0000
3001
1000
,
0001
0100
0010
0100
0001
1000
0010
0100
,
0001
0010
0100
0010
0002
0000
1003
0001
,
1000
0010
0100
0010
1000
0100
0010
0001
,
1000
0100
0001
0100
2000
0000
3001
1000
,
0001
0100
1000
0100
0001
0010
0100
0020
,
0000
0000
0000
0000
,
0031
0100
0100
0010
0010
1000
0001
1000
,
0001
0010
0100
1000
0000
1000
0001
0001
,
0100
0010
1000
0010
0200
0000
0000
0000
,
0301
0000
1000
0000
1000
0000
1000
0000
0100
0000
0000
0010
0000
0000
0001
0000
,
0000
0000
1000
0000
0010
0000
0001
0000
0010
0000
0000
1000
0000
0000
0000
0000
,
0002
0000
0100
0000
1000
0000
0013
0001
,
2001
0000
0000
0100
0000
0000
3001
0000
0000
1000
0001
0100
,
0001
0000
0100
0000
0100
0000
0100
0000
0010
0000
0000
1000
0000
0000
0001
0000
,
0000
0000
0000
0010
0000
0000
1000
0000
0010
0000
0100
0000
0010
0000
0001
0000
,
2000
0000
0010
0000
,
0000
0000
0000
0100
0000
0100
0000
3100
,
0100
0000
0000
0000
0100
0000
0000
0000
0010
0000
0000
0010
0000
0000
0010
0000
,
0001
0000
0000
0001
0000
0000
0001
0000
1000
0000
0010
0000
1000
0000
0001
0000
,
0200
0000
0310
1000
0100
0010
0001
0100
,
0010
0000
0100
0001
1000
0100
0000
0010
,
0002
0000
0103
0010
1000
0100
0000
2000
,
0010
0000
0001
0000
3100
0000
1000
0010
,
0200
0000
0301
0020
0000
0230
0000
0300
,
2000
0000
3001
0100
0010
0100
0001
0010
,
0200
0000
1300
0010
1000
0002
0000
0013
,
0001
0000
1000
0010
0100
0001
1000
0001
,
0100
0100
0000
0110
0010
1000
1001
0000
,
0001
0010
1000
0010
0001
0010
1000
0010
,
0001
0100
1000
0100
0001
0100
0010
0200
,
1000
0000
0010
0000
0301
0000
1000
0100
,
0002
0000
1003
0020
0000
0130
0000
0000
,
1000
0010
0001
0010
1000
0010
0100
0001
,
1000
0100
0001
0100
1000
0200
0000
0310
,
0001
0001
0100
0100
0010
0010
1000
1000
,
0020
0000
0001
0000
0130
0100
0002
0000
,
2003
0000
0100
3002
0100
0000
1000
0000
,
0013
0010
0001
0001
0100
0100
0020
0000
,
1030
1000
0100
0100
0010
0010
0001
0001
,
1000
0000
0010
0000
0100
0000
0001
0000
0010
0000
0100
1000
0100
0000
1000
0000
,
1001
0000
0000
0000
;

//---------------dance-single - forced/t7r/Pandy----------------
#NOTES:
     dance-single:
     forced/t7r/Pandy:
     Hard:
     16:
     :
0000
0000
0000
0000
,
0000
0000
0000
0000
,
0000
0000
0000
0000
,
0000
0000
0000
0000
,
0000
0000
0000
0000
,
2100
0001
0010
3001
,
0102
1000
0010
1003
,
2010
3100
0012
0103
,
2002
0000
0000
0000
3003
0000
1000
0000
0100
0010
0100
0010
0001
0000
1000
0010
,
2000
0000
0000
0000
3001
0000
0100
0001
0100
0000
0020
0000
0030
0000
1000
0000
,
0200
0000
0000
0000
0310
0000
0001
0010
0001
0000
1000
0000
0001
0000
0200
0000
,
0010
0000
1000
0000
0310
0000
0100
0001
,
2000
0000
3100
0010
0001
1000
0010
0010
,
0120
0000
0000
0000
0130
0000
0001
1000
0001
0000
0020
0000
0030
0000
0100
0000
,
2000
0000
0000
0000
3010
0000
0100
0001
0100
0000
0020
0000
0000
0000
1030
0000
,
0002
0000
0000
0000
0013
0000
0100
1000
0100
0000
0020
0000
0030
0000
0001
1000
,
0002
0000
0000
0000
0103
0000
0001
0000
0010
0100
0010
0100
1000
0000
0010
0000
,
0210
0000
0000
0000
0301
0000
0010
0001
0010
0000
0200
0000
0300
0000
1000
0000
,
0002
0000
0000
0000
0103
0000
0010
1000
0010
0000
0100
0000
0001
0000
0020
0000
,
0100
0000
1000
0000
0130
0000
0010
0001
,
2000
0000
3010
0100
0001
0010
0100
0100
,
0120
0000
0000
0000
0031
0000
1000
0010
1000
0000
0001
0000
0010
0000
0100
0000
,
2100
0000
0000
0000
3010
0000
0100
0001
0100
0000
0010
0000
1000
0000
0001
0000
,
0021
0100
1000
0100
,
0031
0000
1001
0000
0000
0000
0001
0000
1000
0100
0010
0001
1000
0000
0010
0000
,
0100
1000
0100
0001
0100
0010
1000
0001
,
0010
0000
0100
1000
0100
0000
0020
0000
0001
0000
0000
0000
0130
0000
0100
0000
,
1000
0000
0001
0000
0100
0001
0100
0000
0010
0000
0000
0010
1000
0000
0001
0000
,
0010
0000
0100
0000
1000
0100
1000
0000
0010
0000
0010
0000
0100
0000
0001
1000
,
0010
0001
0010
1000
0010
0100
0001
1000
,
0100
0010
0001
2000
0010
0000
3100
0010
,
0010
0000
0100
0000
1000
0001
1000
0000
0010
0000
0010
0000
0010
0000
0100
0000
,
0001
0000
0000
0001
0010
0000
0100
0000
2200
0000
3300
0000
0000
0000
1000
0000
,
0001
0000
0100
0010
1000
0000
0100
0010
0001
0000
0100
0010
0100
0000
0020
0000
,
1000
0000
0000
0000
0130
0000
0002
0000
0010
0000
0000
0000
1003
0000
0100
0010
,
0001
0000
0010
0000
0001
1000
0001
0000
0100
0000
0001
0010
0000
0001
1000
0000
,
0010
1000
0100
0010
0100
0002
0103
2000
,
3010
0000
0100
0001
1000
0000
0100
1000
0001
0000
0010
0100
0010
0000
0002
0000
,
0100
0000
0000
0000
1003
0000
0020
0000
0001
0000
0000
0000
0130
0000
0010
1000
,
0001
0001
0010
0010
0100
0100
1000
1000
,
0010
0000
0100
0001
1000
0000
0100
0000
0002
0000
0103
0000
0010
0000
0100
0000
,
2000
0000
0000
0010
0000
0000
0001
0000
,
3200
0000
0000
0000
0001
0000
0000
0310
,
0002
0000
0000
0000
0000
0000
0103
0010
,
2000
0000
3001
0010
,
0020
0000
0000
0000
0000
0130
0010
0100
,
2000
0000
3020
0000
,
0230
0000
0000
1300
,
0200
0000
0000
0302
0000
0000
0013
0010
,
0001
0000
0100
0000
1000
0000
0100
0000
0001
1000
0001
0000
1000
0000
1000
0000
,
0001
0000
0010
0000
0100
0000
0001
0000
1000
0000
0010
0100
0010
0000
0001
0000
,
1000
0000
0100
0000
0001
0000
0100
0000
1000
0001
1000
0000
0001
0000
0001
0000
,
1000
0010
0100
1000
0001
0010
0100
0001
,
1000
0000
0010
0000
0001
0000
0010
0000
1000
0000
0001
0100
0001
0000
0010
0000
,
1000
0001
0100
0010
0100
1000
0001
2001
,
0000
0000
0000
0000
,
3001
1000
0001
1000
0001
1000
0001
1000
0001
1000
0001
1000
0001
1000
0001
1000
,
0001
0010
0001
0010
0001
0000
2000
0000
0000
0000
0100
0000
3001
0000
1000
0000
,
0010
0000
0100
0010
0100
0000
0002
0000
0010
0000
0000
0000
0000
0000
0000
0000
,
1003
0100
1000
0100
1000
0000
0010
0000
0001
0000
0000
0010
0000
0000
0100
0000
,
0000
0000
0001
0000
1000
0100
0010
0000
0100
0000
0010
0001
0000
0000
1000
0000
,
0010
0100
0010
0100
0001
1000
0001
1000
,
0100
0000
0000
0010
0000
0000
0100
0000
0000
0010
0000
0000
0001
0000
0000
1000
0000
0000
0001
0000
1000
0000
0001
0000
,
1000
0000
1000
0000
1000
0100
0010
0000
0011
0000
0000
1100
0000
0000
1001
0000
,
0001
0000
0100
0001
0010
0000
0100
1000
0001
0000
1000
0001
0100
0000
0010
1000
,
0200
0000
0000
0000
,
0000
0000
0020
0030
0000
0000
0020
0030
0000
0000
0020
0030
0000
0000
0020
0030
,
0000
0000
0320
0030
0020
0032
2003
3000
0002
0003
0000
2000
3000
0000
0020
0030
,
0200
0300
0000
0200
0300
0000
0200
0300
0020
0000
0000
0000
1030
0000
0001
0000
,
0220
0000
0000
0000
0330
0000
0100
0000
0010
1000
0001
0010
0100
0000
0000
0000
,
1002
0000
0000
0000
0013
0000
0100
1000
0010
0000
0110
0000
0000
0000
1000
0000
,
2001
0000
0000
0000
0000
0000
3001
0010
0100
0000
1100
0000
0000
0000
0201
0000
,
0010
0000
0001
0000
0310
1000
0001
0010
,
1000
0000
1000
0010
0000
0002
0000
0003
,
1010
0000
0000
0000
0101
0000
0001
0010
0100
0000
0010
0000
0001
0000
1000
0000
,
1020
0000
0000
0000
0130
0000
0010
1000
0001
0000
0021
0000
0000
0000
0130
0000
,
2100
0000
0000
0000
3001
0000
1000
0001
0010
0000
0100
0000
0000
0000
0010
0001
,
2000
0000
0000
0000
0100
0000
0000
0000
3010
0100
0010
0100
0010
0000
0000
0000
,
0100
0000
0100
0010
1000
0000
1000
0001
0010
0000
0100
0000
0000
0100
0010
0000
,
0001
0000
0001
0100
0010
0000
0010
1000
0001
0000
1000
0000
1001
0000
0102
0000
,
0100
0000
0100
0000
1003
0000
0100
0010
,
0021
0000
0130
2100
0000
3020
0000
0000
,
0130
0000
0100
0010
1000
0000
0001
0010
0100
0000
1000
0000
0100
0010
0001
0000
,
0001
0000
0001
1000
0010
0000
0010
0100
0001
0000
1000
0000
0000
0000
0010
0000
,
1001
0001
0001
1000
1000
0010
0010
0100
,
2002
0000
0000
0000
0000
0000
3003
0000
0001
0100
0010
1000
0001
0000
0000
0000
,
2000
0000
0000
0002
0000
0000
3003
0000
,
1000
0010
0100
0001
1000
0100
1000
0001
0100
0001
0010
0100
2000
0000
0000
0000
,
3020
0000
0000
0230
0000
0000
0000
0000
,
0310
1000
0010
0100
0001
0100
0001
1000
0001
1000
0100
0010
0001
1000
0010
1000
,
0200
0300
0000
0000
;

//---------------dance-single - Pandy/forced/t7r----------------
#NOTES:
     dance-single:
     Pandy/forced/t7r:
     Challenge:
     18:
     :
0000
0000
0000
0000
,
0000
0000
0000
0000
,
0000
0000
0000
0000
,
0000
0000
0000
0000
,
0000
0000
0000
0000
,
1001
0000
0001
0100
0001
0000
0100
0010
0100
0000
0010
1000
0010
0000
1000
0000
,
1001
0000
1000
0100
1000
0000
0100
0010
0100
0000
0010
0001
0010
0000
0001
0000
,
1001
0000
0001
0000
0001
1000
0010
0000
0100
0000
0001
0010
0000
0100
1000
0000
,
1001
0000
0000
0000
0000
0000
0001
0000
1000
0000
0001
0000
1000
0000
0000
0000
0000
0000
0100
0000
0000
0000
0000
0000
0020
0000
0000
0032
0000
0000
2003
0000
0000
3020
0000
0000
2030
0000
0000
3000
0000
0000
0000
0000
0000
0000
0000
0000
,
0201
0000
0000
0000
0000
0000
0301
0010
0100
0000
1000
0000
0100
0000
0001
0000
,
2100
0000
0000
0000
0000
0000
3001
0010
0001
0000
1000
0000
0010
0000
0120
0000
,
1000
0000
0100
0000
1030
0000
0001
1000
,
2010
0000
3001
0022
0033
2200
0000
3300
,
1002
0000
0000
0000
0103
0000
0010
1000
0001
0000
0011
0000
0010
0000
0100
0000
,
2100
0000
0000
0000
3010
0000
0100
0010
1000
0000
1002
0000
0000
0000
0013
0000
,
0210
0000
0000
0000
1300
0000
0100
0010
0001
0000
2001
0000
0000
0000
3010
0100
,
0002
0000
0000
0000
0010
0000
0000
0000
2003
3020
0230
0302
2003
0000
0000
0000
,
3200
0000
0000
0000
0310
0000
0100
0010
0001
0000
1100
0000
0000
0000
1000
0000
,
0102
0000
0000
0000
0013
0000
0100
0010
0001
0000
1000
0000
0000
0000
0220
0000
,
0000
0000
0000
0000
0330
0000
0100
0001
,
2002
0000
0000
3003
0010
0000
2020
0000
3030
0000
0202
0000
0000
0000
0303
0000
,
0001
0000
0010
0001
0010
0000
0010
0100
0010
0000
0100
0000
1000
0000
0001
0000
,
1000
0000
0010
1000
0010
0000
0010
0100
0010
0000
0100
0000
0001
0000
1000
0000
,
0200
0001
1000
0301
,
1100
0000
1100
0000
0000
0000
0101
0000
0002
0203
0320
2030
3002
0000
1003
0000
,
0100
0000
0010
0001
0100
0000
0010
0100
0001
1000
0001
0010
0100
0000
1000
0000
,
0100
0000
1000
0010
0100
0000
0010
1000
0001
0010
0001
1000
0100
0000
0010
0000
,
0100
0000
1000
0000
1000
0001
0100
0000
0010
0000
0000
1010
0000
0000
0011
0000
,
0010
0000
1000
0000
0010
0001
0100
0000
0101
0000
0000
1010
0000
0000
0101
0000
,
1001
0000
0001
1000
0010
0000
0100
0001
0010
0000
0100
0010
0001
0100
0010
1000
,
0100
0000
0010
0100
1000
0000
0100
1000
0001
0000
0100
0010
1000
0001
0010
0100
,
1000
0000
1000
0000
1000
0100
0010
0000
0011
0000
0000
1010
0000
0000
0011
0000
,
1000
0000
0001
1000
0001
0000
0010
0000
0011
0000
0101
0000
1100
0000
1000
0000
,
0001
0000
0100
0001
1000
0000
0100
1000
0001
0100
0010
1000
0001
0000
0020
0000
,
0100
0000
0100
0000
0031
0000
0010
0001
1000
0001
0100
0010
1000
0000
0001
0010
,
0100
0000
1000
0010
0100
0010
0001
0000
0010
0000
0100
0001
0000
0010
0001
0000
,
1000
0000
0000
0000
0000
0000
0000
0000
0010
0000
0000
0000
1000
0000
0000
0000
0100
0000
0000
0000
0010
0000
0000
0000
0001
0000
0000
0000
0000
0000
0000
0000
0200
0300
0000
0000
0000
0000
0000
0000
0200
0300
0000
0000
0000
0000
0000
0000
1000
0000
0000
0000
0010
0000
0000
0000
1000
0000
0000
0000
0010
0000
0000
0000
,
0100
0000
0001
1000
0100
0000
0010
0001
1000
0001
0100
0010
1000
0000
0200
0000
,
0010
0000
0010
0000
1300
0000
0100
0010
0001
1000
0001
0100
0010
1000
0001
0010
,
0100
0000
1000
0100
1000
0100
0010
0001
0010
0001
1000
0010
0100
0001
0100
0010
,
1000
0100
0001
0100
0010
0001
1000
0010
,
0200
0000
0301
1000
0200
0000
0320
0000
,
1000
0100
0032
1000
,
0203
0000
0010
0010
1000
0000
0310
1000
,
0002
0000
0010
0010
2003
0000
3020
0000
,
0230
0000
0001
0001
0310
0100
0001
1000
,
0200
0001
0320
1000
,
0032
0000
0100
0100
1000
0000
0023
0000
,
0230
0000
0000
0000
0000
0000
2300
0000
0000
0000
0000
0000
3001
0100
0001
0100
,
0010
0000
0001
0000
0010
0000
1000
0000
0001
0010
0001
0010
0100
0000
1000
0000
,
0010
0100
0010
0000
1000
0001
1000
0000
0100
0000
0010
0001
0100
0000
0010
0000
,
0001
0000
0010
1000
0001
1000
0100
1000
0010
0000
0100
0001
1000
0000
0100
0000
,
0010
0000
1000
0000
0010
0001
0010
0000
0100
0000
1000
0000
0010
0000
0100
0000
,
0101
0000
0000
0000
0001
0000
0010
0000
0110
0000
0000
0100
1000
0000
0010
0000
,
1010
0000
0000
0000
1000
0000
0001
0010
0001
0000
1000
0000
0010
0000
0220
0000
,
0000
0000
0000
0330
,
1000
0000
1000
0000
0001
0000
0001
0000
0100
0001
0100
0001
1000
0100
0010
0001
,
0100
0010
0100
0010
1000
0000
1010
0000
0000
0000
0011
0000
0000
0000
1100
0000
,
0000
0000
0001
0100
0001
0000
0010
0000
0011
0000
0000
0000
0000
0000
0000
0000
,
0010
0100
0010
0100
1000
0000
1100
0000
0000
0000
0011
0000
0000
0000
0101
0000
,
0000
0000
0010
0100
0010
0000
0100
0000
0220
0000
0330
0000
1000
0000
0001
0000
,
1000
0001
0100
0020
1000
0130
0001
1000
,
0001
0000
0000
0010
0000
0000
0100
0000
0000
1000
0000
0000
0020
0000
0000
0000
0000
0000
0031
0000
0010
0000
0100
0000
,
0010
0000
1000
0010
1000
0010
1000
0000
0001
0000
0000
1000
0000
0000
0010
0000
,
1000
0000
0000
0001
0100
0010
1000
0000
0000
0100
0010
0001
1000
0000
0000
0010
0100
0001
1000
0000
0000
0100
1000
0001
,
0200
0000
0010
0000
,
0000
0000
0000
0010
0000
0010
0000
0310
,
1000
0000
0100
1000
0100
1000
0001
0000
0100
0000
0001
0100
0010
1000
0001
0000
,
1000
0000
0000
0000
0100
0000
0000
0000
0010
0000
0000
0000
0001
0000
0000
0000
1000
0000
0000
0000
0100
0000
0000
0000
0010
0000
0000
0000
0001
0000
0000
0000
1000
0000
0000
0000
0010
0000
0000
0000
0100
0000
0000
0000
0001
0000
0000
0000
0200
0300
0000
0000
0000
0000
0000
0000
0200
0300
0000
0000
0000
0000
0000
0000
,
1000
0000
0000
0000
1001
0000
1000
0000
0100
1000
0100
1000
0001
0000
0100
0010
,
1000
0000
0100
0000
0010
0000
0100
0001
0100
0000
0010
0000
0100
0000
1000
0000
,
0010
0000
0100
0000
1000
0000
0100
0010
0100
0000
0001
0000
0010
0000
0002
0000
,
0100
0000
1000
0000
0103
0010
1000
0001
,
2000
0010
3001
0100
0010
1000
1010
0010
,
0110
0000
0100
0000
0001
0000
0010
0100
0010
0000
1000
0000
0010
0000
0100
0000
,
1100
0000
0100
0000
1000
0000
0010
1000
0001
0000
2000
0000
0010
0000
3001
0000
,
1001
0000
0001
0000
1000
0000
0100
0010
0001
0000
0100
0000
1000
0000
0100
0010
,
1000
0000
1100
0000
0000
0000
0011
0000
0001
1000
0001
1000
0001
0000
1000
0000
,
1020
0000
0031
0010
0100
0000
0001
0010
0100
0000
1000
0000
0100
0010
0001
0000
,
0201
0000
1300
0100
0010
0000
1000
0100
0010
0000
0001
0000
1000
0000
2001
0000
,
0010
0000
0000
0000
0001
0000
0000
0000
3100
0000
0010
0001
1000
0000
0001
0000
,
1000
0000
0100
1000
0001
0000
0011
0000
0000
0000
1001
0000
1000
0000
0100
0010
,
0001
0000
0100
1000
0100
0000
0010
0100
0010
0000
1000
0000
0100
0001
0100
0000
,
0010
0000
0001
0010
0001
0000
0010
1000
0010
0000
0200
0000
0001
0000
0310
0000
,
0002
0100
0100
0100
1000
0010
0010
0013
,
0001
0100
0010
1000
0001
0100
0010
1000
0001
1000
0001
1000
0020
0000
0000
0000
,
2030
0000
0100
3002
0100
0000
1003
0010
,
1000
0100
0001
0100
1000
0100
0001
0100
1000
0010
0001
0010
2000
0000
0000
0000
,
3002
0000
0100
0000
0100
0000
2003
0000
0100
0000
0100
0000
3001
0000
1000
0001
,
0010
0001
0100
1000
0100
0001
0010
1000
0010
0001
0100
1000
0100
0010
1000
0100
,
0010
0000
0000
0000
;

//---------------dance-double - t7r/Pandy/forced----------------
#NOTES:
     dance-double:
     t7r/Pandy/forced:
     Easy:
     9:
     :
00000000
00000000
00000000
00000000
,
00000000
00000000
00000000
00000000
,
00000000
00000000
00000000
00000000
,
00000000
00000000
00000000
00000000
,
00000000
00000000
00000000
00000000
,
10000000
00100000
01000000
00000000
,
00010000
00100000
00001000
00000000
,
00010000
00000000
00000010
00000000
,
00001000
00000001
00000100
00000000
,
00000001
00000010
00000100
00000000
,
00001000
00000000
00000001
00000000
00000100
00000000
00000000
00000020
,
00000000
00000000
00001030
00000100
,
00010000
00000000
00000000
00001000
00000000
01000000
00000000
00000000
,
00100000
10000000
01000000
00000000
,
00100000
00010000
10000000
00100000
,
01100000
00000000
10000000
01000000
,
00010000
00000000
00001000
00010000
,
00001000
00000100
00000010
00000000
,
00001000
00000000
00000001
00000000
00000010
00000000
00000000
00000200
,
00000000
00000000
00001300
00000001
,
00000010
00000000
00000000
00001000
00000000
00010000
00000000
00000000
,
00100000
10000000
01000000
00000000
,
00100000
00010000
10000000
00000000
,
00100000
00000000
00010000
00000000
,
00001000
00001000
00000000
00010000
00000000
00001000
00010000
00000000
,
00001000
00000000
00001000
00000000
00000010
00000000
00000100
00002000
,
00000000
00000000
00000000
00000002
00000000
00000000
00003003
00000000
,
00000001
00000010
00000100
00001000
,
00010000
01000000
00100000
10000000
,
00010000
00000000
00010000
00000000
00100000
00000000
00010000
20000000
,
00000000
00000000
00000000
00200000
00000000
00000000
30300000
00000000
,
10000000
01000000
01000000
00000000
00100000
00000000
00001000
00000000
,
00010000
00000000
00000010
00000100
,
00000010
00000100
00000001
00001000
,
00000100
00010000
00001000
00020000
00000000
00000000
00030000
00000000
,
00001000
01000000
00100000
10000000
,
01000000
00000000
00010000
00000000
01000000
10000000
11000000
00000000
,
10000000
00010000
00100000
00001000
,
00010000
00000100
00001000
00000020
00000000
00000000
00000030
00000000
,
00000110
00000010
00001100
00000100
,
00010100
00011000
00101000
00110000
,
11000000
00000000
00000000
10000000
00000000
00000000
10000000
00000000
,
00000000
00000000
00010000
00000000
,
00100000
00000000
00000000
00000000
00000000
00000000
00001000
00010000
,
00001000
00000000
00010000
00000100
,
00001000
00000000
00000000
00000000
00000000
00000010
00000100
00000001
,
00000010
00000000
00000100
00000000
,
00010000
00000000
00000000
00001000
,
01000000
00000000
00000000
00100000
00000000
00000000
10000000
00000000
,
00010000
00000000
00100000
00000000
02000000
00000000
00000000
13000000
,
00100000
00010000
00100000
10000000
,
00010000
00000000
00100000
00000000
00002000
00000000
00000000
00013000
,
00000100
00001000
00000010
00000001
,
00000010
00000000
00000100
00000000
00000020
00000000
00000000
00001030
,
00000100
00000000
00010000
00000000
00001000
00000000
00000000
00022000
,
00000000
00000000
00000000
00000000
,
00033000
00000000
00000000
00000000
,
00010000
00001000
00010000
00001000
00000000
00010000
00000100
00000000
,
00001000
00000010
00001000
00000020
00000000
00000000
00000030
00000000
,
00000100
00000001
00001000
00000100
,
00010000
00001000
00010000
00001000
,
00011000
00000000
00000000
00000000
,
01001000
00000000
01000000
01000000
,
00010000
00100000
01000000
00100000
,
00001000
00010000
00000010
00010000
,
00002000
00000000
00000000
00000000
,
00000000
00000000
00000000
00000000
,
02003000
00000000
00000000
00000000
,
03020000
00000000
00000000
10000000
,
10030000
00000000
01000000
00100000
,
01100000
00000000
01000000
10000000
,
00010000
00000000
01000000
00000000
00001000
00010000
00000000
00000200
,
00000000
00001000
00001300
00000100
,
00000010
00000000
00000001
00001000
00000000
00000010
00000000
00000000
,
00000110
00000100
00000001
00001000
,
00000110
00001000
00000001
00000100
,
00010010
00000000
00010000
00000000
00001000
00000000
00100000
00010000
,
00200000
00000000
00300000
00000000
01000000
10000000
01000000
00000000
,
01100000
00000000
00100000
00000000
00010000
00100000
00000000
00000000
,
00001000
00000000
00001000
00000000
00010000
00001000
00000000
00000200
,
00000000
00000001
00000301
00000100
,
00000010
00000000
00001000
00000001
00000000
00000002
00000000
00000000
,
00000013
00000100
00000010
00000000
00000100
00000000
00010000
00000000
,
00001000
00010000
00001000
00000000
01000000
00000000
00010000
00000000
,
00100000
01000000
00100000
00000000
01000000
00100000
01000000
00000000
,
20020000
00000000
00000000
30030000
,
10000000
01000000
00100000
00001000
,
00011000
00000000
00010000
00000000
00000010
00001000
00000010
00000000
,
00000110
00000100
00000001
00000001
,
00000010
00000100
00000010
00000000
00000100
00001000
00000100
00000000
,
00010000
00000000
00000000
00000000
;

//---------------dance-double - forced/Pandy/t7r----------------
#NOTES:
     dance-double:
     forced/Pandy/t7r:
     Medium:
     13:
     :
00000000
00000000
00000000
00000000
,
00000000
00000000
00000000
00000000
,
00000000
00000000
00000000
00000000
,
00000000
00000000
00000000
00000000
,
00000000
00000000
00000000
00000000
,
02002000
00000000
00000000
03003000
,
00020200
00000000
00000000
00030300
,
00202000
00303000
00020020
00030030
,
00010000
00001000
00010000
00000000
00100000
01000000
00100000
10000000
,
00020000
00000000
00130000
01000000
00100000
00001000
00000000
00010000
,
00000020
00000000
00001030
00000100
00000010
00000002
00000000
00000203
,
00000000
00000000
00000010
00000000
00000301
00000000
00000100
00000001
,
00002000
00000000
00000000
00000000
00003100
00000000
00020000
00000000
00000000
00000000
00032000
00000000
00000000
00003000
00000000
00000000
,
00012000
00000000
00013000
00001000
01000000
00001000
00000000
00100000
,
00020000
00000000
10030000
00100000
10000000
02000000
00000000
03100000
,
00002000
00000000
00013000
00000010
00001000
00000010
00000000
00000100
,
00000002
00000000
00000013
00000100
00001000
00001000
00000010
00010000
,
00002000
00000000
00103000
00010000
01000000
00010000
00000000
10000000
,
02000000
00000000
13000000
00100000
01000000
00020000
00000000
00230000
,
00000000
00000000
01000000
00000000
00310000
00000000
00100000
00001000
,
00020000
00000000
00000000
00000000
00030010
00000000
00002000
00000000
00000000
00000000
00003200
00000000
00000000
00000300
00000000
00000000
,
00000210
00000000
00000310
00000001
00001000
00000001
00000000
00000100
,
00000020
00000000
00001030
00000010
00010000
00002000
00000000
00103000
,
00020000
01000000
10000000
00130000
,
00010000
10010000
00000000
01100000
00000000
10000000
00010000
00000000
,
01000000
00001000
00010000
00000000
00000100
00001000
00000100
00000000
,
00000010
00000001
00001000
00000020
00000100
00000000
00000130
00000000
,
00000010
00001000
00000100
00000000
00010000
00000000
00001000
00000000
,
00100000
00010000
01000000
00000000
00001000
00001000
00010000
00000000
,
00100000
01000000
00010000
00000000
10000000
01000000
00100000
00000000
,
00010000
01000000
00001000
00020000
00000100
00000000
00030100
00010000
,
00001000
00000000
00000100
00000000
00000001
00000010
00000001
00000010
,
00000100
00000000
00000000
00001000
00000000
00000000
00000001
00000000
00000200
00000000
00000300
00000000
00000000
00000000
00000000
00000000
,
00000010
00000100
00000001
00001000
00000000
00000100
00001000
00000000
,
00000100
00010000
00001000
00100000
00000000
00001000
00010000
00000000
,
00000100
00000000
00010000
00000000
00010000
00000000
00010000
00000000
00000100
00000000
00000000
00010000
00000000
00000000
00000010
00000000
,
00000000
00000100
00000010
00001000
00000100
00010000
00011000
00000000
,
00001000
01000000
00100000
10000000
00000000
01000000
10000000
00000000
,
01000000
00100000
00001000
00020000
00000000
00000000
00030000
00000000
,
00000100
00000000
00001000
00000000
00000010
00000000
00000100
00000000
00000001
00000000
00000000
00001000
00000000
00000000
00000100
00000000
,
00010000
00000000
00001000
00000000
00000000
01000000
00000000
00000000
00200000
00000000
00000000
00000000
00300000
00000000
00000000
00000000
,
20000000
00000000
00000000
32000000
00000000
00000000
03200000
00000000
,
00000000
00000000
00302000
00000000
,
00023000
00000000
00000000
00000000
00000000
00000000
00030010
00001000
,
00000002
00000000
00000203
00000320
,
00002030
00000000
00000000
00000000
00000000
00003001
00001000
00001000
,
00000200
00000000
00000320
00000000
,
00000032
00000000
00000003
00000001
,
00000200
00000000
00000000
00002300
00000000
00000000
01003000
00000000
,
00100000
10000000
00100000
01000000
00020000
00000000
00000000
00130000
,
00001000
00010000
00000100
00001000
00000010
00000100
00000001
00000000
,
00000010
00000001
00000100
00000001
00000020
00000000
00000000
00000130
,
00001000
00000100
00010000
00001000
01000000
00100000
10000000
00000000
,
00010000
00100000
00010000
01000000
00020000
00000000
00000000
00130000
,
01000000
10000000
00100000
01000000
00010000
00100000
00001000
00022000
,
00000000
00000000
00000000
00000000
,
00033000
00000000
00000000
00000000
,
00010000
00000100
00010000
00000000
00000100
00000000
00001000
00000000
00000000
00000000
00000010
00000100
00000010
00000000
00000100
00000000
,
00000001
00001000
00000100
00020000
00000000
00000000
00030000
00000000
,
00000000
00000000
00001000
00000000
01000000
00001000
01000000
00000000
00100000
00000000
00000000
10000000
00000000
00000000
01000000
00000000
,
00000000
00000000
00100000
00000000
00001000
00100000
00010000
00000000
00100000
00000000
00000000
01000000
00000000
00000000
10000000
00000000
,
20000000
00000000
01000000
00000000
00010000
00000000
30100000
01000000
,
00002000
00000000
00000000
00010000
00000000
00000000
00103000
00000000
00000000
00010000
10000000
00010000
,
10000000
00000000
01000000
00000000
01000000
00000000
00000000
00000000
00010000
00000000
00000000
00001000
00000000
00000000
00010000
00000000
,
00000010
00001000
00000000
00000001
00000010
00000100
00001000
00000000
,
00020000
00000000
00000000
00000000
,
00000000
00000000
00000000
01000000
00000000
01000000
00000000
01030000
,
00100000
00000000
00000000
00000000
10000000
00000000
00010000
00000000
10000000
00000000
00000000
00010000
00000000
00000000
01000000
00000000
,
00010000
00000000
00000000
00100000
00000000
00000000
00001000
00000000
00020000
00000000
00000000
00000000
00031000
00000000
00001000
00000000
,
00000200
00000000
00001000
00000000
00000310
00000100
00000001
00000000
,
00000010
00000000
00000001
00000010
00000100
00001000
00000000
00000001
,
00000200
00000000
00000000
00000310
00001000
00000001
00000000
00002000
,
00000100
00000000
00000001
00000000
00003010
00000000
00000100
00001000
,
00020000
00000000
01030000
00200000
00000000
00310000
10000000
00000000
,
00200000
00000000
10300000
01000000
10000000
00010000
00000000
01000000
,
00200000
00000000
10300000
01000000
00010000
00002000
00000000
00013000
,
00000100
00000000
00001000
00000010
00000100
00000001
00000000
00001000
,
00001000
00000001
00000000
00001001
00000001
00000010
00000100
00000000
,
00001000
00000100
00010000
00001000
01000000
00010000
10000000
00000000
,
01000000
00100000
00010000
10000000
00100000
00010000
00000000
00002000
,
00010000
00000000
01000000
00000000
00013000
00000000
00001000
00010000
,
00000020
00000000
00001030
00000002
00000000
00000103
00000000
00000001
,
00001000
00000001
00000010
00000100
00001000
00000001
00000000
00000100
,
00001000
00010000
00001000
01000000
00010000
20000000
00000000
31000000
,
00100000
00100000
00001000
00001000
00010000
00010000
00000010
00001000
,
00000002
00000000
00000010
00000000
00001003
00001000
00000001
00000000
,
00002000
00000000
00003100
00020000
00001000
00000000
00030100
00000000
,
00010000
00001000
01000000
00100000
01000000
00010000
20000000
00000000
,
31000000
01000000
00010000
00010000
00001000
00001000
00000100
00000100
,
00000010
00000000
00001000
00000000
00000001
00000000
00000000
00000000
00000010
00000000
00001000
00000000
00010000
00001000
00010000
00000000
,
00011000
00000000
00000000
00000000
;

//---------------dance-double - forced/t7r/Pandy----------------
#NOTES:
     dance-double:
     forced/t7r/Pandy:
     Hard:
     16:
     :
00000000
00000000
00000000
00000000
,
00000000
00000000
00000000
00000000
,
00000000
00000000
00000000
00000000
,
00000000
00000000
00000000
00000000
,
00000000
00000000
00000000
00000000
,
01002000
00010000
00100000
00013000
,
00020100
00001000
00000010
00031000
,
00102000
01003000
00020010
00030100
,
00022000
00000000
00000000
00000000
00033000
00000000
00010000
00000000
00100000
00000000
01000000
00000000
00010000
00000000
10000000
00100000
,
20000000
00000000
00000000
00000000
31000000
00000000
00100000
00010000
00100000
00000000
00002000
00000000
00003000
00000000
00010000
00000000
,
00000020
00000000
00000000
00000000
00001030
00000000
00000100
00000010
00000100
00000000
00002000
00000000
00000000
00000000
00003002
00000000
,
00000000
00000000
00000100
00000000
00001000
00000000
00000013
00000001
,
00002000
00000000
00003100
00020000
00000000
00031000
01000000
01000000
,
00020000
00000000
00000000
00000000
00130000
00000000
01000000
10000000
01000000
00000000
00200000
00000000
00300000
00000000
00001000
00000000
,
00020000
00000000
00000000
00000000
00030010
00000000
00001000
00000001
00001000
00000000
00000200
00000000
00000000
00000000
00000310
00000000
,
00000002
00000000
00000000
00000000
00000103
00000000
00000010
00001000
00000010
00000000
00020000
00000000
00030000
00000000
00001000
00100000
,
00002000
00000000
00000000
00000000
00013000
00000000
00001000
00000000
01000000
00010000
01000000
00010000
10000000
00000000
01000000
00000000
,
00200000
00000000
00000000
00000000
00301000
00000000
00010000
00000010
00010000
00000000
00000200
00000000
00000300
00000000
00001000
00000000
,
00000002
00000000
00000000
00000000
00000103
00000000
00000001
00000010
00000001
00000000
00000200
00000000
00000000
00000000
00000320
00000000
,
00000000
00000000
00001000
00000000
00010030
00000000
00000010
00001000
,
00000200
00000000
00010300
00002000
00000000
01003000
00010000
00010000
,
00200000
00000000
00000000
00000000
01300000
00000000
10000000
00010000
10000000
00000000
00200000
00000000
00300000
00000000
01000000
00000000
,
00002000
00000000
00000000
00000000
00013000
00000000
00000100
00001000
00000100
00000000
00000020
00000000
00000000
00000000
00000031
00000000
,
00000200
00000000
00001000
00000000
00000010
00000010
00000010
00000000
,
00000301
00000000
00000101
00000000
00000000
00000000
00000010
00000000
00010000
00001000
00010000
00001000
00100000
00000000
00000000
00000000
,
01000000
00010000
00001000
00000010
00000100
00010000
00001000
00000100
,
00000010
00001000
00010000
02000000
00100000
00000000
03010000
01000000
,
00100000
00000000
00010000
00000000
00000010
00000000
00010000
00000000
00001000
00000000
00000000
00000010
00000000
00000000
00000100
00000000
,
00001000
00000000
00000010
00000000
00010000
00000000
00100000
00000000
01000000
00000000
01000000
00000000
00010000
00000000
10000000
01000000
,
10000000
00100000
10000000
01000000
00010000
00001000
00000100
00000001
,
00000010
00000100
00010000
00002000
00100000
00000000
01003000
00001000
,
00010000
01000000
00010000
00000100
00001000
00001000
00000010
00000100
,
00000001
00000000
00000000
00000001
00000010
00000000
00000100
00000000
00002000
00000000
00003000
00000000
00000000
00000000
00000010
00000000
,
00001000
00000000
00000100
00000010
00000001
00000000
00000100
00000010
00001000
00000000
00000001
00000100
00000001
00000000
00002000
00000000
,
00000100
00000000
00003001
00000200
00000010
00000000
00000301
00000010
,
00001000
00000000
00010000
00000000
00001000
00010000
00001000
00000000
00000100
00000000
00000010
00001000
00000000
00000001
00001000
00000000
,
00000100
00000000
00010000
00000000
00001000
01000000
00010000
00000000
10000000
00000000
02000000
00000000
03100000
00000000
02000000
00000000
,
13000000
00000000
00100000
01000000
00010000
00000000
00100000
01000000
10000000
00000000
01000000
00100000
01000000
00000000
20000000
00000000
,
00100000
00000000
30010000
02000000
10000000
00000000
03100000
10000000
,
00010000
00000000
00010000
00000000
00100000
00000000
00100000
00000000
00001000
00000000
00010000
00000010
00000000
00001000
00000100
00000000
,
00001000
00000001
00000010
00000100
00001000
00010000
01000000
00100000
,
20000000
00000000
00000000
01000000
00000000
00000000
00010000
00000000
,
30200000
00000000
00000000
00000000
00010000
00000000
00000000
01300000
,
00020000
00000000
00000000
00000000
00000000
00000000
00130000
00001000
,
00020000
00000000
00032000
00003010
,
00000020
00000000
00000000
00000000
00000000
00000130
00001000
00000001
,
00000200
00000000
00002300
00000000
,
00023000
00000000
00000000
00032000
,
00023000
00000000
00000000
02030000
00000000
00000000
13000000
10000000
,
00010000
00000000
01000000
00000000
10000000
00000000
01000000
00000000
00010000
10000000
00010000
00000000
10000000
00000000
10000000
00000000
,
01000000
00010000
00001000
00000010
00000100
00001000
00000001
00000100
,
00001000
00000000
00000100
00000000
00000001
00000000
00000100
00000000
00000001
00001000
00000001
00000000
00001000
00000000
00001000
00000000
,
00000001
00000010
00001000
00010000
01000000
00100000
00010000
10000000
,
00010000
00000000
00100000
00000000
10000000
00000000
00100000
00000000
00010000
00000000
10000000
00010000
10000000
00000000
00010000
00000000
,
00010000
10000000
00100000
00010000
00001000
00000100
00000001
00000021
,
00000000
00000000
00000000
00000000
,
00000130
00010000
00000100
00010000
00000100
00010000
00000100
00010000
00000100
00010000
00000100
00010000
00000100
00000000
00000000
00000000
,
00010000
00001000
00010000
00001000
00010000
00000000
00002000
00000000
00000000
00000000
00013000
00000000
01000000
00000000
10000000
00000000
,
00100000
00000000
01000000
00100000
01000000
00000000
00020000
00000000
00100000
00000000
00000000
00000000
00000000
00000000
00000000
00000000
,
10030000
01000000
10000000
01000000
10000000
00000000
00100000
00000000
00010000
00000000
00000000
00001000
00000000
00000000
00010000
00000000
,
00000000
00000000
00001000
00000000
00000010
00000100
00000010
00000000
00000001
00000000
00000000
00000100
00000000
00000000
00000010
00000000
,
00001000
00000100
00010000
00001000
00000000
00010000
00001000
01000000
,
00100000
00000000
00000000
10000000
00000000
00000000
01000000
00000000
00000000
00200000
00000000
00000000
01000000
00000000
00000000
00000000
00000000
00000000
01300000
00000000
10000000
00000000
00010000
00000000
,
01000000
00000000
00010000
00000000
00100000
00001000
00010000
00000000
00001000
00000000
00000000
00010000
00000000
00000000
00000010
00000000
,
00000100
00000000
00000000
00000000
00000000
00000000
00000001
00000000
00001000
00000000
00000001
00000000
00001000
00000000
00000000
00000000
00000000
00000000
00000001
00000000
00000000
00000100
00000000
00000000
00000010
00000000
00000000
00000000
00000000
00000000
00000100
00000000
00000000
00000010
00000000
00000000
00001000
00000000
00000000
00000000
00000000
00000000
00000100
00000000
00000000
00000000
00000000
00000000
,
00022000
00000000
00000000
00000000
,
00000000
00000000
00000000
00000000
00000000
00000000
00000000
00030000
,
02000000
00000000
00000000
00000000
00000000
00000000
00000000
00000000
00000000
00000000
00000000
00000000
00000000
00003000
00000000
00000000
,
00200000
00000000
00000000
03000000
,
10300000
00000000
00000000
00000000
00000000
00000000
00000000
00000000
00010000
00100000
00010000
00100000
02000000
00000000
00000000
00000000
,
13000000
00000000
00000000
00000000
00000000
00000000
00100000
01000000
00001000
00000000
00011000
00000000
00000000
00000000
00010000
00000010
,
00000100
00000000
00000000
00000000
00000000
00000000
00000010
00000100
00000001
00000000
00001000
00000000
00000000
00000000
00020200
00000000
,
00000000
00000000
00000000
00000000
00030300
00000000
00000100
00010000
,
00001000
00000000
00010000
00000100
00000000
02020000
00000000
03030000
,
10010000
00000000
00000000
00000000
00000000
00000000
00100000
00001000
00010000
00000000
00001100
00000000
00000000
00000000
00001000
00000000
,
00001010
00000000
00000000
00000000
00000000
00000000
00000100
00000001
00000010
00000000
00000100
00000000
00000000
00000000
00001000
00000000
,
00002100
00000000
00000000
00000000
00003000
00000000
00000010
00000100
00000001
00000000
00001000
00000000
00000000
00000000
00000100
00000010
,
00000001
00000000
00000000
00000000
00000000
00000000
00001000
00000000
00000010
00010000
00001000
00010000
00000010
00000000
00000000
00000000
,
00000100
00000000
00000100
00000010
00001000
00000000
00001000
00000100
00010000
00000000
00001000
00010000
00001000
00000000
00010000
00000000
,
00001000
01000000
00100000
00000000
01000000
00010000
10000000
00000000
01000000
00000000
00100000
00000000
00001000
00000000
00022000
00000000
,
00000000
00000000
00000000
00000000
00033000
00000000
00010000
00000100
,
00001200
00000000
00010300
00012000
00000000
02003000
00000000
00000000
,
03100000
00000000
00100000
10000000
00010000
00000000
00100000
01000000
10000000
00000000
01000000
00000000
10000000
01000000
00100000
00000000
,
01000000
00000000
10000000
00010000
01000000
00000000
00100000
10000000
00010000
00000000
00100000
00000000
00001000
00000000
00010000
00000000
,
00001000
00010000
00000100
00001000
00000010
00000100
00000001
00001000
,
00000100
00010000
00000100
00010000
00001000
00010000
00001000
00010000
00001000
01000000
00001000
01000000
00100000
01000000
00100000
01000000
,
00020000
00000000
00000000
20000000
00000000
00000000
00000000
30030000
,
10000000
01000000
00100000
00010000
00001000
00000100
00000010
00000001
,
00002000
00000000
00000000
00003020
00000000
00000000
00000000
00000000
,
00000230
00000000
00000000
00000000
00000000
00000000
00000000
00000000
00000301
00000100
00000010
00000000
00001000
00000000
00000100
00000000
,
00011000
00000000
00000000
00000000
;

//---------------dance-double - Pandy/forced/t7r----------------
#NOTES:
     dance-double:
     Pandy/forced/t7r:
     Challenge:
     18:
     :
00000000
00000000
00000000
00000000
,
00000000
00000000
00000000
00000000
,
00000000
00000000
00000000
00000000
,
00000000
00000000
00000000
00000000
,
00000000
00000000
00000000
00000000
00000000
00000000
00000000
10000000
,
01000000
00010000
00001000
00000200
00000000
00001300
00010000
00001000
,
00100000
01000000
10000000
00020000
00000000
00000000
00030000
00000000
,
00110000
00000000
00000000
00000000
00010000
00100000
00001000
00000000
00010000
00000000
00000000
00000100
00000000
00000000
00001000
00000000
,
00000010
00000000
00000000
00000000
00000000
00000000
00000100
00000000
00000001
00000000
00000100
00000000
00000001
00000000
00000000
00000000
00000000
00000000
00001000
00000000
00000000
00000000
00000000
00000000
00000200
00000000
00000000
00010300
00000000
00000000
00002000
00000000
00000000
02003000
00000000
00000000
03200000
00000000
00000000
00000000
00000000
00000000
00300000
00000000
00000000
00000000
00000000
00000000
,
20010000
00000000
00000000
00000000
31000000
00000000
10000000
00010000
01000000
00000000
00010000
00000000
00100000
00000000
00001000
00000000
,
00021000
00000000
00000000
00000000
00030100
00000000
00001000
00000010
00000100
00000000
00000001
00000000
00000000
00000000
00002200
00000000
,
00000000
00000000
00000000
00000000
00003300
00000000
00010000
00001000
,
02000000
00000000
00100000
00010000
00000000
03200000
00000000
00000000
,
20300000
00000000
00000000
00000000
31000000
00000000
00100000
00001000
00010000
00000000
00000200
00000000
00000000
00000000
00001300
00000000
,
00001020
00000000
00000000
00000000
00000130
00000000
00000010
00000100
00000001
00000000
00000020
00000000
00000000
00000000
00000130
00000000
,
00001200
00000000
00000000
00000000
00000000
00000000
00010300
00001000
01000000
00000000
00100000
00000000
00000000
00000000
01000000
00010000
,
20000000
00000000
00000000
00000000
30000000
00000000
00010000
00000000
02000000
03002000
00023000
00030200
00002300
00000000
00000000
00000000
,
00003001
00000000
00000100
00000000
00000010
00000000
00001000
00000100
00010000
00000000
00001000
00000000
01000000
00000000
00100000
00000000
,
10000000
00000000
01000000
00000000
00100000
00000000
01000000
10000000
00010000
00000000
01000000
00000000
00000000
00000000
02002000
00000000
,
00000000
00000000
00000000
00000000
03003000
00000000
00001000
00010000
,
00000200
00000000
00001000
00001000
00000000
00000020
00000000
00000300
,
00000032
00000000
00000103
00000000
00000010
00000000
00001000
00000100
00020000
00000000
00032000
00000000
01003000
00000000
00100000
00000000
,
20000000
00000000
31000000
00000000
00100000
00000000
01000000
10000000
00010000
00000000
00100000
00000000
00002000
00000000
00013000
00000000
,
00000100
00001000
00000010
00000000
00000100
00000001
00000010
00000000
00000100
00001000
00000010
00000000
00000100
00000001
00000010
00000000
,
00001100
00000000
00011000
00000000
00000000
00000000
01001000
00000000
02000000
03002000
00023000
00030200
00002300
00000000
00000000
00000000
,
00003001
00000100
00001000
00010000
00000000
00010000
00001000
00010000
,
00100000
00000000
10000000
00000000
01000000
00000000
00200000
00000000
00000000
00000000
00000000
00000000
01300000
10000000
00010000
10000000
,
01000000
00000000
00100000
00000000
00001000
00010000
00000100
00000000
00001100
00000000
00000000
00000101
00000000
00000000
00001001
00000000
,
00000000
00000000
00000010
00000000
00010000
00001000
00100000
00000000
01100000
00000000
00000000
11000000
00000000
00000000
10100000
00000000
,
10000000
01000000
00010000
00001000
00000000
00010000
00001000
00010000
,
00001000
00000010
00000001
00000200
00000000
00000000
00000300
00000000
,
00000010
00000000
00000100
00000000
00000010
00001000
00000100
00000000
00001100
00000000
00000000
00011000
00000000
00000000
00110000
00000000
,
00000000
21000000
00000000
30010000
10010000
00110000
00011000
00001000
,
00010000
00000000
00000100
00001000
00000100
00000000
00000010
00000001
00001000
00000001
00000100
00000010
00001000
00000000
00000200
00000000
,
00010000
00000000
00010000
00000000
00001300
00000000
00000100
00010000
00001000
01000000
00010000
01000000
00100000
00000000
10000000
00100000
,
10000000
00000000
01000000
00100000
01000000
00100000
00010000
00000000
01000000
00000000
00001000
00010000
00000000
00000100
00010000
00000000
,
00000010
00000000
00000000
00000000
00001000
00000000
00000100
00000000
00000010
00000000
00000001
00000000
00000100
00000000
00000000
00000000
00001000
00000000
00000000
00000000
02000000
03000000
00000000
00000000
00010000
00000000
00100000
00000000
00010000
00000000
00100000
00000000
,
01000000
00000000
10000000
00010000
01000000
00000000
00001000
00010000
00000100
00001000
00000100
00000010
00000001
00000000
00002000
00000000
,
00000010
00000000
00000010
00000000
00003001
00000000
00001000
00000100
00010000
00001000
01000000
00010000
01000000
00100000
10000000
00010000
,
00100000
00000000
01000000
00000000
00010000
00000000
00001000
00000000
00000100
00000000
00000010
00001000
00000010
00001000
00000001
00000010
,
00000100
00010000
00001000
00100000
01000000
00010000
00001000
00000100
,
00000020
00000000
00001030
00000001
00000020
00000000
00000230
00000000
,
00000001
00001000
00020300
00001000
,
00230000
00000000
01000000
01000000
10000000
00000000
00310000
00001000
,
02000000
00000000
00010000
00010000
03200000
00000000
00320000
00000000
,
00032000
00000000
01000000
01000000
00013000
00001000
00000100
00000001
,
00000020
00000100
00002030
01000000
,
00023000
00000000
00000100
00000100
00001000
00000000
00030020
00000000
,
00002030
00000000
00000000
00000000
00000000
00000000
00003002
00000000
00000000
00000000
00000000
00000000
00000013
00000100
00000010
00000100
,
00001000
00000000
00000010
00000000
00010000
00000000
00001000
00000000
00100000
00010000
00100000
00000000
01000000
00000000
10000000
00000000
,
00100000
01000000
00100000
00000000
10000000
00100000
10000000
00000000
01000000
00000000
00100000
00010000
00100000
00000000
00001000
00000000
,
00010000
00000000
00000010
00001000
00000010
00001000
00000100
00000010
00000100
00000000
00001000
00000001
00000100
00000000
00000010
00000000
,
00010000
00000000
00001000
00000000
00100000
00010000
00100000
00000000
01000000
00000000
10000000
00000000
00100000
00000000
01000000
00000000
,
01010000
00000000
00000000
00000000
00001000
00000000
00010000
00000000
00010100
00000000
00000000
00000100
00000010
00000000
00000001
00000000
,
00000101
00000000
00000000
00000000
00000100
00000000
00001000
00010000
00001000
00000000
01000000
00000000
00010000
00000000
00220000
00000000
,
00000000
00000000
00000000
00330000
,
00100000
00000000
00100000
00000000
01000000
00000000
01000000
00000000
10000000
00100000
10000000
00100000
01000000
00010000
01000000
00001000
,
00010000
00000100
00010000
00000100
00001000
00000000
00001010
00000000
00000000
00000000
00011000
00000000
00000000
00000000
01010000
00000000
,
00000000
00000000
01000000
00100000
01000000
00000000
00010000
00000000
00110000
00000000
00000000
00000000
00000000
00000000
00000000
00000000
,
01000000
00010000
01000000
00010000
00100000
00000000
00110000
00000000
00000000
00000000
00011000
00000000
00000000
00000000
00001100
00000000
,
00000000
00000000
00000100
00000010
00000100
00000000
00001000
00000000
00002002
00000000
00003003
00000000
00000001
00000000
00000100
00000000
,
00000001
00000010
00000100
00002000
00000100
00003001
00000100
00000010
,
00001000
00000000
00000000
00000100
00000000
00000000
00010000
00000000
00000000
00001000
00000000
00000000
00020000
00000000
00000000
00000000
00000000
00000000
01030000
00000000
10000000
00000000
00100000
00000000
,
10000000
00000000
01000000
00100000
01000000
00100000
01000000
00000000
10000000
00000000
00000000
00100000
00000000
00000000
01000000
00000000
,
00001000
00000000
00000000
00010000
00000100
00000010
00000001
00000000
00000000
00000100
00000010
00001000
00000001
00000000
00000000
00000010
00000100
00010000
00001000
00000000
00000000
00010000
00001000
01000000
,
00020000
00000000
01000000
00000000
,
00000000
00000000
00000000
10000000
00000000
10000000
00000000
10030000
,
00010000
00000000
00100000
00010000
00100000
00010000
10000000
00000000
00100000
00000000
01000000
00010000
00000000
10000000
00010000
00000000
,
10000000
00000000
00000000
00000000
01000000
00000000
00000000
00000000
00100000
00000000
00000000
00000000
00010000
00000000
00000000
00000000
10000000
00000000
00000000
00000000
01000000
00000000
00000000
00000000
00100000
00000000
00000000
00000000
00001000
00000000
00000000
00000000
00010000
00000000
00000000
00000000
00000010
00000000
00000000
00000000
00000100
00000000
00000000
00000000
00000001
00000000
00000000
00000000
00000200
00000300
00000000
00000000
00000000
00000000
00000000
00000000
00000200
00000300
00000000
00000000
00000000
00000000
00000000
00000000
,
00001000
00000000
00000000
00000000
00001001
00000000
00000001
00000000
00000010
00000001
00000010
00000001
00001000
00000000
00000001
00000100
,
00000010
00000000
00001000
00000000
00000100
00000000
00000010
00000100
00001000
00000000
00000001
00000000
00000100
00000000
00001000
00000000
,
00010000
00000000
01000000
00000000
00100000
00000000
00010000
10000000
00100000
00000000
10000000
00000000
00010000
00000000
00200000
00000000
,
10000000
00000000
01000000
00000000
00310000
01000000
00100000
10000000
,
00020000
00100000
10030000
01000000
00100000
00001000
00011000
00010000
,
00010100
00000000
00000100
00000000
00001000
00000000
00000010
00000100
00000001
00000000
00000010
00000000
00001000
00000000
00000010
00000000
,
00000011
00000000
00000001
00000000
00000100
00000000
00000010
00001000
00000001
00000000
00000010
00000000
00001000
00000000
00010000
00000000
,
00011000
00000000
00001000
00000000
00010000
00000000
00100000
01000000
00010000
00000000
10000000
00000000
01000000
00000000
00010000
00001000
,
01000000
00000000
01100000
00000000
00000000
00000000
10100000
00000000
10000000
01000000
00100000
00001000
00010000
00000000
00001000
00000000
,
00021000
00000000
00031000
00000100
00000010
00000000
00001000
00000100
00000010
00000000
00000001
00000000
00000100
00001000
00010000
00000000
,
00012000
00000000
00013000
01000000
00100000
00000000
00010000
01000000
00100000
00000000
10100000
00000000
10000000
00000000
20010000
00000000
,
01000000
00000000
00000000
00000000
00010000
00000000
00000000
00000000
30100000
00000000
10000000
00010000
00100000
00000000
00010000
00000000
,
10000000
00000000
01000000
00100000
00001000
00000000
00011000
00000000
00000000
00000000
00010010
00000000
00000010
00000000
00000100
00000001
,
00001000
00000000
00000100
00001000
00000001
00000000
00000100
00001000
00010000
00000000
01000000
00000000
00100000
00010000
10000000
00000000
,
00100000
00000000
01000000
00010000
10000000
00000000
01000000
00010000
00001000
00000000
00020000
00000000
00000010
00000000
00031000
00000000
,
00021000
01000000
01000000
01000000
00000100
00000100
00000100
00030100
,
00001000
00000100
00000010
00000001
00000100
00000010
00010000
00001000
01000000
00010000
10000000
00010000
20000000
00000000
00000000
00000000
,
30020000
00000000
00100000
20030000
00100000
00000000
30010000
01000000
,
00010000
00100000
01000000
10000000
00010000
00100000
01000000
00100000
00001000
00010000
00000010
00001000
00000002
00000000
00000000
00000000
,
00002003
00000000
00000010
00000000
00000010
00000000
00003002
00000000
00000010
00000000
00000010
00000000
00001003
00000000
00000001
00001000
,
00000001
00000100
00001000
00010000
01000000
10000000
00100000
00010000
00001000
00000100
00000010
00001000
00000001
00000010
00000100
00010000
,
00001000
00000000
00000000
00000000
;
