#TITLE:Kirschbluten-Jodler (High Noon Shoot Out Mix);
#SUBTITLE:;
#ARTIST:Takeo Ischi vs. Rudy Schneyder;
#TITLETRANSLIT:;
#SUBTITLETRANSLIT:;
#ARTISTTRANSLIT:;
#GENRE:;
#CREDIT:;
#MUSIC:Kirschbluten-Jodler (High Noon Shoot Out Mix).ogg;
#BANNER:Kirschbluten-Jodler (High Noon Shoot Out Mix).png;
#BACKGROUND:Kirschbluten-Jodler (High Noon Shoot Out Mix)-bg.png;
#CDTITLE:cdtitle.png;
#SAMPLESTART:61.345;
#SAMPLELENGTH:14.099;
#SELECTABLE:YES;
#OFFSET:0.420;
#BPMS:0.000=136.000;
#STOPS:;
#BGCHANGES:2.000=Kirschbluten-Jodler (High Noon Shoot Out Mix).mp4=1.000=0=0=1,
99999.000=-nosongbg-=1.000=0=0=0=StretchNoLoop====
;
#FGCHANGES:;

//--------------- dance-single - Pandemonium X ----------------
#NOTES:
     dance-single:
     Pandemonium X:
     Beginner:
     5:
     0.160345,0.356098,0.152709,0,0,147,127,20,0,0,0,0.160345,0.356098,0.152709,0,0,147,127,20,0,0,0:
0000
0000
0000
0000
,
0000
0000
0000
0000
,
0000
0000
0000
0000
,
0000
0000
0000
0000
,
0000
0000
0000
0000
,
0000
0000
0000
0000
,
0001
0000
0000
1000
,
0000
0000
0010
0000
,
0100
0000
0000
0010
,
0000
0000
0000
0000
,
1000
0000
0000
0000
,
0001
0000
0000
0000
,
0010
0000
0100
0000
,
1000
0000
0000
0000
,
0001
0000
0001
0000
,
1000
1000
1000
0000
,
0010
0000
0100
0000
,
0010
0010
0010
0000
,
1000
0000
0100
0000
,
1000
1000
1000
0000
,
0001
0000
0010
0000
,
0001
0001
0001
0000
,
1000
0000
0000
0000
,
0001
0000
0000
0000
,
0100
0000
0010
0000
,
1001
0000
0000
0000
,
0001
0000
0000
0000
,
1000
0000
0000
0000
,
0100
0000
0010
0000
,
0100
0000
0100
0000
,
0100
0000
0000
0000
,
0010
0000
0000
0000
,
0001
0000
0000
0000
,
1000
0000
0001
0000
,
0100
0000
0110
0000
,
0010
0010
0010
0000
,
0100
0100
0100
0000
,
0001
0000
1000
0000
,
0001
1001
1001
1001
,
1000
0000
0001
0000
,
1000
0000
0001
0000
,
0100
0000
0010
0000
,
0100
0000
0010
0010
,
1000
0000
0000
0001
,
0000
0000
0010
0000
,
0100
0000
0000
1000
,
0000
0000
0000
0000
,
0001
0000
0000
0000
,
1000
0000
0000
0000
,
0010
0000
0100
0000
,
1001
0000
0000
0000
,
0000
0000
0110
0000
,
1000
0000
1000
0000
,
0001
0000
0001
0000
,
0100
0000
0010
0000
,
0100
0110
0110
0110
,
1000
0000
0001
0000
,
0010
0000
0001
0000
,
1001
0000
0110
0000
,
1001
0110
0110
0110
,
0100
0100
0100
0000
,
0010
0010
0010
0000
,
1000
1000
0001
0001
,
1000
1001
1001
1001
,
0001
0000
0100
0000
,
0010
0000
1000
0000
,
0100
0000
0010
0000
,
0001
0000
0000
0000
,
1000
0000
0000
0000
,
0001
0000
0000
0000
,
0100
0000
0000
0000
,
0010
0000
0100
1001
;

//--------------- dance-single - Pandemonium X ----------------
#NOTES:
     dance-single:
     Pandemonium X:
     Easy:
     7:
     0.261787,0.383491,0.152709,0.122167,0,240,220,20,16,0,0,0.261787,0.383491,0.152709,0.122167,0,240,220,20,16,0,0:
0000
0000
0000
0000
,
0000
0000
0000
0000
,
0000
0000
0000
0000
,
0000
0000
0000
0000
,
0000
0000
0000
0000
,
0000
0000
0000
0000
,
1000
1000
0000
0001
,
0000
0000
0010
0100
,
0010
0010
0000
0001
,
0000
0000
0000
0000
,
1000
0010
0100
0000
,
0010
1000
0001
0000
,
0010
0001
0100
0010
,
2000
0000
3000
0000
,
0001
0001
1000
0000
,
0010
0010
0200
0000
,
0301
0010
0100
0010
,
0001
0001
1001
0110
,
1000
0010
0010
0000
,
0100
0001
0010
0000
,
0100
0010
0001
0000
,
1000
0001
0100
0000
,
0010
1000
0100
1000
,
0001
0100
0010
1000
,
0001
0001
1000
1000
,
0020
0230
0320
0030
,
0100
0001
0010
1000
,
0010
0001
0100
0010
,
1000
0001
0010
0001
,
1001
0000
0110
0000
,
1001
0000
0000
0001
,
0100
0010
0000
0100
,
0001
1000
0000
0000
,
0100
0000
0000
0010
0001
0000
0100
0000
,
0010
0000
2002
3003
,
0001
0100
0010
1000
,
0100
0001
0100
1000
,
0010
0100
0001
1000
,
0100
0011
1100
0011
,
0001
0100
0001
1000
,
0100
0001
0100
1000
,
0010
0100
0001
1000
,
0100
0010
0100
0100
,
1000
1000
0000
0001
,
0000
0000
0100
0010
,
0100
0100
0000
0010
,
0000
0000
0000
0000
,
0100
0010
0000
1000
,
0001
1000
0000
0000
,
0010
0000
0000
0100
0001
0000
0010
0000
,
0200
2300
3200
2300
,
3200
2300
0020
3030
,
0100
0001
0010
1000
,
0010
0001
0100
1000
,
0100
0010
1000
0001
,
0010
0011
1100
0011
,
0001
1000
0100
0001
,
0100
1000
0010
0100
,
1000
0100
0010
1000
,
0001
1010
0101
1010
,
0001
0000
0100
0010
0100
0000
0010
0000
,
1000
0000
0100
0010
0100
0000
0010
0000
,
0001
0010
0100
1000
,
0010
1001
0110
1001
,
0001
0100
0001
0000
0100
0000
0010
0000
,
1000
0010
1000
0000
0010
0000
0100
0000
,
0001
0100
0001
0000
1000
0010
1000
0000
,
2002
0000
3003
0000
,
0001
0000
1000
0000
,
0010
0000
0100
0010
,
1000
0000
0100
0000
,
1000
0000
0001
0110
;

//--------------- dance-single - Pandemonium X ----------------
#NOTES:
     dance-single:
     Pandemonium X:
     Medium:
     11:
     0.404679,0.465667,0.106896,0.175615,0.007635,371,357,14,23,0,0,0.404679,0.465667,0.106896,0.175615,0.007635,371,357,14,23,0,0:
0000
0000
0000
0000
,
0000
0000
0000
0000
,
0000
0000
0000
0000
,
0000
0000
0000
0000
,
0000
0000
0000
0000
,
0000
0000
0000
0000
,
0001
0001
0100
0100
0000
0010
0010
1000
,
0000
0000
0000
0001
0010
0100
1000
1000
,
0100
0100
1000
1000
0000
0010
0100
0010
,
0000
0100
0001
0010
0000
0000
0000
0000
,
0100
0000
1000
0100
0010
0000
0100
0000
,
1000
0000
0001
0010
0100
0000
0010
0000
,
0001
0100
1000
0100
0001
0010
1000
0010
,
0002
0000
0003
0000
,
1000
0000
1000
0001
0010
0000
0000
0010
,
0001
0100
0010
1000
0002
0000
0000
0000
,
0013
0000
0100
0010
0001
0000
1100
0000
,
0001
0010
0100
1000
0002
0000
0203
0000
,
0301
0000
0001
1000
0010
0000
0000
0010
,
0100
0001
0010
0100
0010
0001
0000
0000
,
1100
0000
1000
0010
0100
0000
0000
0010
,
0100
0000
0010
0100
0001
2000
3200
0320
,
0032
0000
0103
0001
1000
0000
0100
1000
,
0010
0000
0100
0001
0010
0000
0100
0000
,
1100
0000
1010
0000
0101
0000
0001
0010
,
0200
2300
3200
0300
,
0011
0000
0001
0100
0020
0000
0130
0001
,
2000
0000
3100
0010
0002
0000
0013
0000
,
0100
1000
0010
0100
,
1001
0000
0001
1000
0001
0000
0001
1000
,
0001
0000
0001
1000
0001
1000
0010
0100
,
0001
0010
0000
0100
,
0010
0001
0000
0000
,
1000
0000
0000
0010
0100
0000
0010
0000
,
0100
0000
2002
3003
,
0001
0000
0100
0010
1000
0000
0001
0010
,
0100
0000
0010
0001
1000
0000
0001
0000
,
1000
0100
0001
0100
1000
0010
0001
0010
,
2000
0010
0010
3010
,
0100
0010
1000
0000
0001
0010
0100
0000
,
0010
0001
0100
0000
0010
0100
0001
0000
,
1000
0001
1000
0001
0100
0010
0100
0010
,
0100
0001
0010
0100
1000
0000
1001
0000
,
1000
1000
0001
0001
0000
1000
0100
0100
,
0000
0000
0000
0010
0100
1000
0001
0010
,
0100
0100
0010
0010
0000
0100
0100
0100
,
0000
1000
0001
1000
0000
0000
0000
0000
,
0001
0100
0000
0010
,
1000
0100
0000
0000
,
0011
0000
0000
0001
0100
0000
0010
0000
,
1000
0001
1000
0001
1000
0001
1000
0001
,
1000
0001
1000
0001
2002
0000
3003
0000
,
0001
0100
0001
0000
1000
0010
1000
0000
,
0001
0100
0001
0000
1000
0010
1000
0000
,
0001
0000
1000
0100
0010
0000
0100
0010
,
0002
0010
0010
0013
,
0001
0010
0100
1000
0001
0010
0100
1000
,
0001
0010
0100
1000
0001
0010
0100
1000
,
0001
1000
0001
1000
0010
0100
0010
0100
,
0020
1000
1000
1030
,
0101
0000
0000
0001
0010
0000
0100
0000
0010
0000
0000
0000
0001
0000
0000
0000
,
1000
0000
0000
0010
1000
0000
0100
0000
0010
0000
0000
0000
0100
0000
0000
0000
,
1000
0100
1000
0000
0001
0100
0001
0000
,
0020
0100
0100
0130
,
1000
0100
0010
0001
0010
0100
1000
0100
,
0010
0001
0010
0100
1000
0100
0010
0001
,
0010
0100
0010
0100
0001
1000
0001
1000
,
0001
0100
0010
1000
0002
0000
0003
0000
,
1000
0000
0001
0000
0010
0100
0010
0000
,
0100
0000
1000
0000
0010
0100
0110
0000
,
0010
0000
0100
0000
0001
1000
0001
0000
,
1000
0000
0001
0000
0100
0010
1001
0000
;

//--------------- dance-single - Pandemonium X ----------------
#NOTES:
     dance-single:
     Pandemonium X:
     Hard:
     13:
     0.514848,0.712197,0.152709,0.106896,0.240517,472,452,20,14,0,0,0.514848,0.712197,0.152709,0.106896,0.240517,472,452,20,14,0,0:
0000
0000
0000
0000
,
0000
0000
0000
0000
,
0000
0000
0000
0000
,
0000
0000
0000
0000
,
0000
0000
0000
0000
,
0000
0000
0000
0000
,
0001
0000
0100
0010
0100
0000
0001
0000
0000
0000
1000
0100
1000
0000
0001
0000
,
0000
0000
0000
1000
0100
1000
0010
0100
,
0001
0000
0010
0100
0010
0000
0001
0000
0000
0000
0010
0100
0010
0000
0001
0000
,
1000
0001
0100
1001
,
0201
0000
0000
0310
1000
0000
0100
0000
0001
0000
0000
0001
0100
0000
1000
0000
,
0010
0000
0000
0001
0010
0000
1000
0000
0001
0000
0000
0000
1000
0000
0100
0000
,
0010
0000
0001
0100
0010
0000
1000
0000
0001
0000
1000
0010
0100
0000
0010
0000
,
1000
0001
1000
0000
,
1001
0000
0001
1000
0010
0000
0000
0100
,
1000
0100
0001
1000
0100
0000
0000
0000
,
0010
0000
0100
0010
0001
0000
1000
0000
,
0001
0100
1000
0100
0101
0000
1100
0100
,
1000
0000
0100
0010
0001
0000
0100
0001
,
1000
0100
0010
0001
0100
0010
0000
0000
,
1000
0000
0001
0010
0100
0000
0000
0010
,
0001
1000
0100
0010
0001
0010
0100
1000
,
0001
0000
0000
0010
0100
0000
1000
0000
0001
0000
0100
0000
0100
0000
0010
0000
,
1000
0000
0001
0010
0001
0000
0001
0000
1000
0000
0010
0000
1000
0000
0001
0000
,
0010
0000
0100
0000
1000
0000
0010
0100
,
0002
1000
0100
1003
,
1001
0000
0000
0001
0100
0000
0010
0000
1000
0000
0000
0100
0010
0000
0100
0000
,
1000
0000
0000
0001
0010
0000
0100
0000
1000
0000
0000
0001
1000
0000
0010
0000
,
0100
0001
0010
0100
,
1001
0000
0010
0100
1001
0000
0100
0010
,
1001
0000
0010
0100
1001
1000
0100
0010
,
0001
0100
0000
0010
,
1000
0100
0000
0000
,
0010
0000
0000
0100
1000
0000
0010
0000
,
0100
0000
2002
3003
,
0001
0000
0000
1000
0100
0000
1000
0000
0001
0000
0000
0010
0100
0000
0010
0000
,
0001
0000
0000
1000
0010
0000
0100
0000
0010
0000
0000
1000
0100
0000
0010
0000
,
0001
0000
0100
0010
1000
0000
0001
0000
0010
0000
0100
0010
0001
0000
1000
0000
,
0020
0001
1000
0031
,
1001
0000
1000
0100
1000
0000
0010
0000
0100
0000
0001
0100
0001
0000
1000
0000
,
0001
0000
0010
0001
0010
0000
0001
0000
0100
0000
0010
1000
0010
0000
0100
0000
,
0001
0000
1000
0100
0010
0000
0100
0000
1000
0000
0001
0010
0100
0000
0010
0000
,
0002
0000
0000
0000
0000
0000
0000
0000
1003
0000
1000
0010
1000
0000
0010
0000
,
0100
0000
0100
0000
0001
0000
0001
0000
0000
0000
0010
0100
0010
0000
0010
0000
,
0000
0000
0000
0100
1000
0010
0100
0100
,
0001
0000
0001
0000
1000
0000
1000
0000
0000
0000
0001
0100
0001
0000
0100
0000
,
0010
0000
1000
0100
1000
0000
0001
0000
0000
0000
0000
0000
0000
0000
0000
0000
,
0200
0301
0000
0010
,
0002
1003
0000
0000
,
0101
0000
0000
0001
0010
0000
0100
0000
,
1001
0001
1000
0001
1000
0001
1000
0001
,
1000
0001
1000
0001
0220
0000
0330
0000
,
0001
0100
0001
0000
0100
0000
0010
0000
1000
0100
1000
0000
0001
0000
1000
0000
,
0010
1000
0010
0000
1000
0000
0001
0000
0010
0000
0100
0000
0100
0000
1000
0000
,
0001
0000
0100
0010
1000
0000
0001
0000
0010
0000
0100
1000
0010
0000
0100
0000
,
0020
0001
1000
0031
,
1001
0000
1000
0100
1000
0000
0010
0000
0100
0000
0001
0100
0001
0000
1000
0000
,
0001
0000
0010
0001
0010
0000
0100
0000
1000
0000
0010
0100
0010
0000
0100
0000
,
0001
0000
1000
0001
0010
0000
0100
0000
1000
0000
0100
1000
0001
0000
0100
0000
,
0020
0001
1000
0031
,
1001
0000
0000
1000
0100
0000
1000
0000
0010
0000
0000
0100
0001
0000
0010
0000
,
0100
0000
0000
0010
0001
0000
1000
0000
0010
0000
0000
0100
0010
0000
1000
0000
,
0001
0000
0010
0100
1000
0000
0100
0000
1000
0000
0010
0100
0001
0000
0010
0000
,
0200
0001
1000
0301
,
1001
0000
0001
0000
0100
0010
0100
0010
1000
0000
0001
0000
0010
0100
0010
0100
,
1000
0000
0001
0000
1000
0010
1000
0010
0100
0000
0001
0000
0100
0001
0100
0001
,
0010
0000
0100
1000
0001
0000
0010
0000
0100
0000
1000
0001
0100
0000
0010
0000
,
1000
0001
1000
0000
0001
0010
0001
0000
0020
0000
0000
0000
0000
0000
0030
0000
,
0100
0000
1000
0100
1000
0000
0100
0000
0000
0000
1000
0000
0010
0000
0100
0000
,
0000
0010
0100
0001
0000
1000
1001
0000
,
1000
0000
0001
1000
0001
0000
0100
0000
0000
0000
0010
0000
0100
0000
0001
0000
,
0000
0000
1000
0000
0001
0000
0010
0000
0100
1000
0010
0000
0101
0000
0000
0000
;

//--------------- dance-single - Pandemonium X ----------------
#NOTES:
     dance-single:
     Pandemonium X:
     Challenge:
     15:
     0.594474,0.903942,0.229064,0.282512,0.511575,545,515,30,37,8,0,0.594474,0.903942,0.229064,0.282512,0.511575,545,515,30,37,8,0:
0000
0000
0000
0000
,
0000
0000
0000
0000
,
0000
0000
0000
0000
,
0000
0000
0000
0000
,
0000
0000
0000
0000
,
0000
0000
0000
0000
,
0001
0000
1000
0100
0010
0000
0001
0000
0010
0000
1000
0010
0001
0000
1000
0000
,
0000
0000
0000
1000
0010
0100
1000
0100
,
0001
0000
1000
0100
0010
0000
0001
0000
0100
0000
1000
0100
0001
0000
1000
0000
,
0100
0000
0010
0100
1000
0000
0001
0000
1000
0010
0100
0000
0011
0000
0000
0000
,
2100
0000
0000
3010
0100
0000
0001
0000
0021
0000
0000
0130
1000
0000
0001
0000
,
0201
0000
0000
0310
1000
0000
0001
0000
0012
0000
0000
1003
0100
0000
1000
0000
,
0010
0000
0100
1000
0100
0000
0010
0000
1000
0000
0001
0010
0001
0000
0010
0000
,
0200
1000
0301
0000
,
0011
0000
0001
0100
0020
0000
0030
0100
,
0010
0010
1000
0001
2000
0000
0000
0000
,
3100
0000
0100
1000
0010
0000
0110
0000
,
0100
0000
0000
0000
0000
0000
0000
0000
0001
0000
0000
0000
0000
0000
0000
0000
0010
0000
0000
0000
0000
0000
0000
0000
1000
0000
0000
0000
0000
0000
0000
0000
1020
0000
0000
0000
0000
0000
0000
0000
0000
0000
0000
0000
0000
0000
0000
0030
0021
0000
0000
0000
0000
0000
0000
0000
0000
0000
0000
0000
0000
0000
0000
0030
,
1001
0000
1000
0100
0020
0000
0030
0100
,
1000
0010
0001
0010
0100
0001
1000
0000
,
1001
0000
0001
1000
0010
0000
1000
0001
,
0010
1000
0010
0001
0100
0020
2030
3002
,
0013
0000
0000
0010
0001
0000
0001
0000
1000
0000
0010
0000
0010
0000
0010
0000
,
0100
0000
0001
0100
0001
0000
0100
0000
0010
0000
1000
0000
0001
0000
0010
0000
,
1010
0000
0011
0000
1100
0000
0001
0100
,
2001
0001
0010
3001
,
1010
0000
0000
0001
0100
0000
0001
0000
0010
0000
0000
0001
0010
0000
1000
0000
,
0010
0000
0000
0100
1000
0000
0001
0000
0100
0000
0010
0000
1000
0000
0001
0000
,
1001
0110
1010
0101
,
2001
0000
0000
3001
0100
0000
0010
0000
2000
0000
0000
3001
0100
0000
0010
0000
,
2000
0000
0000
3001
0100
0000
0010
0000
1000
0000
0100
0000
0010
0000
0001
0000
,
2000
3200
0000
0302
,
0023
2030
0000
0000
,
3001
0000
0000
0010
0100
0000
0010
0000
,
1001
0000
MMMM
0000
,
1001
0000
0000
0001
0010
0000
1000
0000
1010
0000
0000
0010
0001
0000
0100
0000
,
1100
0000
0000
0100
0010
0000
1000
0000
1010
0000
0000
1000
0001
0000
0010
0000
,
0001
0000
0100
1000
0100
0000
0001
0000
1000
0000
0010
1000
0010
0000
0100
0000
,
0020
1000
0001
1030
,
0001
1000
0001
1000
0001
0010
0100
1000
0010
0100
0010
0100
0001
0010
0100
1000
,
0001
0100
0001
0100
0001
0010
0100
1000
0001
1000
0001
1000
0001
0010
0100
1000
,
0001
1000
0010
1000
0001
0010
0001
1000
0010
1000
0001
0010
0100
0010
0001
0100
,
0002
0000
0000
0000
0000
0000
0000
0000
1003
0000
1000
0001
1000
0000
0010
0000
,
0100
0000
0100
0000
0010
0000
0010
0000
0000
0000
0010
0100
0010
0000
0010
0000
,
0000
0000
0000
0010
1000
0001
0010
0001
,
1000
0000
0001
0100
0001
0000
0100
0000
0010
0000
1000
0010
1000
0000
1000
0000
,
0000
0000
0001
0010
0001
0000
1000
0000
0000
0000
0000
0000
0000
0000
0000
0000
,
0002
0000
0200
0000
0000
0003
2000
0300
,
3020
0032
0000
0000
,
1003
0000
0000
1000
0001
0000
0110
0000
,
4000
0004
0000
0000
0000
0000
0000
0000
,
0000
0000
0000
3003
MMMM
0000
0000
0000
,
0001
1000
0001
1000
0010
1000
0001
1000
0100
1000
0100
1000
0001
0010
0100
1000
,
0001
0100
0010
0100
0001
0100
0010
0100
0001
0000
1000
0000
0100
0000
1000
0000
,
0001
0000
0010
1000
0010
0000
0001
0000
0100
0000
0010
0100
0010
0000
1000
0000
,
0020
0001
1000
0031
,
1000
0010
1000
0010
0100
0001
0010
0001
0100
0010
1000
0001
0010
0100
0010
0100
,
0010
0001
0010
0001
0010
0100
1000
0010
0100
0001
0010
0100
1000
0100
1000
0010
,
0100
0001
0100
0001
1000
0010
1000
0010
1000
0001
1000
0001
0010
0001
0010
0100
,
0020
0001
1000
0031
,
1002
0000
0000
0013
0001
0000
0100
0000
2000
0000
0000
3010
0100
0000
0001
0000
,
0020
0000
0000
0130
0010
0000
0001
0000
2000
0000
0000
3001
0010
0000
0100
0000
,
1000
0000
0010
0001
0010
0000
0100
0000
0001
0000
1000
0001
1000
0000
0001
0000
,
0020
0001
1000
0031
,
1000
0001
1000
0001
1000
0010
0100
0001
0010
0100
0010
0100
1000
0010
0100
0001
,
1000
0100
1000
0100
1000
0010
0100
0001
1000
0001
1000
0001
1000
0010
0100
0001
,
1000
0001
0010
0001
1000
0010
1000
0001
0010
0001
1000
0010
0100
0010
1000
0100
,
1000
0100
0010
0001
1000
0100
0010
0001
0200
0000
0000
0000
0000
0000
0000
0000
,
0310
0000
1000
0001
0010
0000
0100
0000
0000
0000
1000
0000
0010
0000
0100
0000
,
0000
0000
0010
0100
0001
0000
0010
0000
0000
0000
0100
0000
1001
0000
0000
0000
,
1000
0000
0001
0010
0100
0000
0010
0000
0000
0000
0001
0000
0100
0000
0010
0000
,
0000
0000
0100
0010
1000
0000
0001
0000
0010
0100
1000
0000
0011
0000
0000
0000
;
