#TITLE:Insomniac Nights;
#SUBTITLE:;
#ARTIST:Relect;
#TITLETRANSLIT:;
#SUBTITLETRANSLIT:;
#ARTISTTRANSLIT:;
#GENRE:;
#CREDIT:;
#MUSIC:Insomniac Nights.ogg;
#BANNER:;
#BACKGROUND:Insomniac Nights-bg.png;
#CDTITLE:;
#SAMPLESTART:85.894;
#SAMPLELENGTH:13.696;
#SELECTABLE:YES;
#OFFSET:-0.180;
#BPMS:0.000=140.000;
#STOPS:;
#BGCHANGES:;
#FGCHANGES:;

//--------------- dance-single - Pandemonium X ----------------
#NOTES:
     dance-single:
     Pandemonium X:
     Beginner:
     2:
     0,0,0,0,0:
0000
0000
0000
0000
,
0000
0000
0000
0000
,
0000
0000
0000
0000
,
0000
0000
0000
0000
,
0000
0000
0000
0000
,
0000
0000
0000
0000
,
0001
0000
0000
0000
,
0001
0000
0000
0000
,
0001
0000
0000
0000
,
0110
0000
0000
0000
,
1000
0000
0000
0000
,
0100
0000
0000
0000
,
0010
0000
0000
0000
,
0001
0000
0000
0000
,
1001
0000
0000
0000
,
0110
0000
0000
0000
,
1001
0000
0000
0000
,
0000
0000
0000
0000
,
0010
0000
0000
0000
,
0010
0000
0000
0000
,
0010
0000
0000
0000
,
0010
0000
0000
0000
,
1001
0000
0000
0000
,
0100
0000
0000
0000
,
0100
0000
0000
0000
,
0100
0000
0000
0000
,
0010
0000
0000
0000
,
1000
0000
0000
0000
,
0001
0000
0000
0000
,
0010
0000
0000
0000
,
0100
0100
0100
0100
,
1000
0000
0000
0000
,
0001
0000
0000
0000
,
0100
0000
0000
0000
,
0010
0000
0000
0000
,
0010
0000
0000
0000
,
1001
0000
0000
0000
,
0000
0000
0000
0000
,
0000
0000
0000
0000
,
0000
0000
0000
0000
,
0001
0000
0001
0000
,
0001
0000
0001
0000
,
1000
0000
1000
0000
,
1000
0000
1001
0110
,
0010
0000
0010
0000
,
0010
0000
0010
0000
,
0100
0000
0100
0000
,
0100
0000
0100
0000
,
0001
0000
0000
0000
,
1000
0000
0000
0000
,
0100
0000
0000
0000
,
0010
0000
0000
0000
,
0001
0000
0000
0000
,
1000
0000
0001
1000
,
0001
0000
0000
0000
,
0100
0000
0000
0000
,
0110
0000
0000
0000
,
1001
0000
0000
0000
,
1000
0000
1000
0000
,
1000
0000
0000
0000
,
0001
0000
0001
0000
,
0001
0000
0000
0000
,
0110
0000
0000
0000
,
1001
0000
0000
0000
,
0110
0000
0010
0000
,
0100
0000
0000
0000
,
1001
0000
0000
0000
;

//--------------- dance-single - Pandemonium X ----------------
#NOTES:
     dance-single:
     Pandemonium X:
     Easy:
     6:
     0,0,0,0,0:
0000
0000
0000
0000
,
0000
0000
0000
0000
,
0000
0000
0000
0000
,
0000
0000
0000
0000
,
0000
0000
0000
0000
,
0000
0000
0000
0000
,
0002
1003
0010
0000
,
0100
0001
0010
0000
,
0100
1000
0001
0000
,
0220
0000
0000
0330
,
0100
0010
1000
0000
,
0001
1000
0100
0000
,
0010
0001
1000
0000
,
0001
1000
0100
0000
,
0110
0000
0000
0100
0000
0000
0000
0000
,
0011
0000
0000
0001
0000
0000
0000
0000
,
1010
0010
0100
0001
,
2002
0000
0000
3003
,
0001
1000
0001
1000
,
0010
0100
0010
0100
,
0001
0010
0001
0010
,
0100
1000
0100
1000
,
0101
0001
1000
0010
,
1000
0001
0100
0001
,
0010
0100
0010
0001
,
2000
0000
0000
0000
,
3001
0100
0000
0010
,
1000
0100
0000
0010
,
0100
1000
0000
0001
,
1000
0010
1000
0001
,
0012
0023
0230
2300
,
3001
1000
0010
1000
,
0001
0010
0001
0100
,
0220
0000
0000
0330
,
0002
0000
0000
0003
,
2000
0000
0000
3001
,
2000
0002
0000
0000
,
0000
0000
0000
3003
,
0220
0000
0000
0000
,
0000
0000
0000
0330
,
0001
0000
1000
0001
,
1000
0010
1000
0100
,
1000
0001
0100
0001
,
0010
0100
1100
0011
,
1001
0001
1000
0010
,
1000
0100
1000
0001
,
0100
0010
1000
0010
,
0100
0001
0010
0100
,
0020
0000
0000
0030
,
0002
0000
0000
0003
,
1000
0000
0000
0020
0000
0000
0000
0000
,
0130
0000
0000
0020
0000
0000
0000
0000
,
1030
0000
0000
0200
0000
0000
0000
0000
,
0320
0000
0000
0000
0031
0000
1000
0100
,
1000
0000
0000
0002
0000
0000
0000
0000
,
0103
0000
0000
0020
0000
0000
0000
0000
,
1030
0000
0000
0002
0000
0000
0000
0000
,
0103
0000
0000
2001
0000
0000
0000
0000
,
3010
1000
0001
0010
,
0001
1000
0100
1000
,
0010
0100
0001
0010
,
0100
0010
0001
1000
,
0202
0000
0000
0303
,
2020
0000
0000
3030
,
2200
3300
0022
0033
,
0001
0000
0000
1000
0000
0000
0001
0000
0000
0000
1000
0000
0001
0000
1000
0000
,
0010
0000
0000
0000
;

//--------------- dance-single - Pandemonium X ----------------
#NOTES:
     dance-single:
     Pandemonium X:
     Medium:
     10:
     0,0,0,0,0:
0000
0000
0000
0000
,
0000
0000
0000
0000
,
0000
0000
0000
0000
,
0000
0000
0000
0000
,
0000
0000
0000
0000
,
0000
0000
0000
0000
,
0201
0000
0000
0301
0000
0000
0001
0000
0000
0000
0000
0000
0000
0000
0000
0000
,
1000
0000
0000
1000
0000
0000
1000
0000
0000
0000
0000
0000
0000
0000
0000
0000
,
0010
0000
0000
0010
0000
0000
0010
0000
0000
0000
0000
0000
0000
0000
0000
0000
,
0110
0000
0000
1010
0000
0000
0201
0000
0000
0000
0320
0000
0000
0000
0000
0000
,
1030
0000
0000
0100
0000
0000
0010
0000
0000
0000
0000
0000
0000
0000
0000
0000
,
0100
0000
0000
1000
0000
0000
0001
0000
0000
0000
0000
0000
0000
0000
0000
0000
,
0010
0000
0000
1000
0000
0000
0001
0000
0000
0000
0000
0000
0000
0000
0000
0000
,
0010
0000
0000
0001
0000
0000
0100
0000
0000
0000
0000
0000
0000
0000
0000
0000
,
0010
0000
0000
1000
0000
0000
0100
0000
0000
0000
0010
0000
0000
0000
0001
0000
,
1000
0000
0000
0001
0000
0000
0100
0000
0000
0000
0010
0000
1000
0000
0100
0000
,
0010
0001
0100
0010
,
2002
0000
0000
0000
0000
3003
0110
0110
,
1001
0001
1000
0010
,
1000
0000
0000
0000
0001
0000
0000
0000
0010
0000
0000
0100
1000
0000
0000
0000
,
0010
0100
0001
0010
,
0001
1000
0100
0010
,
0021
0130
0010
0001
,
1000
0000
0000
0000
0010
0000
0000
0000
1000
0000
0000
0100
1000
0000
0010
0000
,
0100
0010
1000
0001
,
0010
0000
0000
0001
0000
0000
0200
0000
0000
0000
0000
0000
0000
0000
0000
0000
,
0310
1000
0001
0010
0000
0100
0010
0000
,
0100
0000
0000
1000
0000
0000
0001
0000
0000
0000
1000
0000
0010
0000
0000
0000
,
0100
0000
0010
0000
1000
0000
0001
0000
0000
0010
0000
0000
0100
0000
1000
0000
,
0001
0000
0000
0100
0000
0000
0010
0000
0000
0000
0100
0000
0010
0000
1000
0000
,
0200
2300
3002
0203
,
0310
0000
1000
0000
0001
0010
0001
0100
,
0010
0000
1000
0000
0001
1000
0100
1000
,
0002
0000
0000
0000
0003
0000
0110
0110
,
2001
0000
0000
0010
0000
0000
0002
0000
0000
0000
0000
0000
3003
0000
0000
0000
,
0102
0000
0000
1000
0000
0000
0200
0000
0000
0000
0000
0000
0303
0000
0000
0001
,
1000
0000
0000
1000
0001
0000
0000
0002
0000
0000
2000
0000
0000
0000
0000
0000
,
0000
0000
0000
3003
,
0002
0100
0100
0103
,
0020
1000
1000
1030
,
0001
0000
1000
0000
0000
0000
0001
0000
1000
0000
0000
0100
0000
0000
1000
0000
,
0010
0000
0000
0100
0000
0000
0010
0000
1000
0000
0001
0000
0010
0000
0000
0000
,
0100
0010
0001
0000
0010
0100
1000
0000
,
0100
1000
0010
0100
0101
0000
1100
0000
,
1001
0000
0001
0000
0000
0000
0010
0000
0001
0000
0000
0100
0000
0000
0001
0000
,
1000
0000
0000
0100
0000
0000
0010
0000
0100
0000
1000
0000
0001
0000
0000
0000
,
1000
0001
0100
0000
0001
1000
0010
0000
,
0100
0000
0000
0010
0000
0000
1000
0000
0001
0000
0000
0010
0000
0000
0100
0000
,
1000
0000
0000
0100
0000
0000
0020
0000
0000
0000
0100
0000
0000
0000
0000
0000
,
0031
0000
0000
0010
0000
0000
0200
0000
0000
0000
0010
0000
0000
0000
0000
0000
,
1300
0000
0000
0100
0000
0000
0010
0000
0000
0000
0001
0000
0100
0000
0001
0000
,
0010
0000
0000
0100
0000
0000
1000
0000
0000
0000
0100
0000
1000
0000
0010
0000
,
0100
0000
0000
0001
0000
0000
0010
0000
0000
0000
0001
0000
0100
0000
0010
0000
,
1000
0000
0000
0100
0000
0000
0010
0000
0110
0000
0000
0000
1001
0000
0000
0000
,
0001
0000
0000
1000
0000
0000
0010
0000
0000
0000
1000
0000
0001
0000
0010
0000
,
0100
0000
0000
0010
0000
0000
0001
0000
0000
0000
1000
0000
0100
0000
0010
0000
,
0011
0000
0000
1001
0000
0000
0110
0000
0000
0101
0000
0000
1001
0000
0000
0000
,
0002
0000
0000
2003
0000
0000
3020
0000
0000
0230
0000
0000
0000
0000
0000
0000
,
0301
0010
0001
0000
0010
0100
0010
0000
,
0100
1000
0100
0000
1000
0000
0010
0000
,
0100
0001
0100
0000
0010
1000
0010
0000
,
1000
0001
1000
0000
0001
0000
0010
0000
,
0100
0000
0000
0010
0000
0000
0001
0000
0000
0000
0010
0000
0000
0000
0100
0000
,
1000
0000
0000
0010
0000
0000
0100
0000
0000
0000
0001
0000
1000
0000
0100
0000
,
0010
0001
0100
0000
0010
1000
0001
0000
,
2000
0000
0000
3002
0000
0000
0203
0000
0000
0000
0320
0000
1000
0000
1030
0000
,
0002
0000
0000
0000
,
0003
0000
0000
0000
;

//--------------- dance-single - Pandemonium X ----------------
#NOTES:
     dance-single:
     Pandemonium X:
     Hard:
     14:
     0,0,0,0,0:
0000
0000
0000
0000
,
0000
0000
0000
0000
,
0000
0000
0000
0000
,
0000
0000
0000
0000
,
0000
0000
0000
0000
,
0000
0000
0000
0000
,
1020
0000
0000
0100
0000
0000
1030
0000
0000
0000
0001
0000
0010
0000
0100
0000
,
0010
0000
0000
0001
0000
0000
0100
0000
0000
0000
0010
0000
1000
0000
0001
0000
,
0010
0000
0000
0100
0000
0000
0010
0000
0000
0000
0001
0000
0010
0000
0100
0000
,
1100
0000
0000
0011
0000
0000
1001
0000
0000
0000
0200
0000
0000
0000
0000
0000
,
0310
1000
0100
1000
0001
0100
0001
0010
,
0001
1000
0100
0010
0001
0100
0010
1000
,
0100
0010
0100
1000
0010
0100
0001
0010
,
0001
0100
0010
1000
0010
0100
0010
1000
,
1001
0000
0000
1100
0000
0000
1020
0000
0000
0000
0200
0000
0030
0000
0310
0000
,
0110
0000
0000
1010
0000
0000
2001
0000
0000
0000
0001
0000
3001
0000
0001
0010
,
0100
1000
0100
0001
0100
0010
0001
1000
,
0201
0000
0000
0000
0000
0000
0000
0000
0310
1000
0001
0100
0010
0000
1001
0000
,
0001
0000
1000
0100
1000
0000
0100
0000
1000
0000
0001
0000
0100
0000
0000
0010
,
1000
0000
0001
0010
0001
0000
1000
0000
0001
0000
0010
0000
0100
0000
0000
1000
,
0010
0000
0100
0001
0100
0000
0001
0000
1000
0000
0001
0000
0010
0000
0000
0000
,
0100
0000
0010
0001
0010
0000
0001
0000
1000
0000
0010
0000
2000
0000
0000
0000
,
3002
0000
0013
0100
1000
0000
0100
0000
1000
0000
0010
0000
0100
0000
0000
0000
,
0010
0000
1000
0001
0010
0000
0100
0000
0010
0000
0001
1000
0010
0100
0010
0100
,
0001
0000
1000
0010
1000
0000
0010
0000
0100
0000
0001
0000
1000
0000
0001
0000
,
1001
0000
0000
0101
0000
0000
1020
0000
0000
0000
0200
0000
0030
0000
0000
0000
,
0301
1000
0100
0010
0000
0100
1000
0010
,
0100
0000
0001
0100
0000
0100
0010
1000
0000
0000
0001
0000
1000
0000
0100
0000
,
0010
0100
1000
0001
0000
0100
0001
0010
,
0100
0000
1000
0100
0000
1000
0001
0100
0000
0000
0010
0000
0100
0000
0001
0000
,
0020
0230
2300
3002
,
0103
0000
0010
1000
0100
0000
0001
0000
0100
0000
1000
0000
0001
0000
0000
0000
,
1000
0000
0001
0100
1000
0000
0100
0000
0010
0000
1000
0000
0001
0000
0000
0000
,
2100
0000
0000
0000
0000
0000
0000
0000
3010
0100
0010
0100
0010
0000
1001
0000
,
0101
0000
0000
1010
0000
0000
1100
0000
0000
0000
1001
0000
0000
0000
0000
0000
,
0101
0000
0000
1010
0000
0000
1100
0000
0000
0000
0000
0000
0001
0000
0000
1000
,
0001
0000
0000
0001
1000
0000
0000
4000
0004
0000
0000
0000
0000
0000
0000
0000
,
0000
0000
0000
3003
,
0220
0000
0000
0000
,
0000
0000
0000
0330
,
1001
0000
1000
0000
0000
0000
0100
0000
1000
0010
0000
0100
0000
0000
0001
0000
,
0010
0100
0000
0010
0000
0001
1000
0000
0010
0000
0100
0001
0000
0001
1000
0000
,
0100
0000
0010
0000
0001
0000
0010
0000
0100
1000
0000
0010
0000
0010
0100
0000
,
0001
1000
0000
0100
0000
0010
0001
0000
0100
0000
0000
0000
1001
0000
0000
0000
,
1000
0000
0100
0000
0000
0010
0001
0100
0001
1000
0000
0001
0000
0000
1000
0000
,
0010
0100
0000
0001
0000
1000
0100
1000
0001
1000
0000
0010
0000
0000
0100
0001
,
1000
0000
0100
0000
0010
0000
0100
1000
0001
0000
0000
0100
0000
0010
0100
0001
,
0000
1000
0000
0100
0000
0010
0001
0000
1000
0001
0000
1000
0000
0001
0100
0000
,
0020
0000
0000
2030
0000
0000
3200
0000
0000
0000
0010
0000
0000
0000
0000
0000
,
2300
0000
0000
3002
0000
0000
0203
0000
0000
0000
0010
0000
0000
0000
0000
0000
,
0301
0000
0000
0100
0000
0000
0020
0000
0000
0000
1030
0001
1000
0001
1000
0001
,
1000
0000
0000
0100
0000
0000
0020
0000
0000
0000
0031
0100
0001
0100
0001
0100
,
0001
0000
0000
1000
0000
0000
0002
0000
0000
0000
0103
0010
0100
0010
0100
0010
,
1000
0000
0000
0001
0000
0000
1000
0000
1100
0000
0000
0000
1001
0000
0110
0000
,
1001
0000
0000
1000
0000
0000
0002
0000
0000
0000
0103
0010
1000
0010
0100
0010
,
1000
0000
0000
0010
0000
0000
2000
0000
0000
0000
3001
0100
0010
0100
0001
0100
,
0010
0000
0100
0010
0000
0010
1000
0000
0100
0010
0000
0000
0011
0000
0000
0000
,
2100
0000
3001
0200
0000
0310
2000
0000
0000
0000
0002
0000
0000
0000
3000
0000
,
0103
0000
0000
0010
1000
0000
0001
0000
0010
0000
0100
1000
0100
1000
0100
1000
,
0100
0000
0000
1000
0010
0000
0100
0000
0001
0000
0010
0100
1000
0001
1000
0001
,
1000
0000
0000
0001
0010
0000
0001
0000
0100
0000
0001
0010
0001
0010
0001
0010
,
0001
0000
0000
1000
0100
0000
0010
0000
0100
0000
1000
0010
0100
0001
0100
0001
,
0100
0000
0000
1010
0000
0000
0101
0000
0000
0000
1001
0000
0000
0000
0000
0000
,
1100
0000
0000
0011
0000
0000
0110
0000
0000
0000
1001
0000
1000
0000
0001
1000
,
0001
0100
0010
1000
0001
0010
0100
1000
,
1100
0000
0000
0011
0000
0000
0101
0000
0000
0000
1020
0000
0100
0000
0130
0000
,
0002
0000
0000
0000
,
0003
0000
0000
0000
;

//--------------- dance-single - Pandemonium X ----------------
#NOTES:
     dance-single:
     Pandemonium X:
     Challenge:
     17:
     0,0,0,0,0:
0000
0000
0000
0000
,
0000
0000
0000
0000
,
0000
0000
0000
0000
,
0000
0000
0000
0000
,
0000
0000
0000
0000
,
0000
0000
0000
0000
,
1200
0000
0000
0310
0000
0000
0001
0000
0000
0000
1000
0010
0100
0010
1000
0010
,
0200
0000
0000
0310
0000
0000
1000
0000
0000
0000
0001
0100
0001
0010
0001
0100
,
0001
0000
0000
1000
0000
0000
0010
0000
0000
0000
1000
0010
0100
0001
0100
0010
,
1000
0000
0000
1010
0000
0000
0021
0000
0000
0000
0200
0000
0000
0000
0330
0000
,
0001
1000
0001
0000
1000
0010
1000
0000
0001
0100
0001
0000
0010
0001
0010
0000
,
0100
1000
0100
0000
1000
0010
1000
0000
0010
0100
0010
1000
0001
1000
0001
1000
,
0001
0100
0010
0000
0100
0010
1000
0000
0001
0010
0100
0000
0010
0001
1000
0000
,
0100
0010
0001
0000
0100
0010
1000
0000
0001
1000
0010
0000
1000
0100
0010
0000
,
0011
0000
0000
0101
0000
0000
0011
0000
0000
0000
1001
0000
0000
0000
0001
0000
,
1001
0000
0000
1010
0000
0000
1100
0000
0000
0000
1010
0000
1000
0000
0010
0100
,
0001
0010
0001
0010
0100
0010
0100
1000
0100
1000
0010
0100
0001
1000
0100
0010
,
0002
0000
0000
0000
0000
0000
0000
0000
0000
0000
0000
0000
1003
0010
1000
0010
0100
0001
0100
0000
0000
1001
0000
0000
,
0001
0000
1000
0100
1000
0000
0010
0000
0100
0000
0010
1000
0010
0000
0000
1000
,
0001
0000
0010
0100
0010
0000
0100
0000
0010
0000
0001
0100
0010
0000
1000
0000
,
0100
0000
0010
0001
0010
0000
0001
0000
1000
0000
0001
0100
0001
0000
0100
0000
,
0001
0000
1000
0100
1000
0000
0001
0000
0100
0000
0010
0000
2000
0000
3000
0000
,
1200
0000
0310
0001
0010
0000
0100
0000
1000
0000
0001
0100
0001
0000
0000
1000
,
0010
0000
0100
0010
0100
0000
0010
0000
1000
0000
0100
0010
0001
1000
0010
0100
,
0001
0000
0010
0100
0010
0000
0100
0000
1000
0000
0010
0000
0100
0000
0001
0000
,
0011
0000
0000
1100
0000
0000
1020
0000
0000
0000
0200
0000
0000
0000
0330
0000
,
1001
1000
0001
1000
0010
1000
0001
0000
0000
0010
0001
0100
0001
1000
0100
1000
,
0001
0000
0100
0010
0000
1000
0100
0010
0000
0100
0010
0001
0010
0100
1000
0001
,
0100
0010
1000
0010
0100
0010
1000
0001
0000
0001
1000
0100
1000
0010
1000
0010
,
0100
0010
0100
0001
0100
0010
1000
0000
0100
0010
0100
1000
0001
0100
0001
0010
,
0200
2300
3020
0230
,
0301
0000
1000
0100
0010
0000
0100
0000
1000
0010
1000
0010
0100
0001
0100
0001
,
0010
0000
0100
0010
0001
0000
0010
0000
0001
0010
0001
0010
0100
1000
0100
1000
,
0020
0000
0000
0000
0000
0000
0000
0000
0000
0000
0000
0000
0130
0001
0100
0001
1000
0010
1000
0000
0000
1001
0000
0000
,
0002
0000
0000
0023
0000
0000
0230
0000
0000
0000
1300
0100
1000
0010
0100
0001
,
0020
0000
0000
0000
0000
0000
0000
0000
0000
0230
0000
0000
0000
0000
0000
0000
0000
0000
2300
0000
0000
0000
0000
0000
0000
0000
0000
0000
0000
0000
3001
0000
0000
1000
0000
0000
0001
0000
1000
0000
0000
0000
0000
0000
0000
0000
0000
0000
,
0001
0000
0000
0000
0000
0000
0000
0000
0000
0000
0000
1000
0000
0000
0000
0000
0000
0000
0000
0000
0000
0001
0000
0000
0000
0000
0000
0000
0000
1000
0000
0000
0000
0000
0000
0000
0001
0000
0000
0000
0000
0000
1000
0000
0000
0000
0000
0001
,
0000
0000
0000
1000
0000
0000
0000
0001
0000
0000
1000
0000
0000
0001
0000
0000
1000
0000
0001
0000
1000
0000
0001
0000
1000
0000
0001
0000
1000
0000
0001
0000
1000
0000
0001
0000
1000
0000
0001
0000
1000
0000
0001
0000
1000
0000
0001
0000
,
2000
0100
0010
3001
,
0002
0000
0000
0000
0000
0000
0100
0000
0000
0000
0000
0000
0010
0000
0000
0000
0000
0000
1003
0001
1000
0001
1000
0001
,
1000
0000
0000
0000
0000
0000
0000
0000
0000
0000
0000
0000
1001
0000
0000
0000
0000
0000
0000
0000
0000
0000
0000
0000
0000
0000
0000
0000
0000
0000
0000
0000
0000
0000
0000
0000
0001
0000
0000
0000
0000
0000
1000
0000
0000
0000
0000
0000
0001
0000
0000
0000
0000
0000
0010
0000
0000
0000
0000
0000
0000
0000
0000
0000
0000
0000
0100
0000
0000
1000
0000
0000
0000
0000
0000
0000
0000
0000
0000
0000
0000
0000
0000
0000
0100
0000
0000
0000
0010
0000
0000
0000
0100
0000
0000
0000
,
1000
0000
0000
0100
0000
0000
1000
0000
0000
0010
0000
0000
0100
0000
0000
0001
1000
0000
0001
0000
1000
0000
0100
0000
0010
0000
0000
0001
0000
0000
0100
0000
0000
0001
0000
0000
0000
0000
0000
0000
0000
0000
1000
0000
0010
0000
1000
0000
,
0001
0000
0000
0000
0000
0000
1000
0000
0000
0000
0000
0000
0100
0000
0010
0000
0001
0000
1000
0000
0000
0010
0000
0000
1000
0000
0000
0010
0000
0000
0000
0000
0000
0100
0000
0000
0000
0000
0000
0000
0000
0000
0010
0000
0100
0000
0001
0000
,
0100
0000
0000
0010
0000
0000
0000
0000
1000
0000
0001
0000
1000
0000
0000
0100
0000
0000
0010
0000
0000
0000
0000
0000
2002
0000
0000
0000
0000
0000
3003
0000
0000
0000
0000
0000
MMMM
0000
0000
0000
0000
0000
0000
0000
0000
0000
0000
0000
,
0001
0000
0000
0000
0000
0000
0000
0000
0000
0000
0000
0000
1000
0000
0000
0000
0000
0000
0000
0000
0000
0000
0000
0000
0000
0000
0000
0000
0000
0000
0000
0000
0000
0000
0000
0000
0010
0000
0000
0000
0000
0000
0100
0000
0000
0000
0000
0000
0001
0000
0000
0000
0000
0000
0000
0000
0000
0000
0000
0000
0000
0000
0000
1000
0000
0000
0001
0000
0000
0000
0000
0000
0000
0000
0000
0000
0000
0000
0000
0000
0000
0000
0000
0000
0001
0000
0000
0000
0100
0000
0000
0000
0001
0000
0000
0000
,
1000
0000
0000
0010
0000
0000
0100
0000
0000
0001
0000
0000
0000
0000
0000
0010
0000
0000
0100
0000
1000
0000
0100
0000
0010
0000
0000
0100
0000
0000
1000
0000
0000
0001
0000
0000
0000
0000
0000
0000
0000
0000
0100
0000
0010
0000
0100
0000
,
0010
0000
0000
0100
0000
0000
0001
0000
0000
0000
0000
0000
1000
0000
0100
0000
1000
0000
0001
0000
0000
1000
0000
0000
0001
0000
0000
0100
0000
0000
0000
0000
0000
0010
0000
0000
0000
0000
0000
0000
0000
0000
0100
0000
0000
0001
0000
0000
,
0010
0000
0000
0100
0000
0000
0000
0000
0000
1000
0000
0000
0000
0000
0000
0100
0000
0000
0010
0000
0001
0000
1000
0000
0001
0000
0000
1000
0000
0000
0000
0000
0000
1000
0000
0000
0000
0000
0000
1000
0000
0000
0100
0000
0000
1000
0000
0000
,
0001
0100
0010
1000
0100
0010
0100
1000
,
0001
0100
0001
0010
0001
0010
0100
1000
0100
1000
0010
0100
0002
0000
0000
0000
,
0023
0000
0000
0230
0000
0000
2300
0000
0000
0000
3010
0001
0010
0100
1000
0010
,
0200
0000
0000
0302
0000
0000
2003
0000
0000
0000
3001
0100
0001
1000
0010
0100
,
0002
0000
0000
0023
0000
0000
0230
0000
0000
0000
0310
0001
0010
0001
1000
0010
,
0200
0000
0000
0320
0000
0000
2030
0000
3200
0000
0000
0300
1001
0000
1001
0000
,
1020
0000
0000
0230
0000
0000
0302
0000
0000
0000
0013
1000
0010
0100
0010
1000
,
0001
0000
0000
0010
0000
0000
0002
0000
0000
0000
0013
1000
0010
0001
0010
0100
,
1000
0000
0000
0000
0000
0000
0001
0000
0000
1001
0000
0000
0000
0000
0000
1000
0000
0000
1001
0000
0000
0000
0000
0000
0000
0000
0000
1100
0000
0000
0000
0000
0000
0000
0000
0000
0011
0000
0000
0000
0000
0000
0100
0000
1000
0000
0100
0000
,
1000
0000
0010
0200
0000
0000
0302
0000
0000
0000
2003
0000
0000
0000
0000
0000
,
3010
0100
0010
0100
0010
0000
1000
0000
0001
0010
0001
0010
0001
0000
1000
0000
,
0100
0010
0100
0010
0100
0000
1000
0000
0001
0100
0001
0100
0001
0010
0100
1000
,
0001
1000
0010
1000
0001
0000
1000
0000
0001
0100
0001
1000
0100
0010
0001
1000
,
0100
0010
0001
1000
0010
0100
0010
1000
0001
0000
1002
0000
0000
1003
0010
0100
,
0001
0000
0000
1010
0000
0000
0101
0000
0000
0000
0011
0010
0100
1000
0001
0000
,
1001
0000
0000
1100
0000
0000
0011
0000
0000
0000
1001
0000
0101
0000
0001
1000
,
0010
0100
0010
0100
0001
1000
0001
1000
0001
0010
0001
0010
0100
1000
0100
1000
,
0020
0000
0000
0000
0000
0000
0000
0000
0000
2030
0000
0000
0000
0000
0000
0000
0000
0000
3002
0000
0000
0000
0000
0000
1003
0000
0010
0000
0100
0000
0001
0000
0100
0000
0010
0000
1000
0000
0010
0000
0100
0000
0001
0000
0100
0000
0002
0000
,
2000
0000
0000
0000
,
3003
0000
0000
0000
;
