#TITLE:彙電子奏叉;
#SUBTITLE:;
#ARTIST:742;
#TITLETRANSLIT:Idenshisousa;
#SUBTITLETRANSLIT:;
#ARTISTTRANSLIT:;
#GENRE:;
#CREDIT:;
#MUSIC:Idenoshisousa.ogg;
#BANNER:;
#BACKGROUND:;
#CDTITLE:;
#SAMPLESTART:75.844;
#SAMPLELENGTH:13.372;
#SELECTABLE:YES;
#OFFSET:-0.495;
#BPMS:0.000=215.000
,316.000=212.000
,322.500=215.000
;
#STOPS:59.000=0.558
,403.500=1.395
;
#BGCHANGES:;
#FGCHANGES:;

//--------------- dance-single - Pandemonium X ----------------
#NOTES:
     dance-single:
     Pandemonium X:
     Beginner:
     4:
     0,0,0,0,0:
0000
0000
0000
0000
,
0000
0000
0000
0000
,
0000
0000
0000
0000
,
0000
0000
0000
0000
,
0000
0000
0000
0000
,
0000
0000
0000
0000
,
0000
0000
0000
0000
,
0000
0000
0000
0000
,
0001
0000
0000
0000
,
1000
0000
0000
0000
,
0010
0000
0000
0000
,
0100
0000
0000
0000
,
0010
0000
0000
0000
,
1000
0000
0000
0000
,
0000
0000
0000
0000
,
0001
0000
0000
0000
,
0000
0010
0000
0000
,
0100
0000
0000
0000
,
0000
1000
0000
0000
,
0010
0000
0000
0000
,
0000
0100
0000
0000
,
0010
0000
0000
0000
,
0000
0100
0000
0000
,
1001
0000
0000
0000
,
0000
0000
0000
0000
,
1000
0000
0000
0000
,
0000
0000
0000
0000
,
0001
0000
0000
0000
,
0010
0000
0000
0000
,
0001
0000
0000
0000
,
0100
0000
0010
0000
,
1000
0000
0000
0001
,
0001
0001
0000
0000
,
1000
0000
0000
0000
,
0010
0000
0000
0000
,
0100
0000
0000
0000
,
0010
0000
0000
0000
,
1000
0000
0001
0000
,
1000
0001
1000
0000
,
0110
0000
0000
0000
,
0010
0000
0000
0000
,
0100
0000
0000
0000
,
0001
0000
0000
0000
,
0010
0000
0000
0000
,
0100
0000
0000
0000
,
1000
0000
0000
0000
,
0010
0000
0100
0000
,
0001
0000
1000
0000
,
0010
0000
0000
0000
,
0110
0000
0000
0000
,
0000
0000
0000
0000
,
0001
0000
0000
0000
,
1000
0000
0000
0000
,
0010
0000
0000
0000
,
1000
0000
0000
0000
,
0100
0000
0000
0000
,
0010
0000
0000
0000
,
0001
0000
0000
0000
,
0100
0000
0010
0000
,
1001
0000
0000
0000
,
0001
0000
0000
0000
,
1000
0000
0000
0000
,
0010
0000
0000
0000
,
0100
0000
0000
0000
,
0010
0000
0000
0000
,
1000
0000
0000
0000
,
0001
0000
1000
0000
,
0110
0000
0000
0000
,
0100
0000
0000
0000
,
0010
0000
0000
0000
,
1000
0000
0001
0001
,
0001
0000
0000
0000
,
0010
0000
0000
0000
,
0100
0000
1000
1000
,
1000
0000
0000
0000
,
0100
0000
0000
0000
,
1000
0000
0000
0000
,
0010
0000
0000
0000
,
0100
0100
0100
0000
,
1001
0000
0000
0000
,
0000
0000
0000
0000
,
0001
0000
0000
1000
,
0000
0000
0010
0000
,
0100
0000
0000
0110
,
0000
0000
0000
0000
,
0010
0000
0000
1001
,
0000
0000
0000
0000
,
1000
0000
0000
1001
,
0000
0000
0000
0000
,
0001
0000
0000
0000
,
0000
0100
0000
0000
,
0010
0000
0000
0000
,
0001
0000
0000
0000
,
0100
0000
0000
0000
,
0010
0000
0000
0000
,
1000
0000
0000
0000
,
0001
0000
0000
0000
,
0010
0000
0000
0000
,
0100
0000
0000
0000
,
1000
0000
0100
0000
,
0010
0000
0001
0000
,
0000
0100
0000
0000
0000
0000
0000
0000
;

//--------------- dance-single - Pandemonium X ----------------
#NOTES:
     dance-single:
     Pandemonium X:
     Easy:
     8:
     0,0,0,0,0:
0000
0000
0000
0000
,
0000
0000
0000
0000
,
0000
0000
0000
0000
,
0000
0000
0000
0000
,
0000
0000
0000
0000
,
0000
0000
0000
0000
,
0000
0000
0000
0000
,
0000
0000
0000
0000
,
1000
0000
0100
0000
,
0010
0000
0001
0100
,
0010
0000
0100
0000
,
0001
0000
1000
0000
,
0001
0000
0100
0010
,
1000
0100
0020
0000
,
0000
0000
0030
0000
,
0001
0100
0001
1000
,
0000
0100
1000
0010
,
0100
0001
0010
0100
,
0000
0010
0001
0100
,
0001
1000
0100
0010
,
0000
0100
1000
0010
,
1000
0001
0010
0100
,
0000
0010
0001
0100
,
0110
0000
0000
1001
0000
0000
0000
0000
,
0001
0000
1000
0000
,
1010
0000
0000
0101
0000
0000
0000
0000
,
0001
0000
0010
0000
,
0010
0100
1000
0000
,
1000
0100
0010
0000
,
0010
0001
0100
0000
,
0100
0010
1000
0000
,
0001
1000
0010
0000
,
0110
0110
0010
0000
,
1000
0001
0010
0000
,
0100
1000
0010
0000
,
0100
0010
1000
0000
,
0001
1000
0100
0000
,
1100
0000
0101
0000
,
1000
0100
0010
0001
,
1000
0001
0100
0000
,
0010
1000
0100
0000
,
0010
0001
0100
0000
,
0010
1000
0001
0010
,
0001
0000
0000
1000
0000
0000
0000
0000
,
0010
1000
0001
0010
,
0001
1000
0010
1000
,
0001
0001
1000
1000
,
0001
1000
0010
0000
,
0100
0001
0010
0000
,
1100
0000
0000
0000
,
0000
0000
0000
0000
,
0010
0000
0001
0000
0100
0000
0000
0010
,
0000
1000
0000
0000
0001
0000
0001
0000
,
1000
0000
0100
0000
0010
0000
0000
0100
,
0000
0100
0000
0000
1000
0000
0010
0000
,
0100
0000
0010
0000
1000
0000
0000
0001
,
0000
0001
0000
0000
0010
0000
0001
0000
,
0100
0000
0010
0000
1000
0000
0000
0100
,
0000
0100
0000
0000
0010
0000
0100
0000
,
1000
0000
0100
0000
,
0010
0000
0001
0000
,
0100
0000
0010
0000
,
1000
0000
0001
0000
,
1000
1000
0100
0100
,
0010
0010
0001
0001
,
0100
0010
1000
0001
,
1000
0001
0010
0100
,
1000
1000
1000
1000
,
0001
0000
0000
0100
0000
0001
0000
0000
,
0010
0010
0010
0010
,
0100
0000
0000
1000
0000
0000
0000
0000
,
0100
0100
0100
0100
,
0010
0000
0000
0001
0000
0000
0100
0000
,
0010
1000
0001
0010
,
0001
1000
0010
1000
,
0001
0001
0001
0001
,
1000
0000
0000
0010
0000
0000
0000
0000
,
0100
0100
0100
0100
,
0010
0000
0000
1000
0000
0000
0000
0000
,
0100
0000
0010
0000
,
0001
0000
1000
0000
,
1001
0000
0000
0110
,
0000
0000
1001
0000
,
0020
0000
0000
0000
0000
0000
0100
0130
,
0000
0010
1000
0001
,
0010
0000
0100
0000
1000
0000
0001
0001
,
0000
1000
0001
0010
,
0100
0000
0010
0000
0001
0000
0100
0100
,
0000
0010
1000
0001
,
0010
0000
0000
0000
,
0000
0100
0010
0000
0001
0000
1000
0000
,
0110
0000
1000
0000
,
0001
0000
0100
0000
,
0010
0000
1000
0000
,
0001
0000
0010
0000
,
0001
1000
0001
0000
,
0100
0010
0100
0000
,
0001
0100
0001
0000
,
1000
0010
1000
0000
,
0001
0010
0100
1000
,
0100
0000
0010
0000
0001
0000
1000
0010
,
0000
0200
0000
0000
0000
0000
0000
0000
,
0000
0000
0000
0000
,
0000
0000
0000
0000
,
0300
0000
0000
0000
;

//--------------- dance-single - Pandemonium X ----------------
#NOTES:
     dance-single:
     Pandemonium X:
     Medium:
     12:
     0,0,0,0,0:
0000
0000
0000
0000
,
0000
0000
0000
0000
,
0000
0000
0000
0000
,
0000
0000
0000
0000
,
0000
0000
0000
0000
,
0000
0000
0000
0000
,
0000
0000
0000
0000
,
0000
0000
0000
0000
,
1000
0000
0000
0000
,
0100
0000
0000
0000
,
0001
0000
0000
0000
,
0010
0000
0000
0000
,
1000
0000
0001
0000
,
0100
0010
2000
0000
,
0000
0000
0000
3000
,
0001
0000
0100
0000
0010
0000
1000
0100
,
0000
0010
0100
0000
1000
0000
0010
0000
,
0100
0000
0001
0000
0010
0000
0100
0010
,
0000
0100
1000
0000
0010
0000
0100
0000
,
0001
0000
1000
0000
0100
0000
0010
0100
,
0000
0010
0001
0000
0100
0000
0010
0000
,
1000
0000
0001
0000
0010
0000
0100
0010
,
0000
0100
1000
0000
0010
0000
0100
0000
,
0101
0000
0000
0011
0000
0000
1100
0000
,
0100
0100
1000
1000
,
1010
0000
0000
0110
0000
0000
0101
0000
,
0001
0010
0001
1000
,
0001
0100
0001
0000
0100
0000
0010
0100
,
0010
0000
1000
0000
0001
1000
0001
0000
,
0010
0000
0100
1000
0100
0000
1000
0000
,
0010
0000
0100
0000
0001
0100
0010
1000
,
0001
0000
1000
0000
0001
0010
0001
0000
,
0101
0011
0010
0001
,
1000
0000
0010
0000
0100
0010
0100
0000
,
0010
1000
0100
0000
0010
0001
0100
0000
,
0010
0000
1000
0000
0001
1000
0001
0000
,
1000
0100
0010
0001
,
0011
0010
0110
0100
,
1100
0011
0101
1010
,
1001
0000
1000
0000
0001
0100
0000
0010
,
0000
1000
0000
0001
0010
0000
0100
0000
,
0010
0000
0001
0000
0100
0001
0000
1000
,
0000
0100
0000
0010
0100
0000
1000
0000
,
0010
0100
0002
2000
0000
0000
3003
0000
,
0010
1000
0010
0000
0100
0010
0100
0000
,
0010
1000
0010
0000
0100
0010
0100
0000
,
0010
0010
0100
0100
,
0101
0000
0011
0000
0001
0010
0000
0100
,
0000
0010
0001
0000
0101
0000
1100
0000
,
0002
0000
0000
0000
,
0000
0000
0000
0000
,
1003
0000
0010
0000
0100
0000
0001
0010
,
0000
1000
0000
0010
0001
0000
1001
0000
,
0001
0000
0010
0000
0100
0000
1000
0001
,
0000
1000
0000
0010
0100
0000
1001
0000
,
1000
0000
0010
0000
0100
0000
0001
0010
,
0000
1000
0000
0010
0001
0000
1001
0000
,
0001
0000
1000
0000
0010
0000
0100
1000
,
0000
0100
0000
0100
0001
0000
0011
0000
,
0001
0010
0001
0100
0001
0000
0000
0000
,
1000
0000
0100
0000
,
0010
0100
1000
0010
0100
0000
0000
0000
,
0010
0000
1000
0001
,
1001
0001
1001
1000
,
1001
0001
1001
1000
,
1001
0001
1001
1000
,
1001
0000
1000
0000
0001
0100
0010
1000
,
0001
0010
0100
1000
,
0100
1000
0010
0100
0000
0001
0000
0000
,
0010
0001
0100
0010
,
1000
0100
0010
0001
1000
0001
1000
0001
,
1000
0001
0100
0001
,
0010
0001
0100
0010
0000
0100
0000
0010
,
1000
0000
0001
0000
1000
0100
0001
0100
,
1000
0010
0100
0001
0000
1000
0010
0000
,
0100
0010
1000
0001
,
1000
0100
0010
0100
0000
1000
0010
0000
,
0100
0010
1000
0001
,
0010
0100
0010
0001
0000
0010
0001
0000
,
0100
0010
1000
0001
,
1000
0100
0010
0001
0000
0000
0000
0000
,
1001
0000
0000
1010
,
0000
0000
0101
0000
,
0002
0000
0000
0000
0000
0000
1000
1003
,
0000
0010
1000
0001
,
0010
0000
0100
0000
1000
0000
0001
0001
,
0000
1000
0001
0100
,
0010
0000
1000
0000
0100
0000
0010
0010
,
0000
0100
1000
0010
,
0100
0000
0001
0000
0010
0000
0100
0100
,
0000
0010
0010
0000
0011
0000
1100
0000
,
1001
1000
0001
0010
,
0001
0100
0001
0100
,
0010
1000
0001
0010
,
0001
1000
0100
0010
,
0100
0000
1000
0000
0010
1000
0010
0000
,
0100
0000
0001
0000
0010
0001
0010
0000
,
0001
0000
0100
0000
0010
0100
0010
0000
,
0100
0000
0001
0000
1000
0001
1000
0000
,
1001
1001
0110
0110
,
1001
0000
0110
0000
0001
0100
0010
1000
,
0200
0000
0000
0000
,
0000
0000
0000
0000
,
0000
0000
0000
0000
,
0300
0000
0000
0000
;

//--------------- dance-single - Pandemonium X ----------------
#NOTES:
     dance-single:
     Pandemonium X:
     Hard:
     16:
     0,0,0,0,0:
0000
0000
0000
0000
,
0000
0000
0000
0000
,
0000
0000
0000
0000
,
0000
0000
0000
0000
,
0000
0000
0000
0000
,
0000
0000
0000
0000
,
0000
0000
0000
0000
,
0000
0000
0000
0000
,
1000
0000
0100
0000
,
0010
0000
0100
1000
,
0010
0000
0001
0000
,
0010
0000
1000
0000
,
0001
0000
0000
0000
1000
0100
0010
0001
,
1000
0001
1000
0001
0100
0010
0100
0010
2000
0000
0000
0000
0000
0000
0000
0000
,
0002
0000
0000
3003
,
0001
0100
0010
1000
0001
0010
0100
0100
,
0000
0010
0001
0100
0001
1000
0100
0010
,
0100
0100
1000
0001
0100
0001
0010
0010
,
0000
0100
0010
0001
1000
0010
1000
0001
,
1000
1000
0100
0010
0100
1000
0001
0001
,
0000
0100
0001
0010
0100
0010
0001
1000
,
0010
0100
0001
0010
0100
1000
0001
0001
,
0000
0001
0010
0001
0010
0100
0010
0010
,
0001
1000
0010
1000
0001
0010
0001
0010
,
0001
1000
0100
1000
0001
0100
0001
0100
,
0010
0100
0001
1000
0001
0010
0100
1000
,
0001
0100
0010
1000
0001
0010
0100
0010
,
0001
1000
0010
0001
0010
1000
0001
0100
,
0001
1000
0010
0001
0010
1000
0001
0010
,
1000
0010
0001
0010
0100
1000
0010
0100
,
0010
1000
0001
0000
1000
0100
0010
0001
,
1000
0000
1001
0000
0001
0010
0001
0001
,
0001
0000
1010
0010
0100
0001
0010
0100
,
0010
0000
0110
0000
0010
0001
0000
1000
,
0010
0100
0010
1000
0001
0010
0100
1000
,
0001
0000
1100
0000
0100
0010
0000
0100
,
1000
0010
0100
0001
0010
0100
1000
0001
,
1001
0000
1010
0000
1000
1000
0001
0000
,
0001
0001
1000
0001
1000
1000
0100
0010
,
0001
0000
0010
0000
0100
0010
0000
0010
,
0100
0000
0010
0100
0010
0000
0100
1000
,
0100
0000
1000
0000
0001
1000
0000
1000
,
0001
0010
0001
0100
0010
1000
0100
0010
,
0001
0100
0010
0200
0000
0000
0000
0000
,
0310
0010
1000
0001
0010
0010
0001
1000
,
0010
0010
1000
0001
0010
0010
0100
1000
,
0001
0001
1000
0100
0100
0010
0010
0001
,
1000
0000
0100
0000
0010
0100
0000
0010
,
0001
0000
0100
0000
0010
0000
0100
0000
0001
0000
0000
0000
1000
0000
0001
0100
,
0001
0000
0010
0000
0100
0010
0001
0100
,
0010
1000
0001
0010
0000
0100
0010
0001
,
1001
0000
0101
0000
1001
0000
1000
1100
,
0000
0010
0000
0100
1100
0000
0011
0000
,
1001
0000
1010
0000
1001
0000
0001
0011
,
0000
0110
0000
0010
0011
0000
1100
0000
,
0110
0000
0010
0001
0101
0000
0001
1001
,
0000
1001
0000
0010
0110
0000
1001
0000
,
0011
0000
0010
0100
1100
0000
1000
1100
,
0000
0101
0000
0010
1001
0000
0110
0000
,
0001
0010
0001
0010
0100
1000
0010
0100
,
0010
0100
0001
0010
0100
1000
0001
1000
,
0010
0100
0010
1000
0001
0000
1000
0100
,
0010
0100
1000
0001
0010
0100
0010
0001
,
1000
0010
1100
0101
,
0001
0000
1000
0000
1010
1000
0010
0100
,
0001
0010
0100
1000
0001
0000
1000
0100
,
0010
0100
1000
0001
0100
0001
0010
0100
,
1000
0001
1000
0010
1000
0001
0010
0001
,
1000
1000
0001
1000
0000
1001
0000
1000
,
0001
0010
0001
1000
0010
1000
0001
0010
,
0100
0010
0001
1000
0100
0100
0100
0100
,
0010
0001
1000
0100
1000
0010
1000
0001
,
0010
0100
1000
0001
0000
0100
0010
1000
,
0100
0000
0010
0000
0100
0000
1000
0000
0001
0100
0001
0100
0001
0100
0001
0100
,
0001
0010
0100
1000
0000
0001
0010
0100
,
0010
0001
1000
0010
1000
0001
1000
0001
,
0010
0100
1000
0001
0000
0010
0100
1000
,
0001
1000
0100
1000
0001
0100
0001
1000
,
0001
0010
0100
1000
0000
0100
0010
0001
,
0100
0010
1000
0010
1000
0001
0010
0100
,
0010
0001
1000
0001
0000
1000
0100
0010
,
0011
0000
0001
0010
0100
0000
0110
0000
,
0100
1000
0010
0000
0101
0000
0000
0000
,
1001
0000
0000
0000
0000
0000
0110
0110
,
0000
1000
0100
0010
1000
0010
0100
1000
,
0001
0100
0010
0001
0010
0100
0001
1001
,
0000
0001
1000
0100
0001
0100
1000
0001
,
1000
0010
0100
1000
0100
0010
1000
1001
,
0000
0001
0010
0100
0001
0100
0010
0001
,
1000
1000
0001
0100
0010
0010
0100
0100
,
0000
0010
0100
0001
1000
0100
0010
0001
,
1000
0000
1000
0010
1000
0000
0001
0100
,
0001
0000
0010
0100
0010
0000
0100
1000
,
0100
0000
1000
0010
1000
0000
0001
0100
,
0001
0000
0010
0100
0010
0000
0100
1000
,
0100
0000
0100
0000
0100
0010
0001
0100
,
0010
0000
0010
0000
0010
1000
0001
1000
,
0100
0000
0100
0000
0100
0010
0001
1000
,
0010
0000
0010
0000
0010
1000
0001
0010
,
0110
1100
1010
0101
,
1001
0000
0000
0000
0110
0000
0000
0000
1000
0000
0010
0100
0001
1000
0001
0000
,
1000
0002
0020
0000
0000
0000
0000
0000
0000
0000
0000
0000
0000
0000
0000
0000
,
0000
0000
0000
0000
,
0000
0000
0033
0000
;

//--------------- dance-single - Pandemonium X ----------------
#NOTES:
     dance-single:
     Pandemonium X:
     Challenge:
     17:
     0,0,0,0,0:
0000
0000
0000
0000
,
0000
0000
0000
0000
,
0000
0000
0000
0000
,
0000
0000
0000
0000
,
0000
0000
0000
0000
,
0000
0000
0000
0000
,
0000
0000
0000
0000
,
0000
0000
0000
0000
,
0000
0000
0000
0000
0000
0000
0000
MMMM
0000
0000
0000
0000
0000
0000
0000
0000
,
0000
0000
0000
MMMM
0000
0000
0000
0000
,
0000
MMMM
0000
0000
,
0000
0000
0000
MMMM
0000
0000
0000
0000
0000
0000
0000
0000
0000
0000
0000
0000
,
0102
0000
0000
0000
1003
0100
0010
0001
,
1000
0100
0010
0001
1000
0100
0010
0001
0020
0000
0000
0000
0000
0000
0000
0000
,
0001
0000
0000
0000
0000
0000
0000
0000
0000
0000
0000
0000
0000
0030
0000
0000
,
1001
0000
1000
0000
0010
0000
0001
0000
0010
0000
1000
0001
0010
0000
1001
0000
,
0000
0100
0010
0001
0100
0001
1000
0001
,
1000
0000
0001
0000
0100
0000
1000
0000
0100
0000
0001
1000
0100
0000
1001
0000
,
0000
1000
0100
1000
0010
1000
0001
1000
,
0001
0000
0100
0000
1000
0000
0100
0000
0001
0000
1000
0010
0100
0000
1001
0000
,
0000
0001
0010
0001
0100
0010
1000
0100
,
0010
0000
0001
0000
0010
0000
1000
0000
0010
0000
0100
0010
0001
0000
1100
0000
,
0000
0100
0010
0001
0100
0010
1000
0001
,
1001
0001
0010
0011
0001
1000
0010
0100
,
0001
0010
0001
0100
0001
1000
0100
0010
,
1001
1000
0100
1100
1000
0001
0100
0010
,
1000
0100
1000
0010
1000
0001
0010
0100
,
1000
0100
0001
0100
1000
0001
1000
0010
,
0001
0010
1000
0001
1000
0100
0001
0100
,
1000
0100
0010
0001
0010
1000
0010
0001
,
0100
0010
1000
0000
1001
0000
1010
0000
,
0201
0000
0000
0000
0010
0000
0000
0000
0301
0000
0010
0000
0200
0300
0200
0300
,
0200
0000
2300
0000
3010
0100
0001
1000
,
1001
0000
1100
0000
0100
0010
0001
0100
,
0010
0000
0100
0001
1000
0001
0100
0010
,
0110
0000
0110
0000
0100
0010
1000
0000
,
0001
0010
0100
1000
0001
0001
0010
0100
,
1200
0301
0201
1300
,
0100
0010
0001
0100
0100
0010
1000
0001
,
1001
0000
0101
0000
0100
1000
0100
0001
,
2000
0100
0010
3001
,
1001
0000
1100
0000
1000
0100
0001
0100
,
1000
0010
0010
0100
0001
1000
0010
0100
,
0020
2030
0002
3003
,
0010
0010
0001
1000
0010
0010
1000
0001
,
0010
0010
0001
1000
0010
0010
1000
0001
,
1001
0110
1010
0011
,
0201
0000
0010
0000
0001
0301
0000
2001
,
0000
0000
3100
0000
1100
0000
0000
0000
0110
0000
0000
0000
0011
0000
0010
0100
,
1000
0000
0001
0001
0100
1000
0100
0001
,
1000
0100
0001
0100
0000
1000
0100
0010
,
2001
0000
0010
0000
0100
0000
3010
1020
,
0000
0001
0000
0130
0110
0000
1010
0000
,
1002
0000
0100
0000
0010
0000
0103
0201
,
0000
1000
0000
0310
0110
0000
1001
0000
,
1020
0000
0100
0100
0130
0000
0010
0210
,
0000
0001
0000
0310
2010
0000
3001
0000
,
0021
0000
0100
0100
0130
0000
0001
0021
,
0000
0130
0000
1000
2100
0000
3020
0000
,
0130
1000
0100
0001
1000
0001
0010
0100
,
1000
0100
0001
0100
1000
0100
1000
0001
,
0100
0010
0100
0001
1000
0000
1000
0010
,
0001
0010
1000
0001
1000
0001
1000
0100
,
0110
0011
0101
1010
,
1100
0110
1100
1001
,
0101
0100
0010
1000
0100
0000
0010
0100
,
1000
0010
0001
0010
1000
0001
0010
0100
,
1000
1000
0001
0010
0100
0100
0010
0001
,
0200
0000
0301
0021
0000
0230
0000
1300
,
0001
0001
0010
0100
0010
0010
0001
1000
,
0010
0000
0010
0000
0100
0000
0001
0000
2000
3000
2000
3000
2000
3000
2000
0000
,
3002
0103
0020
1030
0100
0001
0100
1000
,
0010
1000
0001
1000
0000
0100
0010
0100
,
1000
0000
0010
0000
0100
0000
0001
0000
0010
0001
0010
0001
1000
0100
1000
0100
,
0010
0001
0100
0020
0100
0000
1030
0000
,
0001
0001
0010
1000
0010
0010
0001
0100
,
0010
0001
0010
2000
0000
3100
0010
0001
,
1000
1000
0100
0001
0100
0100
1000
0010
,
0200
0302
2003
0000
,
3200
0320
0032
0203
0302
2003
3200
2300
,
3002
0023
0230
2300
0000
3001
0010
0100
,
1100
0000
0000
0011
,
0000
0000
0101
0000
,
2002
0000
0000
0000
0000
0000
0000
0000
0000
0000
0000
3003
M11M
0000
M11M
0000
,
0000
0000
0001
0100
0001
0100
0010
1000
0010
1000
0001
1000
0001
0010
0001
0010
,
0001
0100
0001
0100
0010
0100
0010
0100
0010
1000
0010
1000
0001
1000
0001
0000
,
0000
0000
1000
0100
1000
0100
0010
0100
0010
0001
0010
0001
0100
0001
0100
0010
,
1000
0001
1000
0001
0010
0001
0010
0001
0100
0001
0100
0001
0100
0010
0100
0000
,
0000
0000
0010
1000
0010
0100
0001
0100
0001
0010
0001
0010
0100
1000
0100
1000
,
0001
0001
1000
0001
1000
1000
0001
0001
,
0000
1001
1020
0000
1000
0000
0130
0000
,
1000
0100
0010
0001
0010
0100
0010
0001
1000
0100
0010
0100
,
1000
0010
0100
0001
0010
0100
1000
0100
0010
0100
1000
0010
,
0100
0001
0100
0010
1000
0010
1000
0001
1000
0001
0010
0001
,
1000
0100
1000
0001
0100
0001
1000
0010
1000
0001
0010
0001
,
1002
0000
0103
0000
0001
0100
1000
0100
,
2001
0000
3010
0000
1000
0010
0001
0010
,
2010
3100
0021
0130
,
2100
3010
0201
0310
,
1010
1000
1001
0001
0011
0010
0110
0100
,
1100
0000
1000
0000
1010
0000
0010
0000
0110
0000
0100
0010
1000
0100
0002
0000
,
0103
2000
0020
0000
0000
0000
0000
0000
0000
0000
0000
0000
0000
0000
0000
0000
,
0000
0000
0000
0000
,
0000
0000
0000
0000
,
3030
0000
0000
0000
;
