#TITLE:INSANE;
#SUBTITLE:;
#ARTIST:USAO;
#TITLETRANSLIT:;
#SUBTITLETRANSLIT:;
#ARTISTTRANSLIT:;
#GENRE:;
#CREDIT:;
#MUSIC:INSANE.ogg;
#BANNER:;
#BACKGROUND:;
#CDTITLE:;
#SAMPLESTART:59.758;
#SAMPLELENGTH:11.652;
#SELECTABLE:YES;
#OFFSET:-0.122;
#BPMS:0.000=165.000;
#STOPS:;
#BGCHANGES:;
#FGCHANGES:;

//--------------- dance-single - Pandemonium X ----------------
#NOTES:
     dance-single:
     Pandemonium X:
     Beginner:
     4:
     0,0,0,0,0:
0000
0000
0000
0000
,
0000
0000
0000
0000
,
0000
0000
0000
0000
,
0000
0000
0000
0000
,
0000
0000
0000
0000
,
0000
0000
0000
0000
,
0000
0000
0000
0000
,
0000
0000
0000
0000
,
0000
0000
0000
0000
,
0001
0000
0000
0000
,
0000
0000
0000
0000
,
1000
0000
0000
0000
,
0000
0000
0000
0000
,
0010
0000
0000
0000
,
0000
0000
0000
0000
,
0100
0000
0010
0000
,
1001
0000
0000
0000
,
0100
0000
0000
0000
,
0010
0000
0000
0000
,
1000
0000
0000
0000
,
0100
0000
0000
0010
,
0010
0000
0000
0000
,
0001
0000
0000
0000
,
0100
0000
0010
0000
,
1001
0000
0000
0000
,
1000
0000
1000
0000
,
1000
0000
1000
0000
,
0001
0000
0001
0000
,
0001
0000
0001
0001
,
0100
0000
0100
0000
,
0100
0000
0100
0000
,
0010
0000
0010
0000
,
0010
0000
0000
0000
,
0110
0000
0000
0000
,
0010
0000
0000
0000
,
1000
0000
0000
0000
,
0100
0000
0100
0000
,
0010
0000
0000
0000
,
0001
0000
0000
0000
,
1000
0000
0000
0000
,
0010
0000
0010
0000
,
0100
0000
0010
0000
,
1000
1000
1000
0000
,
0001
0000
1000
0000
,
0010
0010
0010
0000
,
0100
0000
0010
0000
,
1000
1000
1000
0000
,
0001
0000
1000
0000
,
0110
0000
1001
0000
,
0110
0000
0000
0000
,
0000
0000
0000
0000
,
0000
0000
0000
0000
,
0000
0000
0000
0001
,
0001
0000
0000
0000
,
1000
0000
0000
0000
,
0010
0000
0000
0000
,
0100
0000
0000
0000
,
0110
0000
0000
0000
,
1001
0000
0000
0000
,
0110
0000
0000
0000
,
1001
0000
0000
0000
,
0110
0000
0100
0000
,
1001
0000
0010
0000
,
1001
0000
0110
0000
,
1001
0000
0000
0000
,
0001
0000
0100
0000
,
0010
1000
0010
0000
,
1000
0000
0001
0000
,
0010
0100
0010
0000
,
0100
0000
1000
0000
,
0001
0100
0001
0000
,
1000
0000
0010
0000
,
0100
0001
0100
0000
,
0110
0000
0000
0000
,
0001
1000
0001
0000
,
0100
0000
0000
0000
,
0010
0000
0100
0000
,
0110
0000
0000
0000
,
0010
1000
0010
0000
,
1000
0000
0001
0000
,
0100
0000
0010
0000
,
1001
0000
0000
0000
;

//--------------- dance-single - Pandemonium X ----------------
#NOTES:
     dance-single:
     Pandemonium X:
     Easy:
     6:
     0,0,0,0,0:
0000
0000
0000
0000
,
0000
0000
0000
0000
,
0000
0000
0000
0000
,
0000
0000
0000
0000
,
0000
0000
0000
0000
,
0000
0000
0000
0000
,
0000
0000
0000
0000
,
0000
0000
0000
0000
,
0000
0000
0000
0000
,
0001
1000
0010
0000
,
1000
1000
1000
0000
,
0001
1000
0100
0000
,
0010
0001
0100
0000
,
0001
1000
0010
0000
,
0100
0100
0001
0000
,
1001
0001
1000
0010
,
1001
0001
1000
0010
,
1001
0001
0000
1000
,
0000
0100
0000
0010
,
0000
0001
0000
0100
,
0000
0001
0000
0101
,
1010
0000
0001
1000
,
0100
0000
0010
0100
,
1000
0100
0010
0001
,
2000
3100
0020
0031
,
1001
0001
1000
1000
,
0010
0010
0100
0010
,
1000
1000
0001
0001
,
1000
1000
1001
0110
,
0001
1000
0001
0010
,
0001
0100
0010
1000
,
0100
0100
0010
0010
,
0001
0010
0100
1000
,
0001
1000
0010
1000
,
0001
0010
0001
0001
,
0010
0001
0100
0010
,
0100
0010
1000
0001
,
1000
0100
0010
0010
,
0100
1000
0001
0001
,
0100
0010
1000
1000
,
1001
0010
1001
0100
,
0001
0100
0010
0000
,
0100
0001
1000
0000
,
0100
1000
0010
0000
,
0100
0010
1010
0001
,
0010
0100
1000
0000
,
0001
0010
0100
0000
,
0010
0001
0100
0010
,
1000
0100
0010
0001
,
1001
0000
0000
0000
,
0000
0000
0000
0000
,
0000
0000
0000
0000
,
0000
0000
0000
0110
,
1001
0000
0001
0000
,
1000
0000
0010
0000
,
1000
0000
0100
0000
,
0010
0000
0001
0000
,
0100
0001
0100
0001
,
1000
0010
1000
0010
,
1000
0100
1000
0100
,
0010
0001
0010
0001
,
1001
0000
0101
0000
,
1010
0000
1100
0000
,
0110
0110
1001
1001
,
0110
0000
1001
0000
0010
0100
0010
0000
,
1000
0001
0010
0001
,
0100
0010
2000
3000
,
0001
1000
0100
0010
,
0100
1000
0002
0003
,
0100
0010
1000
0001
,
0010
0100
0020
0030
,
0100
0010
0001
1000
,
0010
0100
0002
0003
,
1000
0001
0100
0001
,
0010
0100
2000
3000
,
0100
1000
0010
0100
,
0010
1000
1001
0110
,
0001
1000
0010
1000
,
0001
0010
0002
0003
,
0010
0001
0100
0010
,
1000
0001
0100
0010
,
1001
0000
0000
0000
;

//--------------- dance-single - Pandemonium X ----------------
#NOTES:
     dance-single:
     Pandemonium X:
     Medium:
     10:
     0,0,0,0,0:
0000
0000
0000
0000
,
0000
0000
0000
0000
,
0000
0000
0000
0000
,
0000
0000
0000
0000
,
0000
0000
0000
0000
,
0000
0000
0000
0000
,
0000
0000
0000
0000
,
0000
0000
0000
0000
,
0000
0000
0000
0000
,
1000
0001
0010
0000
,
0001
1000
0010
0000
,
1000
0001
0100
0000
,
0001
1000
0100
0000
,
1000
0100
0010
0000
,
0001
0010
0100
0000
,
0010
0001
0100
0010
,
1001
0000
0100
0000
0001
1000
0010
0000
,
1010
0000
1000
0000
0001
0010
0001
0000
,
1000
0000
0010
0000
0100
0001
0100
0000
,
0001
0000
1000
0000
0100
0010
0100
0000
,
0010
0000
0001
0000
1000
0010
1000
0000
,
1001
0000
0001
0000
1000
0010
0100
0000
,
0010
0000
1000
0000
0001
0010
0100
0000
,
0010
0000
0001
0000
0100
0010
1000
0001
,
1000
1000
0101
0011
,
1001
0001
1000
0010
,
1000
0000
0001
0000
0010
0100
1000
0000
,
0100
1000
0010
0100
,
0001
0010
0110
1001
,
1000
1010
0010
0110
,
0100
0000
0101
0000
0001
0100
0010
0000
,
0200
0000
0301
0000
0100
0010
1000
0000
,
0002
0000
2003
0000
3100
0010
0001
0000
,
1100
0000
0100
0000
1000
0010
1000
0000
,
0010
0000
0100
0000
0010
1000
0001
0010
,
0100
0010
0001
0000
0010
0000
0100
0000
,
2100
3010
0201
0310
,
0100
0010
1000
0000
0001
0000
1000
0000
,
0001
1000
0010
0000
0100
0010
1000
0001
,
0010
0100
1000
0000
0100
0000
1000
0000
,
1200
0000
1300
0000
0010
0100
0001
0000
,
1000
0001
0100
0010
,
1000
0010
0100
0001
0010
0000
0100
0000
,
0010
0001
1000
0010
,
0100
0010
1000
0100
0010
0000
0001
0000
,
0010
0001
0100
0010
,
0100
0010
1000
0001
0010
0000
0100
0000
,
1000
0000
0100
0000
1000
0010
0100
0001
,
0010
0000
0100
0000
1000
0100
0001
0000
,
1100
0000
0000
0000
,
0000
0000
0000
0000
,
0000
0000
0000
0000
,
0000
0000
0000
0101
,
0011
0000
0001
0000
1000
0001
1000
0000
,
0001
0000
1000
0000
0010
1000
0010
0000
,
1000
0000
0001
0000
0010
0100
0010
0000
,
0100
0000
1000
0000
0010
1000
0010
0000
,
1000
0000
0000
0001
0000
0000
0010
0000
0000
0100
0000
0000
1000
0000
0000
0000
,
0100
0000
0000
1000
0000
0000
0010
0000
0000
0100
0000
0000
0001
0000
0000
0000
,
1000
0000
0000
0100
0000
0000
0010
0000
0000
0001
0000
0000
0100
0000
0000
0000
,
0001
0000
0000
1000
0000
0000
0010
0000
0000
1000
0000
0000
0001
0000
0000
0000
,
1000
0001
0010
0001
,
1000
0010
1000
0001
,
1000
0001
0100
0010
,
2002
0000
0000
3003
,
0001
0100
0010
1000
,
0010
0100
0001
1000
0100
0000
0010
0000
,
0100
1000
0001
0100
,
0010
1000
0010
0100
0001
0000
0010
0000
,
0100
0010
0001
1000
,
0100
1000
0010
1000
0001
0000
0010
0000
,
0100
0010
0001
0100
,
0001
0100
0010
1000
0001
0000
0010
0000
,
0110
0100
1100
1000
,
0100
1000
0010
0100
0001
0000
0100
0000
,
0101
0100
0110
0010
,
1000
0001
1001
0110
,
0001
1001
1000
1010
,
0010
1000
0001
0010
0100
0000
0010
0000
,
0002
0100
0100
0103
,
1010
0100
0101
0010
,
1001
0000
0000
0000
;

//--------------- dance-single - Pandemonium X ----------------
#NOTES:
     dance-single:
     Pandemonium X:
     Hard:
     12:
     0,0,0,0,0:
0000
0000
0000
0000
,
0000
0000
0000
0000
,
0000
0000
0000
0000
,
0000
0000
0000
0000
,
0000
0000
0000
0000
,
0000
0000
0000
0000
,
0000
0000
0000
0000
,
0000
0000
0000
0000
,
0000
0000
0000
0000
,
0001
1000
0010
1000
,
0100
1000
0010
0100
0000
0000
0000
0000
,
0010
0100
0001
0010
,
0100
0010
0001
1000
0000
0000
0000
0000
,
0001
0100
0010
1000
,
0001
0010
0100
0010
0000
0100
0000
0000
,
0010
0000
0000
0000
0001
1000
0001
0000
1000
0001
0000
1000
0001
0000
0010
0000
,
1001
0001
1000
0010
,
1001
0000
0001
0000
0100
0010
0100
0000
,
0010
0000
1000
0000
0100
0010
0001
0000
,
0010
0000
0001
0000
1000
0010
0100
0000
,
0010
0000
1000
0000
0001
1000
1010
0000
,
0101
0000
0001
0000
0100
0100
0001
0010
,
0100
0000
0010
0000
0100
0100
1000
0100
,
0010
0000
0100
0100
1000
0010
0100
0100
,
0010
1000
0001
0010
0011
0000
1010
0000
,
1001
0001
1000
0010
,
1000
0000
0000
0000
0001
0000
0000
0000
0010
0100
0000
1000
0000
0000
0100
0000
,
1000
0010
0100
0001
,
0010
0100
2000
3001
,
1000
1010
0010
0110
,
0100
0000
0000
0000
0101
0000
0000
0000
0001
0100
0000
0010
0000
0000
0100
0000
,
0001
0000
1000
0000
0001
0010
0100
1000
,
0100
0000
1000
0000
0100
0010
0001
0000
,
1000
0000
0001
0000
1000
0000
0000
0001
0000
0000
0100
0000
0010
0000
0000
0000
,
0100
0000
0001
0000
0100
0000
0000
0010
0000
1000
0000
0100
0000
0100
0010
0000
,
0100
0000
0010
0000
0001
0000
0000
0010
0000
0000
0001
0000
0100
0000
0000
0000
,
0210
0301
1020
0130
,
0010
0000
1000
0000
0001
0000
0000
0010
0000
0000
0100
0000
1000
0000
0000
0000
,
0100
0000
1000
0000
0010
0000
0000
0100
0000
0001
0000
1000
0000
0001
1000
0000
,
0001
0000
0010
0000
0100
0000
0000
0010
0000
0000
0001
0000
0100
0000
0000
0000
,
0011
1100
0011
0101
,
1001
0001
1000
0001
0100
0000
0000
0001
,
0001
0010
0100
0020
0000
0000
0030
0000
,
0000
0010
0100
0100
1000
0000
0000
0100
,
1000
1000
0010
0100
0020
0000
1030
0000
,
0001
0100
0100
0001
0010
0000
0000
0100
,
0010
0010
0001
2000
0000
0002
3000
0000
,
0103
0000
0001
0000
0100
0010
1000
0001
,
0011
0000
1100
0000
0001
0100
0010
0000
,
1001
0000
0000
0000
,
0000
0000
0000
0000
,
0000
0000
0000
0000
,
0000
0000
0000
1010
,
0101
0000
0001
0000
0010
0010
0001
0001
,
1000
0000
0001
0000
1000
1000
0010
0010
,
0100
0000
0010
0000
1000
1000
0001
0001
,
1000
0000
0001
0100
0010
1000
0001
0010
,
0100
0000
0000
1000
0000
0000
0010
0000
0000
0100
0000
0000
0001
0000
1000
0000
,
0010
0000
0000
1000
0000
0000
0001
0000
0000
0010
0000
0000
0100
0000
0000
0000
,
0010
0000
0000
0001
0000
0000
0100
0000
0000
0010
0000
0000
1000
0000
0001
0000
,
1000
0000
0000
0100
0000
0000
0010
0000
0000
0001
0000
0000
0010
0000
0000
0000
,
0011
0100
0110
1000
,
1001
0001
1010
1000
,
1001
0011
1100
0101
,
2010
3100
0021
0130
,
1001
1000
0001
0010
1000
0010
0001
0100
,
0010
1000
0001
0010
0100
1000
0100
0000
,
1000
0100
0001
0100
1000
0010
0100
0010
,
1000
0001
0010
0100
1000
0000
0000
0000
,
1000
0001
0010
1000
0010
0001
0100
0010
,
1000
0001
0010
0100
0010
0001
1000
0000
,
0001
1000
0001
0100
1000
0100
0001
0100
,
0010
1000
0001
0020
0000
0000
0030
0000
,
0100
1100
1000
1010
,
0100
0001
1000
0002
1000
0000
0103
0000
,
0001
0011
0010
0110
,
0100
1000
0010
0000
1002
0000
0103
0000
,
0001
1000
0100
0000
0010
0100
1000
0000
,
0100
1000
0001
0200
0010
0000
0301
0000
,
1000
0001
0020
0000
0230
0000
1300
0000
,
0100
0010
0001
0010
0100
1000
0001
1000
,
1001
0001
0000
0000
0000
0000
0000
0000
;

//--------------- dance-single - Pandemonium X ----------------
#NOTES:
     dance-single:
     Pandemonium X:
     Challenge:
     15:
     0,0,0,0,0:
0000
0000
0000
0000
,
0000
0000
0000
0000
,
0000
0000
0000
0000
,
0000
0000
0000
0000
,
0000
0000
0000
0000
,
0000
0000
0000
0000
,
0000
0000
0000
0000
,
0000
0000
0000
0000
,
0000
0000
0000
0000
,
0001
0100
0100
0001
1000
0000
0000
0010
,
0100
0100
0001
2000
0000
0000
3000
0000
,
0000
1000
0100
0100
0010
0000
0000
0100
,
1000
1000
0010
0200
0000
0000
0300
0000
,
0000
0100
0001
0001
1000
0000
0000
0001
,
0010
0100
1000
0020
0000
0230
0000
0000
,
0301
0000
0000
0000
0001
0010
0001
0000
1000
0100
0000
0010
0001
0000
1000
0000
,
1001
0110
1001
0110
,
1001
0000
1000
0000
0100
0000
1000
0001
0000
0001
0100
0000
0010
0000
0000
0000
,
0100
0000
0001
0000
0010
0000
0100
0010
0000
0010
0001
0000
1000
0000
0001
1000
,
0100
0000
1000
0000
0001
0000
0100
0001
0000
0010
0100
0000
1000
0000
0000
0000
,
0100
0000
1000
0000
0010
0000
0100
0001
0000
0010
0100
0000
1100
0000
0000
0000
,
0201
0000
0320
0000
1030
1000
0001
0010
,
0200
0000
1300
0010
0100
0001
0010
0100
,
1000
0100
1000
0001
0100
0001
1000
0010
1000
0001
0010
0001
0010
0100
1000
0001
,
0100
0100
0110
1001
,
0001
0001
1000
1000
,
0010
0000
0000
0000
0010
0000
0000
0000
0100
0010
0000
0010
0000
0000
0010
0000
,
0100
0100
0001
0001
,
1000
1000
1001
0110
,
0001
1100
1000
0011
,
0001
0000
0000
0000
1100
0000
0000
0000
0001
1000
0000
1000
0000
0000
1000
0000
,
2001
0000
3100
0000
0010
0001
0100
1000
,
0200
0001
0320
2030
,
3100
0000
0010
0000
0010
0000
0000
0012
0000
0000
1000
0000
2003
0000
0000
0000
,
3010
0000
0100
0000
0100
0000
0000
1010
0000
0101
0000
1010
0000
1000
0001
0000
,
0010
0000
0100
0000
1000
0000
0000
0021
0000
0000
0100
0000
0230
0000
0000
0000
,
0320
0000
0032
0000
0103
1000
0100
0001
,
1000
0000
0100
0000
0010
0000
0000
0021
0000
0000
0130
0000
2000
0000
0000
0000
,
3010
0000
0100
0000
0010
0000
0000
1010
0000
0011
0000
1001
0000
0001
1000
0000
,
0001
0000
0100
0000
0010
0000
0000
2100
0000
0000
3001
0000
0020
0000
0000
0000
,
0130
1001
0010
1001
,
0001
0100
0010
1000
0001
0010
0100
0010
,
0001
0100
1000
0100
0001
1000
1001
0000
,
1000
0001
0010
0001
0100
0010
1000
0001
,
1000
0100
0001
0100
1100
0000
1001
0000
,
0101
0100
0001
0010
0001
0100
0010
1000
,
0001
0010
1000
0010
0001
1000
0001
0000
,
1020
0000
0130
0000
0001
0001
0101
0100
,
0010
1000
0001
0000
0010
0100
1000
0000
1001
0000
0000
0000
0110
0000
0000
0000
,
1001
0000
0000
0000
,
0000
0000
0000
0000
,
0000
0000
0000
0000
,
0000
0000
0000
0110
,
1001
0000
0001
0000
1000
1000
0001
0001
,
0010
0000
0100
0000
0010
0010
0100
0100
,
1000
0000
0100
0010
0001
0001
0100
0100
,
0010
1000
0100
0000
0010
0001
0100
0000
0010
1000
0001
0000
0100
0010
1000
0000
,
0101
0000
0000
0000
0010
1000
0001
0000
0010
0100
0000
0010
0001
0000
1000
0000
,
1002
0000
0000
0000
0013
0100
1000
0000
0100
1000
0000
0100
0010
0000
0001
0000
,
0201
0000
0000
0000
0310
1000
0001
0000
1000
0010
0000
0100
0001
0000
0010
0000
,
0210
0000
0000
0000
1300
0100
0010
0000
0100
1000
0000
0001
0100
0000
0010
0000
,
1001
0000
0001
0100
1010
0000
1000
0100
,
0011
0000
0001
0100
1010
0000
1000
0100
,
0011
0000
0000
1100
0000
0000
0101
0000
0000
1010
0000
0000
1000
0001
1000
0001
,
2000
3200
0301
1100
,
1001
1000
1100
0100
1000
0010
0110
0100
,
1000
0100
0110
0010
0100
0001
0101
0000
,
0001
1000
1010
1000
0001
0010
0011
0001
,
0100
0000
0010
0000
0110
0000
0100
0000
0010
0100
0010
0000
1001
0000
0000
0000
,
1000
0100
0110
0100
1000
0010
0110
0100
,
0010
1000
1010
1000
0001
0010
1100
1000
,
0100
0010
0011
0001
0100
0010
1010
1000
,
0100
0010
0012
0000
2003
0000
3020
0000
,
0130
0000
0010
0000
1000
0000
0000
1001
0000
0000
0001
0000
0010
0000
0100
0000
,
1000
0100
0001
0200
0000
0000
0300
0000
,
1000
0000
0010
0000
0100
0000
0000
0101
0000
0000
0001
0000
0010
0000
0100
0000
,
0010
0001
0000
1000
0010
0100
0001
1000
0002
0000
0000
0000
0010
0000
0000
0000
,
1003
0000
0100
0000
0010
0000
0000
1100
0000
0000
0100
0000
1000
0000
0001
0000
,
0010
1000
0010
0002
0000
0000
0003
0000
,
2100
3001
0021
0130
,
1001
0101
1010
1100
,
1001
0010
0000
0000
0000
0000
0000
0000
;
