#TITLE:Hero Revealed;
#SUBTITLE:;
#ARTIST:Yooh;
#TITLETRANSLIT:;
#SUBTITLETRANSLIT:;
#ARTISTTRANSLIT:;
#GENRE:;
#CREDIT:;
#MUSIC:Hero Revealed.ogg;
#BANNER:;
#BACKGROUND:;
#CDTITLE:;
#SAMPLESTART:33.905;
#SAMPLELENGTH:11.294;
#SELECTABLE:YES;
#OFFSET:-0.023;
#BPMS:0.000=170.000;
#STOPS:;
#BGCHANGES:;
#FGCHANGES:;

//--------------- dance-single - Pandemonium X ----------------
#NOTES:
     dance-single:
     Pandemonium X:
     Beginner:
     4:
     0,0,0,0,0:
0000
0000
0000
0000
,
0000
0000
0000
0000
,
0000
0000
0000
0000
,
0000
0000
0000
0000
,
0001
0000
0000
0000
,
1000
0000
0000
0000
,
0010
0000
0100
0000
,
1001
0000
0000
0000
,
0001
0000
0000
0000
,
0000
0000
0000
0000
,
1000
0000
0000
0000
,
0000
0000
0000
0000
,
0100
0000
0000
0000
,
0000
0000
0000
0000
,
0010
0000
0000
0000
,
0000
0000
0000
0000
,
1000
0000
1000
0000
,
1000
0000
0000
0000
,
0001
0000
0001
0000
,
0001
0000
0000
0000
,
0100
0000
0100
0000
,
0100
0000
0000
0000
,
0000
0000
0000
0000
,
0110
0000
0000
0000
,
0010
0000
0010
0000
,
0010
0000
0000
0000
,
1000
0000
0001
0000
,
0010
0010
0010
0000
,
0100
0000
0100
0000
,
0100
0000
0000
0000
,
1000
0000
0001
0000
,
1000
0001
1000
0000
,
0001
0000
0100
0000
,
0010
0000
0000
0000
,
0100
0000
0001
0000
,
1000
1000
1000
0000
,
0100
0000
0010
0000
,
0100
0000
0000
0000
,
1000
0000
0001
0000
,
0010
0010
0010
0000
,
0100
0000
0100
0000
,
0100
0000
0000
0000
,
0110
0000
0000
0000
,
1001
0000
0000
0000
,
0001
0000
0001
0000
,
0001
0000
0000
0000
,
0110
0000
0000
0000
,
0000
0000
0000
0000
,
1000
0000
1000
0000
,
1000
0000
0000
0000
,
0001
0000
0001
0000
,
0001
0000
0000
0000
,
0100
0000
0100
0000
,
0100
0000
0000
0000
,
0010
0000
0010
0000
,
0010
0010
0010
0000
,
1000
0000
0001
0000
,
1000
0000
0001
0000
,
1000
0000
0001
0000
,
1000
0000
0001
0000
,
1000
1000
1000
0000
,
0001
0001
0001
0000
,
0100
0100
0010
0010
,
0000
0000
0000
0000
,
1000
0000
0001
0000
,
0010
0000
0000
0000
,
0100
0000
1000
0000
,
0001
0001
0001
1000
,
0001
0000
0100
0000
,
0010
0000
0000
0000
,
1000
0000
0010
0000
,
0100
0100
0100
0000
,
0010
0000
1000
0000
,
0100
0100
0100
0000
,
0010
0000
0001
0000
,
1000
1000
0001
1000
,
0010
0000
1000
0000
,
0100
0000
0000
0010
,
1001
0000
0110
0000
,
1001
1001
0110
0000
,
1001
0000
0000
0000
;

//--------------- dance-single - Pandemonium X ----------------
#NOTES:
     dance-single:
     Pandemonium X:
     Easy:
     6:
     0,0,0,0,0:
0000
0000
0000
0000
,
0000
0000
0000
0000
,
0000
0000
0000
0000
,
0000
0000
0000
0000
,
0001
0001
1000
1000
,
0001
0001
1000
1000
,
0010
0100
0001
1000
,
0000
0000
0000
0000
,
0001
0000
0001
0000
,
0001
0000
0000
0001
0000
0000
0001
0000
,
1000
0000
0000
0000
1000
0000
0000
1000
,
0000
1000
0001
0100
,
0010
0000
0010
0000
,
0010
0000
0000
0010
0000
0000
0010
0000
,
0100
0000
0000
0000
0100
0000
0000
0100
,
0000
0100
0100
0000
,
0010
0000
1000
0000
,
0001
1000
0001
0000
,
1000
0000
0100
0000
,
0010
0100
1000
0000
,
0100
0000
1000
0000
,
0010
0100
0001
1000
,
0001
1000
0001
1000
,
0001
0001
0001
1100
,
0001
0000
0100
0000
,
0010
1000
0001
0000
,
0010
0001
0100
0010
,
1000
0001
0010
0000
,
0100
0000
1000
0000
,
0100
1000
0010
0000
,
0100
0010
1000
0001
,
0010
0010
0010
0000
,
1100
0000
1001
0000
,
0101
0000
0000
0001
0000
0000
0000
0000
,
0010
0001
1000
0010
,
0100
0001
1000
0000
,
0011
0000
1010
0000
,
0110
0000
0000
0100
0000
0000
0000
0000
,
1001
0001
1000
0010
,
1000
0001
0010
0000
,
0100
0000
1000
0000
,
0001
0000
0000
0000
,
0200
0000
0300
0000
,
0020
0000
0000
0030
,
1000
0000
0001
0000
,
1000
0001
0010
0000
,
2002
0000
0000
0000
,
0000
0000
0000
3003
0000
0000
0000
0000
,
0001
0001
1000
1000
,
0001
1000
0001
0000
,
0100
0100
0010
0010
,
0100
0010
0100
0000
,
0001
0001
0100
0100
,
1000
0100
0001
0000
,
1000
1000
0001
0001
,
0010
1000
0010
0000
,
0100
0000
1000
0000
,
0010
0000
0100
0000
,
0001
0000
0010
0000
,
0100
0000
1000
1001
,
0001
0001
1000
1000
,
0010
0010
0100
0100
,
0001
0100
0010
1000
,
0000
0000
0000
0000
,
0001
0000
1000
0000
,
0100
1000
0001
0000
,
0100
0010
1000
0001
,
0010
0100
0010
0010
,
0001
0000
0100
0000
,
0001
1000
0100
0000
,
0010
0100
1000
0001
,
1000
1000
1000
0001
,
1000
0000
0010
0000
,
0100
0010
1000
0000
,
0001
0010
0100
0010
,
0001
1000
0001
0001
,
0101
0000
1100
0000
,
0100
1000
0010
0100
,
0001
0100
0010
1000
,
0001
0010
0100
0000
,
1001
0000
0000
0000
;

//--------------- dance-single - Pandemonium X ----------------
#NOTES:
     dance-single:
     Pandemonium X:
     Medium:
     10:
     0,0,0,0,0:
0000
0000
0000
0000
,
0000
0000
0000
0000
,
0000
0000
0000
0000
,
0000
0000
0000
0000
,
0002
0103
0020
1030
,
0002
0103
0020
1030
,
0002
0013
0200
1300
,
1001
0000
0000
0000
,
0001
0000
0100
0000
,
0001
0000
0000
0001
0000
0000
0001
0000
,
1000
0000
0000
0000
0100
0000
0000
1000
,
0000
0010
0100
0001
,
1000
0000
0100
0000
,
0010
0000
0000
0010
0000
0000
0010
0000
,
0001
0000
0000
0000
1000
0000
0000
1000
,
0000
0000
0001
0000
1000
0000
0000
0001
,
0100
0000
0000
0001
1000
0000
0000
0001
,
0010
0000
0100
1000
0000
0000
0000
0100
,
1000
0010
0100
0001
,
1000
0000
0001
0010
0100
0000
0000
0010
,
0001
0000
0000
0010
0100
0000
0000
0010
,
0001
0000
0100
0010
0000
0000
1000
0000
,
1000
1000
1000
1000
,
1001
0110
1001
0110
,
0001
0000
0000
1000
0010
0000
0000
0100
,
0001
0010
0100
1000
0000
0000
0000
0100
,
1000
0001
0100
0001
,
0010
0000
0100
1000
0010
0000
0000
0100
,
0001
0000
0000
0010
0100
0000
0000
0010
,
0001
1000
0010
0100
0000
0000
0000
0010
,
0100
0000
0001
0000
1000
0000
0001
1000
,
0000
1000
0100
0010
0001
0000
0000
0010
,
0001
0000
0000
1000
0100
0000
0000
0010
,
0001
0000
0100
0010
0000
0000
0000
0100
,
0010
0000
1000
0000
0001
0000
0010
0100
,
0000
0010
0001
0100
0010
0000
0000
0100
,
0001
0000
0000
0100
0010
0000
0000
0100
,
0010
0000
1000
0001
0000
0000
0000
1000
,
0001
0000
0010
0000
0100
0000
1000
0100
,
0000
0001
0100
1000
0010
0000
0000
0000
,
0100
0100
0001
0001
,
1000
0001
0100
0001
0000
0000
0000
0000
,
2200
0000
0000
3300
,
0022
0000
0000
0033
,
0001
0100
0010
1000
,
0001
0010
0100
1000
0000
0000
0000
0000
,
0220
0000
0000
0000
,
0000
0000
0330
0000
,
0001
0001
1000
1000
,
0001
1000
0001
1000
0000
0000
0100
0010
,
1000
0000
1000
0000
0001
0000
0001
0100
,
0000
0100
0010
1000
0001
0000
0010
0000
,
0100
0100
1000
1000
,
0100
0010
0001
1000
0000
0000
0001
1000
,
0010
1000
0001
1000
,
1001
0000
0110
0000
1001
0000
0000
0001
,
0100
0000
0000
0010
1000
0000
0000
0001
,
0100
0000
0000
0010
1000
0000
0000
0001
,
0100
0000
0000
0010
1000
0000
0000
0001
,
0100
0000
0000
0010
1000
0000
1001
0000
,
1000
0100
0001
0100
,
1000
0010
0001
0010
,
1000
0010
1000
0010
0100
0001
0100
0001
,
0000
0000
0000
0000
,
1000
0000
0000
0100
1000
0000
0000
1000
,
0010
0000
0100
0001
0000
0000
0010
0100
,
1000
0100
1000
0001
,
0100
0000
0010
0100
0001
0000
0100
0000
,
0010
0000
0000
1000
0001
0000
0000
0010
,
0100
0000
0010
0001
0000
0000
0010
0000
,
0001
0000
0100
0000
0010
0000
1000
0001
,
0000
0010
0100
1000
0001
0000
0100
0001
,
0100
0000
0000
0010
0100
0000
0000
0010
,
0100
0001
1000
0100
0000
0000
0010
0100
,
1000
0000
0100
0000
1000
0000
0001
0100
,
0000
0100
0010
0000
1000
0000
0001
0000
,
1001
0000
0000
1000
1001
0000
0000
0001
,
0100
1000
0100
0001
0000
0000
0100
0010
,
1000
0000
0001
0010
1000
0010
0001
0100
,
0000
0010
1000
0001
0010
0000
0000
0000
,
1100
0000
0000
0000
;

//--------------- dance-single - Pandemonium X ----------------
#NOTES:
     dance-single:
     Pandemonium X:
     Hard:
     12:
     0,0,0,0,0:
0000
0000
0000
0000
,
0000
0000
0000
0000
,
0000
0000
0000
0000
,
0000
0000
0000
0000
,
0001
0100
0002
0000
0103
0010
0200
0000
,
0310
1000
0020
0000
1030
0001
2000
0000
,
3001
0010
0100
1000
0001
0010
0100
1000
,
0020
0000
0000
0000
,
0130
0000
0010
0000
,
1000
0000
0000
1000
0000
0000
0001
0000
,
0010
0000
0000
0000
0100
0000
0000
0100
,
0000
0010
0001
1000
,
0010
0000
1000
0000
,
0001
0000
0000
0001
0000
0000
1000
0000
,
0001
0000
0000
0000
0100
0000
0000
0100
,
0000
0000
0010
0000
0100
0000
0000
0001
,
0200
0000
0300
0010
2000
0000
3000
0010
,
0100
0001
1000
0100
0000
0000
0000
0010
,
0100
0000
1000
0100
0100
0000
0010
0000
,
0100
0000
0100
0010
0001
0000
0000
0001
,
2000
0000
3000
0100
0020
0000
0030
0100
,
1000
0010
0100
0002
0000
0003
1000
0000
,
0001
0100
0010
1000
,
1001
1001
1001
0110
,
0002
0000
0003
0100
0020
0000
0030
1000
,
0100
0001
0100
2000
0000
3000
0000
0001
,
1000
0000
0001
0100
0001
0010
0100
0020
,
0000
0130
1000
0001
0100
0000
0000
0010
,
2000
0000
3000
0001
0020
0000
0030
0100
,
0010
0001
1000
0002
0000
0000
0003
1000
,
0010
0000
0100
0010
1000
0010
0100
0001
,
0000
0000
1000
0000
0100
0000
0010
0000
0001
0000
0000
0000
0000
0000
1000
0001
,
1000
0000
0000
0000
0000
0000
0001
1000
0001
0000
0000
0000
0000
0000
1000
0000
,
0001
0000
0010
0000
0001
0000
1000
0000
0000
0000
0000
0000
0000
0000
0001
1000
,
0001
0000
0001
0010
0100
1000
0001
1000
,
0000
0000
1000
0000
0001
0000
0100
0000
0010
0000
0000
0000
0000
0000
0100
0010
,
0100
0000
0000
0000
0000
0000
0001
0100
0001
0000
0000
0000
0000
0000
1000
0000
,
0001
0000
0010
0000
0001
0000
1000
0000
0000
0000
0000
0000
0000
0000
0001
1000
,
0001
0000
1000
0100
0010
0001
1000
0001
,
0000
0001
1000
0010
0100
0000
0000
0000
,
0010
0010
1000
1000
,
0001
0100
0001
0010
0000
0000
0000
0000
,
0200
0000
0000
0300
,
2000
0000
0000
3000
,
0001
1000
0010
0100
,
0001
0010
0100
0010
0000
0000
0000
0000
,
2200
0000
0000
0000
,
0000
0000
0000
3300
,
0001
0010
0001
0000
1000
0100
1000
0000
,
0001
0010
0100
1000
0000
0000
0000
0000
,
0010
1000
0010
0000
0100
0001
0100
0000
,
0010
1000
0010
0100
0001
0000
0000
0000
,
0001
0001
0100
0000
0010
0010
1000
0000
,
0001
1000
0010
1000
0000
0000
0001
1000
,
0001
0000
1000
0100
0010
0010
0001
1000
,
0000
0100
0010
0001
1000
0000
1001
1000
,
0200
0000
0300
0010
0002
0000
0003
1000
,
0200
0000
0300
0010
0002
0000
0003
1000
,
0200
0000
0300
0010
0002
0000
0003
1000
,
0200
0000
0300
0010
0002
0000
1003
0000
,
0001
0100
0010
1000
,
0001
0100
0010
1000
,
0001
0100
0010
1000
0001
0100
0010
1000
,
0000
1000
0100
0002
0000
0103
1000
0001
,
1001
0000
0000
1000
1001
0000
0000
0001
,
1001
1000
0010
1000
0000
0000
0010
1000
,
0001
0000
0001
0010
0100
1000
0100
0010
,
0000
0100
1000
0010
0100
0000
0001
0000
,
1001
0000
0000
1000
1001
0000
0000
0001
,
1001
0001
0010
0200
0000
0000
0310
0001
,
1000
0000
0100
0000
0010
0000
0001
1000
,
0000
1000
0100
0001
0100
0000
0000
1000
,
0010
0000
0100
0001
0010
0000
0100
1000
,
0010
0100
0001
0010
0000
0000
0100
0010
,
0001
0000
0010
0100
1000
0010
0100
0001
,
0000
0001
1000
0010
0100
0000
0001
0000
,
1001
0000
0000
0001
0101
0000
0000
1000
,
1100
0100
0010
0002
0000
0003
0010
0001
,
0100
0000
0010
1000
0001
0010
0100
1000
,
0000
0100
0010
0001
1000
0000
0000
0000
,
0220
0000
0000
0000
,
0330
0000
0000
0000
;

//--------------- dance-single - Pandemonium X ----------------
#NOTES:
     dance-single:
     Pandemonium X:
     Challenge:
     14:
     0,0,0,0,0:
0000
0000
0000
0000
,
0000
0000
0000
0000
,
0000
0000
0000
0000
,
0000
0000
0000
0000
,
0001
0100
0010
1000
0001
0100
0010
1000
,
0001
0010
0100
1000
0001
0010
0100
1000
,
0001
0000
0001
0000
0010
0100
0010
0100
1000
0000
1000
0000
0010
0100
0010
0100
,
0001
0000
0000
0000
0000
0000
0000
0000
1000
0100
0010
0001
1000
0000
0001
0000
,
2100
0000
3020
0000
,
2030
0000
0000
3002
0000
0000
0023
0000
,
0032
0000
0000
0000
2003
0000
0000
3020
,
0000
0230
0320
2030
,
3001
0010
0002
0100
,
2003
0000
3100
0020
0000
0031
0200
0000
,
0320
0000
1030
0000
0020
0000
0130
0002
,
0010
0000
0000
0000
0023
0000
0000
0000
0230
0000
0000
0000
0300
0000
1000
0100
,
0010
0000
0000
0000
0000
0000
0001
0010
0100
0000
0000
0000
0000
0000
0100
0000
,
0010
0000
0010
0000
0001
0000
0200
0000
0000
0000
0300
0000
0000
0000
0010
0100
,
0001
0000
1000
0100
1000
0010
0100
0001
,
0000
0000
0010
0000
0100
0000
1000
0000
0002
0000
0000
0000
0003
0000
1000
0001
,
0010
0000
0000
0000
0000
0000
0100
1000
0001
0000
0000
0000
0000
0000
0100
0000
,
0010
0010
1000
0200
0000
0300
0010
0000
,
0010
0010
0010
0010
,
1001
0000
0110
0000
1001
0000
0001
0001
,
2001
0000
0000
0000
3010
0000
0100
0010
2000
0000
0000
0000
3001
0000
0010
0000
,
1000
0000
0010
0000
0001
0000
1000
0000
0001
0000
0000
0000
0100
0000
0010
1000
,
0001
0000
0010
1000
0010
0001
1000
0010
,
0000
0000
1000
0000
0010
0000
0100
0000
0002
0000
0000
0000
1003
0000
0100
0010
,
0001
0000
0000
0000
1100
0000
1000
0100
0010
0000
0000
0000
0011
0000
0001
0000
,
0010
0000
1000
0000
0010
0000
0001
0000
1000
0000
0000
0000
0001
0000
0100
0010
,
1000
0000
0100
1000
0001
0100
0010
1000
,
0000
0000
0001
0000
0010
0000
0100
0000
2000
0000
0000
0000
0000
0000
3010
0100
,
0002
0000
0000
0000
0010
0000
0013
0100
2000
0000
0000
0000
0100
0000
3100
0000
,
0010
0000
0001
0000
0100
0000
0001
0000
1000
0000
0000
0000
0001
0000
0010
0100
,
2000
0000
3100
0001
0100
1000
0001
0200
,
0000
0000
0310
0000
1000
0000
0001
0000
1000
0000
0000
0000
1001
0000
1000
0100
,
0020
0000
0000
0000
0001
0000
0031
0010
0200
0000
0000
0000
0000
0000
0010
0000
,
0310
0000
0100
0000
1000
0000
0010
0000
1000
0000
0000
0000
0001
0000
0010
0100
,
2000
0000
3100
0001
0100
1000
0001
0200
,
0000
0310
1000
0001
0010
0000
1001
0000
,
1000
0100
1000
0000
0001
0100
0001
0000
,
1000
0100
1000
0001
0000
0000
0000
0000
,
0002
0103
0200
0310
,
0020
1030
2000
3001
,
0001
0010
0001
0000
1000
0010
1000
0000
,
0001
0010
0001
1000
0000
0000
0000
0000
,
0004
4000
0000
0000
0000
0000
0000
0000
0000
0000
0000
0000
0000
0000
0000
0000
,
0000
0000
0000
3003
,
0001
0100
0001
0000
0100
0001
1000
0000
,
1000
0001
0100
0010
0100
0000
0001
0010
,
0100
0010
0001
0100
0001
0010
0100
1000
,
0000
0001
0010
0001
1000
0000
0010
0100
,
0001
0010
0001
0000
1000
0100
1000
0000
,
0001
0010
0100
1000
0000
0000
0001
0100
,
0010
0000
1000
0100
0001
0100
1000
0001
,
0000
0000
0000
0000
0000
0000
0100
0000
0000
0000
0000
0000
0010
0000
0000
0000
0000
0000
1000
0000
0000
0000
0000
0000
0100
0000
0000
0000
0010
0000
0000
0000
0100
0000
0000
0000
0010
0000
0000
0000
0000
0000
0100
0000
0000
1000
0000
0000
,
0010
0000
0000
0000
0000
0000
0100
0001
0010
0000
0000
0000
0000
0000
0100
1000
,
0010
0000
0000
0000
0000
0000
0100
0001
0010
0000
0000
0000
0000
0000
0100
1000
,
0010
0000
0000
0000
0000
0000
0100
0001
0010
0000
0000
0000
0000
0000
0100
1000
,
0010
0000
0000
0000
0000
0000
0100
0001
0010
0000
0000
0000
0110
0000
0100
1000
,
0010
0100
0010
1000
0001
0010
0100
1000
,
0001
0010
0100
0010
0001
1000
0010
1000
,
0100
1000
0100
0000
1000
0010
1000
0000
0001
0100
0001
0000
0010
0001
0010
0000
,
0000
0100
1000
0020
0000
0130
0001
0010
,
0110
0000
0000
1000
1001
0000
0000
0001
,
1001
0000
1000
0000
0010
0000
0200
0000
0000
0000
0300
0000
0010
0000
1000
0100
,
0010
0000
0100
1000
0001
0100
0001
2000
,
0000
3100
1000
0001
0201
0000
0320
0000
,
0130
0000
0000
0100
0110
0000
0000
0010
,
0110
0000
0100
0000
0001
0000
2000
0000
0000
0000
3000
0000
0001
0000
0001
0010
,
0100
0000
0010
0001
0100
0001
0010
0200
,
0000
0000
0310
0000
0100
0000
1000
0000
0001
0000
0000
0000
1000
0010
1000
0010
,
0100
0000
0010
1000
0200
0000
0310
0001
,
0100
0000
0010
0000
1000
0000
0002
0000
0000
0000
0003
0000
0010
0000
0010
0100
,
2000
0000
3100
0001
0100
1000
0001
0200
,
0000
0310
1000
0001
2001
0000
3020
0000
,
0130
0000
0010
1000
0200
0000
0310
0001
,
0010
0000
0100
0000
1000
0000
0002
0000
0000
0000
0000
0000
1003
0000
1000
0100
,
0010
0000
1100
0100
0110
0010
0011
0002
,
0000
0000
0103
0000
0010
0000
1000
0000
0100
0010
0100
0010
0100
0000
0100
0000
,
1001
0000
0000
0000
;
