#TITLE:Hageshi Kono Yoru -Psylent Crazy Night-;
#SUBTITLE:;
#ARTIST:aran & Kobaryo;
#TITLETRANSLIT:;
#SUBTITLETRANSLIT:;
#ARTISTTRANSLIT:;
#GENRE:;
#CREDIT:;
#BANNER:Hageshi Kono Yoru -Psylent Crazy Night-.png;
#BACKGROUND:Hageshi Kono Yoru -Psylent Crazy Night--bg.png;
#LYRICSPATH:;
#CDTITLE:;
#MUSIC:Hageshi Kono Yoru -Psylent Crazy Night-.mp3;
#OFFSET:1.200000;
#SAMPLESTART:91.599998;
#SAMPLELENGTH:12.792000;
#LASTBEATHINT:0.500000;
#SELECTABLE:YES;
#BPMS:0.000000=150.000000
;
#STOPS:
;
#BGCHANGES:3.167=Hageshi Kono Yoru -Psylent Crazy Night-.mp4=1.000=1=0=1===CrossFade==,
99999=-nosongbg-=1.000=0=0=0 // don't automatically add -songbackground-
;
#KEYSOUNDS:;
#ATTACKS:;

//---------------dance-single - Pandy-Xmas----------------
#NOTES:
     dance-single:
     Pandy-Xmas:
     Beginner:
     5:
     0.151755,0.295564,0.118808,0.000000,0.013977,152.000000,135.000000,17.000000,0.000000,0.000000,0.000000,0.151755,0.295564,0.118808,0.000000,0.013977,152.000000,135.000000,17.000000,0.000000,0.000000,0.000000:
0000
0000
0000
0000
,
0000
0000
0000
0000
,
0000
0000
0000
0000
,
0000
0000
0000
0000
,
0000
0000
0000
0000
,
0000
0000
0000
0000
,
0000
0000
0000
0000
,
0000
0000
0000
0000
,
0000
0000
0000
0000
,
0000
0000
0000
0000
,
0001
0000
0000
0000
,
0000
0000
0000
0000
,
1000
0000
0000
0000
,
0110
0000
0000
0000
,
0001
0000
0000
0000
,
1000
0000
0000
0000
,
0010
0000
0000
0000
,
0100
0100
0100
0000
,
1001
0000
0000
0000
0000
0000
0000
0001
,
0000
0000
0000
0110
,
1000
0000
0000
0000
,
0001
0000
0000
0000
,
0100
0000
0000
0000
,
0010
0000
0000
0000
,
1000
0000
0000
0000
,
1001
0000
0000
0000
,
0001
0000
0000
0000
,
1000
0000
0000
0010
,
0100
0000
0000
0000
,
0001
0000
0010
0000
,
0100
0000
0000
1000
,
0010
0000
0000
0100
,
0001
0000
0010
0000
,
0100
0000
0000
0000
,
1001
0000
0000
0000
,
0000
0000
0000
0000
,
0001
0000
0100
0000
,
0010
0000
1000
0000
,
0001
0001
0001
0000
,
1000
1000
1000
0000
,
0010
0000
0100
0000
,
0001
0000
1000
0000
,
1001
0000
0000
0000
,
0010
0000
0000
0000
,
1000
0000
0000
0000
,
0100
0000
0000
0000
,
0010
0000
0001
0000
,
0100
0000
0010
0000
,
1000
0000
0001
0000
,
0110
0000
0000
0000
,
0001
1000
0010
0000
,
1000
0001
0100
0000
,
0001
0010
0100
0000
,
0010
0100
1000
0000
,
0001
1000
0010
0000
,
1000
0001
0100
0000
,
0001
0010
0100
0000
,
1001
0000
0000
0000
,
0001
1000
0010
0000
,
1000
0001
0010
0000
,
1100
0000
0101
0000
,
0011
0000
1010
0000
,
0001
1000
0010
0000
,
1000
0001
0010
0000
,
1100
0000
0011
0000
,
1001
0000
0000
0000
,
0001
0100
1000
0000
,
1000
0100
0001
0000
,
1000
0000
0001
0000
,
0010
0000
0100
0000
,
1000
0100
0010
0000
,
0100
1000
0001
0000
,
0100
0001
0010
0000
,
0100
0010
0001
0100
,
0010
1000
0001
0100
,
0010
1000
0001
0010
,
1001
0000
0000
0000
,
0000
0000
0000
0000
,
0000
0000
0000
0000
,
0000
0000
0000
0000
0001
0000
0000
0000
0000
0000
0000
0000
,
0000
0000
0000
0000
,
1000
0000
0000
0000
,
0000
0000
0000
0000
0000
0000
0000
0000
0001
0000
0000
0000
,
0000
0000
0000
0000
0000
0000
0000
1000
0000
0000
0000
0000
,
0000
0000
0000
0000
0000
0000
0000
0110
0000
0000
0000
0000
;

//---------------dance-single - Pandy-Xmas----------------
#NOTES:
     dance-single:
     Pandy-Xmas:
     Easy:
     8:
     0.301513,0.472902,0.132785,0.188695,0.080370,302.000000,283.000000,19.000000,27.000000,0.000000,0.000000,0.301513,0.472902,0.132785,0.188695,0.080370,302.000000,283.000000,19.000000,27.000000,0.000000,0.000000:
0000
0000
0000
0000
,
0000
0000
0000
0000
,
0000
0000
0000
0000
,
0000
0000
0000
0000
,
0000
0000
0000
0000
,
0000
0000
0000
0000
,
0000
0000
0000
0000
,
0000
0000
0000
0000
,
0000
0000
0000
0000
,
0000
0000
0000
0000
,
1001
0001
1000
0001
,
0100
0010
0100
0010
,
1000
0010
1000
0010
,
0102
0013
0210
1300
,
1000
0100
0001
0100
,
1000
0010
0001
0010
,
1000
0001
0100
0010
,
1000
0000
0001
0100
0001
0000
0010
0000
,
1100
0000
0100
0000
1000
0000
0010
0100
,
0001
0010
0100
1001
,
0001
1000
0010
0100
,
0002
0000
0000
0000
,
1003
0100
1000
0000
0010
0000
0100
0000
,
0001
0010
1000
0010
,
0001
0100
0001
0000
0100
0000
0010
0000
,
1001
0000
0000
0001
0000
0100
0000
0020
0000
0000
0000
0000
1000
0000
0000
0000
,
0130
0000
0110
0000
0010
1000
0001
0000
,
0010
0000
0100
0000
1000
0000
0100
1000
,
0010
0000
0110
0000
0100
0010
1000
0000
,
0001
0000
0000
0000
1001
0000
0000
0001
0000
1000
0000
0010
0000
0000
0000
0000
,
0100
0000
0101
0000
0001
0000
0010
0100
,
1000
0000
1100
0000
0100
0000
0010
0001
,
0100
0000
0010
0100
0001
0000
1000
0000
,
0001
0100
0010
1000
,
1001
1000
0200
0300
,
1001
1000
0200
0300
,
1000
0000
0010
0000
,
0001
0000
0010
0000
,
1000
0001
0200
0300
,
0001
1000
0020
0030
,
1000
0000
0100
0000
,
0010
0000
0001
0000
,
1000
1000
0001
0001
,
0100
0100
0010
0010
,
1000
0010
1000
0010
,
0100
0001
0100
0001
,
0010
0100
1000
0100
,
0010
0001
0100
0010
,
1000
0001
0100
0010
,
2002
0000
0000
3003
,
0001
0100
0001
0000
0010
0000
0100
0000
,
1000
0100
1000
0000
0010
0000
0100
0000
,
0001
1000
0010
0000
1000
0000
0001
0000
,
0100
0000
0001
0000
0000
0000
0000
0010
0000
0100
0000
1000
0000
0000
0000
0000
,
0100
1000
0010
0000
0100
0000
0010
0000
,
1000
0001
0010
0000
0100
0000
0010
0000
,
0001
0100
0010
0000
1000
0000
0001
0000
,
1000
0010
0100
0002
0000
0000
0003
0000
,
1000
0000
1000
0100
0020
0000
0030
0000
,
0100
0000
0100
0010
0002
0000
0003
0000
,
2001
0000
3020
0000
,
0230
0000
0000
0000
0000
0000
0000
0301
0000
0000
0001
0000
0000
0001
0000
0000
,
1000
0000
1000
0010
0200
0000
0300
0000
,
0010
0000
0010
0100
0002
0000
0003
0000
,
2000
0000
0000
0000
0000
0000
0000
0000
3010
0000
0000
0100
0000
0000
0001
0000
,
1000
0000
0000
0001
0000
0000
1000
0000
0000
0001
0000
0000
0110
0000
0000
0000
,
1001
0001
0020
0030
,
0001
1000
0020
0130
,
0002
0203
2300
3200
,
0301
1000
0010
1000
,
0001
0100
0001
0000
0010
0000
0100
0000
,
1000
0000
0100
0000
1000
0000
0000
0100
0000
1000
0000
0010
0000
0000
0000
0000
,
0100
0010
0100
0000
0010
0000
1000
0000
,
0001
1000
0010
0000
0100
0001
0010
0000
,
0100
0010
0001
0000
0010
0100
1000
0000
,
0001
0100
0010
1000
0001
0100
0010
1000
,
2002
0000
0000
0000
,
0000
0000
0000
0000
,
3003
0000
0000
0000
,
0000
0000
0000
0000
1000
0000
0000
0000
0000
0000
0000
0000
,
0000
0000
0001
0000
0000
0000
0000
0000
0000
0000
0000
0000
,
0100
0000
0000
0000
0000
0000
0000
0000
0000
0000
0010
0000
,
0000
0000
0000
0000
0000
0000
0000
0000
0100
0000
0000
0000
,
0000
0000
0000
0000
0000
0000
0000
0010
0000
0000
0000
0000
,
0000
0000
0000
0000
0000
0000
0000
1001
0000
0000
0000
0000
;

//---------------dance-single - Pandy-Xmas----------------
#NOTES:
     dance-single:
     Pandy-Xmas:
     Medium:
     13:
     0.406343,0.638418,0.146763,0.244605,0.297020,407.000000,386.000000,21.000000,35.000000,0.000000,0.000000,0.406343,0.638418,0.146763,0.244605,0.297020,407.000000,386.000000,21.000000,35.000000,0.000000,0.000000:
0000
0000
0000
0000
,
0000
0000
0000
0000
,
0000
0000
0000
0000
,
0000
0000
0000
0000
,
0000
0000
0000
0000
,
0000
0000
0000
0000
,
0000
0000
0000
0000
,
0000
0000
0000
0000
,
0000
0000
0000
0000
,
0000
0000
0000
0000
,
1001
0001
1000
0001
,
0100
0001
0100
0010
,
1000
0100
1000
0100
,
1000
0000
0000
0000
0001
0000
0000
0100
0000
0000
0010
0000
1000
0000
0000
0000
,
0001
0010
0000
0001
0100
0000
0010
1000
,
0000
0100
0010
0000
0100
1000
0000
0001
,
0100
0010
1000
0001
,
0100
0000
0001
0100
0001
0000
0100
0000
0010
1000
0010
0000
0200
0000
0000
0000
,
0301
0000
0010
0000
0001
0000
1000
0100
,
0010
0100
1000
1001
,
0100
0001
0010
0100
,
0020
0031
0200
0310
,
0100
0001
0010
0000
0100
0000
1100
0000
,
0100
1000
0010
0001
0010
1000
0001
0000
,
0010
0100
1000
0000
0100
0000
1100
0000
,
1000
0000
0001
1000
0000
0010
0000
0200
0000
0000
0301
0000
0010
0000
0100
0000
,
1000
0000
1100
0000
1000
0010
0100
0001
,
0010
0000
0110
0000
0100
1000
0020
2030
,
3001
0000
0011
0000
0001
0100
0001
0010
,
0100
0000
0000
0000
1100
0000
0000
0100
0000
1000
0000
0010
0000
0100
0001
0000
,
0100
0000
1010
0000
1000
0001
0020
0000
,
0130
0000
0011
0000
0100
1000
1010
0101
,
0001
0000
0100
0010
1000
0001
0010
0001
,
2000
3001
0020
0130
,
1001
0100
0020
0000
,
0130
0001
0020
0000
,
0130
0000
1000
0000
,
0010
0000
0100
0000
,
0001
1000
0020
0000
,
1030
0001
0020
0000
,
0130
0000
1000
0000
,
0020
0000
0000
0000
0200
0000
0000
0330
,
1001
0001
1000
0010
,
1000
0001
0010
0001
,
1000
0001
0100
0001
,
1000
0001
1000
0100
,
0010
0001
0100
0000
0010
1000
0001
0000
,
1000
0100
0010
0000
0100
1000
0010
0000
,
0100
1000
0100
0010
1000
0001
0010
0100
,
2000
3100
0020
0031
,
1000
0000
0001
0000
0100
0001
0000
0010
0000
0001
0000
0100
0000
0010
0100
0000
,
0010
0000
1000
0000
0100
0010
0000
0100
0000
0010
0000
0100
0000
0010
0001
0000
,
1000
0000
0001
0000
1000
0100
0000
1000
0000
0100
0000
1000
0000
0100
1000
0000
,
0100
0000
1000
0000
0010
0100
0000
0010
0000
0100
0000
0100
0000
0100
0010
0000
,
1000
0000
0001
0000
0010
0001
0000
1000
0000
0001
0000
1000
0000
0001
1000
0000
,
0010
0000
1000
0000
0001
1000
0000
0001
0000
0010
0000
0001
0000
0010
0100
0000
,
1000
0000
0100
0000
1000
0100
0000
1000
0000
0010
0000
0100
0000
0001
1000
0000
,
0001
0100
0001
0100
0001
0100
0001
0000
0000
0000
0000
0000
0000
0000
0000
0000
,
1000
0000
0000
0000
0001
0100
0010
0000
2002
0000
0000
0000
3003
0000
0000
0000
,
1000
0000
0000
0000
0001
0100
0010
0000
2002
0000
0000
0000
3003
0000
0000
0001
,
0200
0000
0320
0000
,
2030
0000
0000
0000
0000
0000
0000
0001
0000
0000
0001
0000
0000
3001
0000
0000
,
1000
0000
0000
0000
0001
1000
0010
0000
2002
0000
0000
0000
3003
0000
0000
0000
,
1000
0000
0000
0000
0001
1000
0010
0000
2002
0000
0000
0000
3003
0000
0000
1000
,
0200
0000
0000
0000
0000
0000
0000
0310
0002
0000
0000
0100
0003
0000
0001
0000
,
0010
0000
0000
0010
0000
0000
0010
0000
0000
0010
0000
0000
1001
0000
0000
0000
,
0001
0000
1000
0001
0020
0000
0000
0000
,
0130
0000
0010
0001
0100
1000
0100
0001
,
1000
0001
0010
0100
,
0010
0001
0100
0010
,
1000
0001
1000
0001
0010
0100
1000
0001
,
1000
0000
0010
0000
1000
0000
0010
0100
0000
0010
0000
1000
0000
0001
1000
0000
,
0100
0010
0100
1000
0010
0100
0001
0010
,
0100
1000
0100
0000
0010
0000
0001
0000
0100
0010
0100
0000
0010
0000
1000
0000
,
0001
0010
0001
0000
0010
0000
0100
0000
1000
0100
1000
0000
0001
0000
1000
0000
,
0010
1000
0000
0010
0000
0100
0000
0001
0000
0010
0000
0100
0000
1000
0001
0000
,
0202
0000
0000
0000
,
0000
0000
0000
0000
,
0303
0000
0000
0000
,
0000
0000
0000
0000
0000
0000
0000
0000
1000
0000
0000
0000
0000
0000
0000
0000
0000
0000
0000
0000
0000
0001
0000
0000
,
0000
0000
0000
0000
0000
0000
0000
0000
0100
0000
0000
0000
0000
0000
0000
0000
0000
0000
0000
0000
0000
0000
0000
0000
0000
0000
0000
0000
0010
0000
0000
0000
0000
0000
0000
1000
0000
0000
0000
0000
0000
0000
0000
0000
0000
0000
0000
0000
,
0001
0000
0000
0000
0000
0000
0000
0000
0000
0000
0100
0000
,
0000
0000
0000
0000
0000
0000
0000
0000
0000
0000
0000
0000
0000
0000
0000
0000
0010
0000
0000
0000
0000
0000
0000
0100
,
0000
0000
0000
0001
0000
0000
0000
1000
0000
0000
0000
0000
,
0000
1000
0000
0001
0000
0000
0000
0220
0000
0000
0000
0000
,
0000
0000
0000
0000
,
0000
0000
0000
0000
,
0330
0000
0000
0000
;

//---------------dance-single - Pandy-Xmas----------------
#NOTES:
     dance-single:
     Pandy-Xmas:
     Hard:
     15:
     0.500192,0.851224,0.258582,0.405345,0.548613,501.000000,464.000000,37.000000,58.000000,0.000000,0.000000,0.500192,0.851224,0.258582,0.405345,0.548613,501.000000,464.000000,37.000000,58.000000,0.000000,0.000000:
0000
0000
0000
0000
,
0000
0000
0000
0000
,
0000
0000
0000
0000
,
0000
0000
0000
0000
,
0000
0000
0000
0000
,
0000
0000
0000
0000
,
0000
0000
0000
0000
,
0000
0000
0000
0000
,
0000
0000
0000
0000
,
0000
0000
0000
0000
,
0001
1000
0010
1000
,
0001
0010
0100
1000
,
0100
1000
0010
0100
,
0001
0000
0000
0010
0100
1000
0000
0100
0000
0010
0001
1000
0001
1000
0001
0000
,
1000
0200
0000
0310
0002
0000
0103
0020
,
0000
0130
0002
0000
1003
0020
0000
0130
,
0001
0100
1000
0100
0010
1000
0001
0010
,
0200
0000
1300
0001
0100
0000
0110
0000
0010
1000
0001
0100
0020
0000
0000
0000
,
1030
0000
0010
0000
0001
0000
0010
1000
,
0001
0010
0100
0000
0010
0000
1001
0000
,
0001
1000
0100
0010
,
0200
0000
2300
0000
3020
0000
0130
0001
,
0010
0100
1000
0001
0100
0000
0001
0000
,
0010
0001
0100
0010
1000
0000
0100
0000
,
0010
0100
1000
0001
0100
0000
0001
0000
,
1000
0000
0001
1000
0000
1100
0000
0021
0000
0000
0130
0010
0001
1000
0010
0100
,
0001
0000
0000
1000
0100
1000
0000
0020
0000
0000
0130
0000
0001
0000
0010
0000
,
0001
0000
0000
1000
0001
0100
0000
0020
0000
0000
0130
0000
0001
0000
1001
0000
,
1000
0000
0000
0100
0010
0001
0000
2000
0000
0000
3010
0000
0100
0000
0010
0000
,
1000
0000
0000
0001
0010
0100
0000
0110
0000
0011
0000
1100
0000
0100
0010
0000
,
0001
0000
0000
0100
0010
1000
0000
0002
0000
0000
0013
0000
1000
0000
0010
0000
,
0001
0000
0000
0100
0010
1000
0000
0002
0000
0000
0103
0000
1001
0000
0110
0000
,
0001
1000
0001
1000
0001
1000
0001
1000
0010
0100
0010
0100
0010
0100
0010
0100
,
0010
0000
0000
1000
0100
0010
0000
0002
0000
0000
0013
0100
1000
0010
0100
0001
,
0010
0100
2000
3000
,
0100
0010
0002
0003
,
2000
0000
3002
0000
,
0203
0000
0320
0000
,
1030
0000
0010
0100
0002
0000
0003
0000
,
1000
0000
0010
0100
0002
0000
0003
0000
,
2000
0000
3002
0000
,
0023
0000
0230
0300
,
2100
0100
0100
3100
,
0102
0100
0100
0103
,
0012
0010
0010
0013
,
1020
1000
1000
1030
,
1001
1000
0010
0100
0001
0010
1000
0010
,
0001
0100
0010
1000
0001
0100
1000
0100
,
0001
0100
0010
1000
0001
0010
0100
1000
,
0100
0000
0010
0000
0001
0100
0000
0010
0000
1000
0000
0001
0000
0010
0100
0000
,
1000
0000
0100
0000
0010
0001
0000
0100
0000
0010
0000
1000
0000
0001
0100
0001
,
1000
0000
0100
0000
0010
0100
0000
1000
0000
0010
0000
0100
0000
0010
0100
0001
,
0010
0000
0100
0000
0010
0001
0000
0100
0000
0010
0000
1000
0000
0001
0010
0100
,
1000
0000
0100
0000
1000
0010
0100
0001
0000
0101
0000
1010
0000
1000
0001
0000
,
0100
0000
1000
0000
0100
1000
0000
0010
0000
0100
0000
0010
0000
1000
0100
0000
,
0010
0000
0001
0000
0010
0100
0000
0010
0000
0001
0000
0100
0000
0010
0100
0000
,
0010
0000
0001
0000
0010
1000
0000
0001
0000
0010
0000
0100
0000
1000
0100
0000
,
0010
0001
1000
0100
0010
0001
2000
0000
0000
0000
0000
0000
0000
0000
0000
0000
,
3002
0000
0000
0000
0103
0010
1000
0000
1200
0000
0000
0000
0000
0000
0000
0000
,
0320
0000
0000
0000
0031
0010
0100
0000
2100
0000
0000
0000
0000
3000
0001
1000
,
0020
0130
0002
0013
,
0200
0000
0000
0000
0310
0000
0000
0110
0000
0000
1100
0000
0000
1001
0000
0000
,
2000
0000
0000
0000
3001
0100
0001
0000
0021
0000
0000
0000
0000
0000
0000
0000
,
0230
0000
0000
0000
0310
0001
1000
0000
0201
0000
0000
0000
0000
0000
0310
1000
,
0002
0000
0000
0000
0000
0000
1003
0100
0010
0000
0000
0100
0000
0000
1000
0000
,
1001
0000
0000
1010
0000
0000
0101
0000
0000
1001
0000
0000
0011
0000
0000
0000
,
1100
0000
1000
0100
0002
0000
0003
0000
,
1100
0000
1000
0100
0001
0100
1000
0010
,
0002
0023
0230
0302
,
2003
3200
0320
0032
,
1003
0000
0010
0000
0100
0001
0000
0010
0000
0100
0000
0010
0000
0001
1000
0000
,
0001
0000
1000
0000
0100
0010
0000
1100
0000
0011
0000
1100
0000
0100
0010
0000
,
0001
0000
0100
0000
1000
0100
0000
0001
0000
0100
0000
1000
0000
0100
0010
1000
,
0001
0000
0010
0000
1000
0010
0000
0100
0000
0010
0000
0001
0000
0010
0100
1000
,
0001
0100
0001
0010
0000
0100
0000
1000
0000
0100
0000
0010
0000
0001
0010
0100
,
1000
0001
0100
0010
1000
0001
0010
0100
0010
0001
0100
0010
1000
0001
0010
0100
,
2000
0000
0000
0000
,
0000
0000
0000
0000
,
3000
0000
0000
0000
,
0000
0000
0000
0000
0000
0000
0000
0000
0001
0000
0000
0000
0000
0000
0000
0000
0000
0000
0000
0000
0000
1000
0000
0000
,
0000
0000
0000
0000
0000
0000
0000
0000
0010
0000
0000
0000
0000
0000
0000
0000
0000
0000
0000
0000
0000
0000
0000
0000
0000
0000
0000
0000
0100
0000
0000
0000
0000
0000
0000
0001
0000
0000
0000
0000
0000
0000
0000
0000
0000
0000
0000
0000
,
1001
0000
0000
0000
0000
0000
0000
0000
0000
0000
1100
0000
,
0000
0000
0000
0000
0000
0000
0000
0000
0000
0000
0000
0000
0000
0000
0000
0000
0001
0000
0000
0000
0000
0000
0000
1000
,
0000
0000
0000
0010
0000
0000
0000
0100
0000
0000
0000
0000
,
0000
0001
0000
1000
0000
0000
0000
0220
0000
0000
0000
0000
,
0000
0000
0000
0000
,
0000
0000
0000
0000
,
0330
0000
0000
0000
;

//---------------dance-single - Pandy-Xmas----------------
#NOTES:
     dance-single:
     Pandy-Xmas:
     Challenge:
     17:
     0.629982,1.185634,0.370401,0.405345,0.803701,631.000000,578.000000,53.000000,58.000000,0.000000,0.000000,0.629982,1.185634,0.370401,0.405345,0.803701,631.000000,578.000000,53.000000,58.000000,0.000000,0.000000:
// measure 0
0000
0000
0000
0000
,  // measure 1
0000
0000
0000
0000
,  // measure 2
0000
0000
0000
0000
,  // measure 3
0000
0000
0000
0000
,  // measure 4
0000
0000
0000
0000
,  // measure 5
0000
0000
0000
0000
,  // measure 6
0000
0000
0000
0000
,  // measure 7
0000
0000
0000
0000
,  // measure 8
0000
0000
0000
0000
,  // measure 9
0000
0000
0000
0000
,  // measure 10
0001
0001
1000
1000
,  // measure 11
0010
0010
0100
0100
,  // measure 12
0001
0001
1000
1000
,  // measure 13
0101
0000
0001
0010
0001
1000
0000
0010
0000
0000
0100
0010
0100
0010
1000
0001
,  // measure 14
1000
0100
1000
0100
0010
0001
0010
0001
,  // measure 15
0100
0001
0100
0001
1000
0010
1000
0001
,  // measure 16
0010
0100
0010
0100
1000
0100
1000
0010
1000
0010
0100
0010
0100
0001
0100
0001
,  // measure 17
0040
0000
0130
1000
0001
0000
1001
0000
0004
0400
0000
0000
0000
0000
0303
0000
,  // measure 18
1010
0000
1000
0000
0100
0000
0010
0200
,  // measure 19
0300
0000
1000
0000
0001
0000
1000
0001
0010
0001
0000
0000
1010
0000
0000
0000
,  // measure 20
0010
0100
0000
0010
0000
1000
0000
0001
0010
0100
0010
0100
1000
0001
1000
0001
,  // measure 21
0100
0000
0010
0100
0001
1000
0000
1200
0000
0000
0310
0100
1000
0001
1000
0000
,  // measure 22
0101
0000
0001
0000
0010
0100
0000
0010
0000
0001
0100
0001
1000
0001
0010
0000
,  // measure 23
0001
0000
1000
0000
0010
1000
0000
0010
0100
0000
0010
0000
1000
0000
0100
0000
,  // measure 24
0010
0000
0100
0000
1000
0010
0000
0100
0000
0010
1000
0010
0100
0010
1000
0001
,  // measure 25
1000
0000
1000
0100
0000
1100
0000
0021
0000
0000
0130
1000
0001
1000
0100
0010
,  // measure 26
0001
0000
1000
0010
1000
0010
0000
0210
0000
0000
0301
0010
0001
1000
0001
0000
,  // measure 27
1000
0000
0001
1000
0001
0100
0000
1020
0000
0000
0130
0001
2000
0000
0000
0000
,  // measure 28
3100
0000
0010
0100
0010
0001
0000
2100
0000
0000
3010
0100
0001
1000
0001
0000
,  // measure 29
0010
0000
0100
0010
0001
1000
0000
0101
0000
1010
0000
0001
0100
0000
0001
0000
,  // measure 30
0010
0000
0100
0010
0100
1000
0000
1002
0000
0000
1003
0001
0020
0000
0000
0000
,  // measure 31
0130
0000
1000
0100
0010
0100
0000
0021
0000
0000
0130
0010
0001
0000
1001
0000
,  // measure 32
1000
0010
0100
0001
1000
0001
0010
0100
1000
0001
0010
0100
1000
0001
0100
0010
,  // measure 33
2000
0000
0000
0000
3002
0000
0000
0000
0403
0040
0000
0000
0000
0000
0000
0330
,  // measure 34
1001
0001
2000
0000
,  // measure 35
3001
0000
1000
0000
0001
0010
1000
0010
,  // measure 36
0011
0000
1100
0000
,  // measure 37
1010
0000
0101
0000
,  // measure 38
1001
0000
0001
0100
2000
0000
3000
0000
,  // measure 39
1001
0000
0001
0100
2000
0000
3000
0000
,  // measure 40
2100
3000
0102
0003
,  // measure 41
2001
3000
1002
0003
,  // measure 42
0101
0001
1000
0100
,  // measure 43
0001
0100
1000
0010
,  // measure 44
0001
0010
0100
0001
,  // measure 45
1000
0000
0000
0000
0100
0000
0000
0110
0000
0000
0011
0000
0000
1100
0000
0000
,  // measure 46
0001
0100
0001
0100
0001
0100
0001
0100
0001
0100
0010
1000
0001
0010
0001
1000
,  // measure 47
0001
0010
0001
0010
0001
0010
0001
0010
0001
0010
0100
1000
0001
0100
0010
1000
,  // measure 48
0004
0400
0000
0000
0000
0000
0000
0000
0000
0000
0000
0000
0000
0000
0303
0000
,  // measure 49
2000
3002
0023
0230
,  // measure 50
1300
0000
0000
0010
0000
0000
0100
0000
0000
0001
0000
0000
0010
0000
0000
0100
0000
0000
1000
0001
1000
0001
0000
0000
,  // measure 51
1000
0000
0000
0000
0000
0000
0010
0000
0000
0000
0000
0000
0100
0000
0000
0000
0000
0000
0001
0000
0000
0010
0000
0000
0000
0000
0000
1000
0000
0000
0000
0000
0000
0010
0000
0000
0001
0000
0000
0000
0000
0000
1000
0000
0001
0000
1000
0000
,  // measure 52
0001
0000
0100
0000
0010
0000
0100
0000
0001
0000
1000
0000
0100
0010
0100
0000
,  // measure 53
0010
0000
0001
0000
0010
0100
1000
0001
0000
1001
0000
0110
0000
1000
0100
0010
,  // measure 54
0100
0000
1000
0000
0100
0010
0000
0001
0000
0100
0000
0010
0000
0100
0001
1000
,  // measure 55
0100
0000
0010
0000
0100
1000
0000
0010
0000
0100
0000
0001
0000
0010
0100
1000
,  // measure 56
0001
0000
1000
0000
0010
1000
0000
0001
0000
0010
0000
0100
0000
0010
0001
1000
,  // measure 57
0200
0000
0000
0320
0000
0000
0032
0000
0000
0203
0000
0000
0320
0000
0000
2030
0000
0000
3002
0000
0000
0000
0000
0000
1003
0000
0000
0100
0000
0000
0010
0000
0001
0000
0010
0000
0001
0000
1000
0000
0001
0000
1000
0000
0000
0001
0000
0000
,  // measure 58
0200
0000
0000
0000
0310
1000
0100
0000
2100
0000
0000
0000
3010
0000
0000
0000
,  // measure 59
0120
0000
0000
0000
0000
0000
0000
0000
0000
0000
0000
0000
0130
0000
0000
0001
0000
0000
0010
0000
0000
0000
0000
0000
2100
0000
0000
0000
0000
0000
0000
0000
0000
0000
0000
0000
3001
0000
0000
0000
0000
0000
1000
0000
0010
0000
1000
0000
,  // measure 60
0020
0130
0102
0013
,  // measure 61
2100
0000
0000
0000
3001
0000
0000
1001
0000
0000
1100
0000
0000
1001
0000
0000
,  // measure 62
0201
0000
0000
0000
0310
1000
0100
0000
0120
0000
0000
0000
0031
0000
0000
0000
,  // measure 63
2100
0000
0000
0000
0000
0000
0000
0000
0000
0000
0000
0000
3100
0000
0000
1000
0000
0000
0010
0000
0000
0000
0000
0000
0210
0000
0000
0000
0000
0000
0000
0000
0000
0000
0000
0000
0301
0000
0000
0000
0000
0000
1000
0000
0001
0000
1000
0000
,  // measure 64
0002
0000
0000
0000
0000
0000
0000
0000
0000
0000
0000
0000
0103
0000
0000
0000
0000
0000
0010
0000
0100
0000
0010
0000
0200
0000
0000
0000
0000
0000
0000
0000
0000
0302
0000
0000
0000
0000
0000
0000
0000
0000
2003
0000
0000
0000
0000
0000
,  // measure 65
3100
0000
1000
0100
0000
0100
1000
0010
0100
0010
1000
0001
0020
0000
0000
0000
,  // measure 66
0130
0000
1000
0100
0002
0000
0003
0000
,  // measure 67
1001
0000
0000
0000
0001
0000
0100
0000
2000
0000
0000
0000
3000
0000
1000
0100
,  // measure 68
0002
0000
0000
0000
0023
0000
0000
0000
2030
0000
0000
0000
3010
0001
0100
0000
,  // measure 69
0020
0032
0023
2030
,  // measure 70
3001
0010
0001
0100
0010
1000
0000
0101
0000
0001
0010
0000
0100
0010
0001
1000
,  // measure 71
0010
0000
0000
0000
0000
0000
0100
0000
0000
0000
0000
0000
0010
0000
0000
1000
0000
0000
0000
0000
0000
1001
0000
0000
0000
0000
0000
0011
0000
0000
0000
0000
0000
1010
0000
0000
0000
0000
0000
0000
1000
0000
0010
0000
1000
0000
0010
0000
,  // measure 72
0100
0000
0000
0010
0000
0000
1000
0000
0000
0001
0000
0000
0010
0000
0000
0100
0000
0000
1000
0000
0001
0000
1000
0000
0001
0000
0000
0010
0000
0000
0100
0000
0000
0010
0000
0000
0001
0000
0000
0100
0000
0000
0010
0000
0000
1000
0000
0000
,  // measure 73
0100
0010
0001
0010
0001
0100
0010
1000
0001
0010
0100
1000
0100
1000
0010
0100
,  // measure 74
0001
0000
0000
0000
1000
0000
0001
0000
1000
0000
0001
0000
1000
0000
0000
0001
0000
0000
1000
0000
0001
0000
1000
0000
0001
0000
0000
1000
0000
0000
0001
0000
1000
0000
0001
0000
1000
0000
0000
0001
0000
0000
1000
0000
0001
0000
1000
0000
,  // measure 75
0001
0000
0000
0000
0000
0000
0100
0000
0001
0000
0100
0000
0001
0000
0000
0100
0000
0000
0010
0000
1000
0000
0010
0000
1000
0000
0000
0001
0000
0000
0010
0000
0100
0000
0010
0000
0100
0000
0000
1000
0000
0000
0100
0000
0000
0010
0000
0000
,  // measure 76
0002
0000
0000
0000
,  // measure 77
0000
0000
0000
0000
,  // measure 78
0003
0000
0000
0000
,  // measure 79
0000
0000
0000
0000
0000
0000
0000
0000
1000
0000
0000
0000
0000
0000
0000
0000
0000
0000
0000
0000
0000
0001
0000
0000
,  // measure 80
0000
0000
0000
0000
0000
0000
0000
0000
0010
0000
0000
0000
0000
0000
0000
0000
0000
0000
0000
0000
0000
0000
0000
0000
0000
0000
0000
0000
0100
0000
0000
0000
0000
0000
0000
1000
0000
0000
0000
0000
0000
0000
0000
0000
0000
0000
0000
0000
,  // measure 81
1001
0000
0000
0000
0000
0000
0000
0000
0000
0000
0101
0000
,  // measure 82
0000
0000
0000
0000
0000
0000
0000
0000
0000
0000
0000
0000
0000
0000
0000
0000
1000
0000
0000
0000
0000
0000
0000
0001
,  // measure 83
0000
0000
0000
0010
0000
0000
0000
0100
0000
0000
0000
0000
,  // measure 84
0000
1000
0000
0001
0000
0000
0000
0220
0000
0000
0000
0000
,  // measure 85
0000
0000
0000
0000
,  // measure 86
0000
0000
0000
0000
,  // measure 87
0330
0000
0000
0000
;
