#TITLE:Glowing In The Dark;
#SUBTITLE:;
#ARTIST:Giuseppe Ottaviani;
#TITLETRANSLIT:;
#SUBTITLETRANSLIT:;
#ARTISTTRANSLIT:;
#GENRE:;
#CREDIT:;
#MUSIC:Glowing In The Dark.ogg;
#BANNER:;
#BACKGROUND:Glowing In The Dark-bg.png;
#CDTITLE:;
#SAMPLESTART:66.068;
#SAMPLELENGTH:13.913;
#SELECTABLE:YES;
#OFFSET:1.758;
#BPMS:0.000=138.000;
#STOPS:;
#BGCHANGES:;
#FGCHANGES:;

//--------------- dance-single - ----------------
#NOTES:
     dance-single:
     Pandemonium X:
     Beginner:
     2:
     0,0,0,0,0:
0000
0000
0000
0000
,
0000
0000
0000
0000
,
0000
0000
0000
0000
,
0000
0000
0000
0000
,
0000
0000
0000
0000
,
0000
0000
0000
0000
,
0000
0000
0000
0000
,
0000
0000
0000
0000
,
0000
0000
0000
0000
,
0010
0000
0000
0000
,
0100
0000
0000
0000
,
0001
0000
0000
0000
,
1000
0000
0000
0000
,
0001
0000
0000
0000
,
1000
0000
0000
0000
,
0010
0000
0000
0000
,
0100
0000
0000
0000
,
1001
0000
0000
0000
,
0000
0000
0000
0000
,
0001
0000
0000
0000
,
1000
0000
0000
0000
,
0010
0000
0000
0000
,
1000
0000
0000
0000
,
0100
0000
0000
0000
,
1000
0000
0000
0000
,
0001
0000
0000
0000
,
0010
0000
0000
0000
,
0100
0000
0000
0000
,
0010
0000
0000
0000
,
0001
0000
0000
0000
,
1000
0000
0000
0000
,
0010
0000
0000
0000
,
0100
0000
0000
0000
,
0001
0000
0000
0000
,
1000
0000
0000
0000
,
0001
0000
0000
0000
,
1000
0000
0000
0000
,
0010
0000
0000
0000
,
0100
0000
0100
0000
,
1001
0000
0000
0001
,
0001
0000
0000
1000
,
1000
0000
0000
0010
,
0010
0000
0000
0100
,
0001
0000
0000
1000
,
1000
0000
0000
0100
,
0010
0000
0000
0001
,
0001
0000
0000
1000
,
1001
0001
0001
0000
,
1000
1000
1000
0000
,
0010
0000
0010
0000
,
0100
0000
0100
0000
,
0010
0010
0010
0000
,
0100
0100
0100
0000
,
0010
0000
1000
0000
,
0001
0000
1000
0000
,
1001
0000
0000
0000
,
0110
0000
0000
0000
,
1001
0000
0000
0000
,
0110
0000
0000
0000
,
1001
0000
0000
0000
,
0110
0000
0000
0000
,
1001
0000
0000
0000
,
0110
0000
0000
0000
,
1001
0000
0000
0000
;

//--------------- dance-single - ----------------
#NOTES:
     dance-single:
     Pandemonium X:
     Easy:
     5:
     0,0,0,0,0:
0000
0000
0000
0000
,
0000
0000
0000
0000
,
0000
0000
0000
0000
,
0000
0000
0000
0000
,
0000
0000
0000
0000
,
0001
0001
0001
0000
,
1000
1000
1000
0010
,
0100
0000
0010
0000
,
1000
0000
0001
1001
,
0001
1000
0010
0000
,
1000
0001
0010
0020
,
0031
0000
1000
0000
,
0100
0000
1000
0001
,
1000
0010
0100
0000
,
0010
0100
0001
0002
,
1003
0000
0100
0000
,
0010
0000
0100
1000
,
2002
0000
0000
0000
,
3003
0000
0000
0000
,
0001
0000
0100
0010
,
1000
0000
0001
1000
,
0100
0000
0010
0100
,
1000
0000
0010
0001
,
0100
0000
0010
1000
,
0001
0000
1000
0100
,
0010
0000
0100
1000
,
0010
0000
0100
0010
,
1000
0001
0010
0000
,
0001
1000
0010
0210
,
0301
0010
0001
1000
,
0010
0000
1000
0000
0001
1000
0001
0000
,
1000
0100
0010
0000
,
0100
1000
0010
0201
,
0310
0100
0001
0000
,
1000
0000
0001
0000
0100
0010
0100
0000
,
0010
0000
1000
0000
,
0001
0000
1000
0000
,
0100
0000
0010
0000
,
0022
0000
0000
0033
,
1100
0100
1000
0010
,
0100
0001
0010
0001
,
1000
0100
1000
0010
,
0100
0010
1000
0002
,
1003
0100
0010
0100
,
1000
0010
0100
0001
,
0010
0001
1000
0100
,
0010
0000
0100
0000
1000
0001
2000
0000
,
3001
0100
0001
0010
,
0001
1000
0010
0100
,
0010
1000
0100
0010
,
0001
0010
0100
0020
,
0031
1000
0010
1000
,
0100
0010
0100
1000
,
0001
0000
1000
0000
,
0010
0000
0100
0000
,
1001
0000
0000
0000
,
0110
0000
0000
0000
,
0101
0000
0000
0000
,
0011
0000
0000
0000
,
1001
0000
0000
0000
,
0110
0000
0000
0000
,
1010
0000
0000
0000
,
1100
0000
0000
0000
,
2002
0000
0000
0000
,
0000
0000
0000
0000
,
3003
0000
0000
0000
;

//--------------- dance-single - ----------------
#NOTES:
     dance-single:
     Pandemonium X:
     Medium:
     8:
     0,0,0,0,0:
0000
0000
0000
0000
,
0000
0000
0000
0000
,
0000
0000
0000
0000
,
0000
0000
0000
0000
,
0000
0000
0000
0000
,
1000
0000
0001
0000
0100
0001
0000
0000
,
0001
0000
1000
0000
0100
1000
0200
0000
,
0300
0010
0010
0000
0001
0001
0000
1001
,
0000
0001
0001
0000
1000
0001
0020
0000
,
0031
0100
0001
0100
0001
0100
0000
0000
,
0010
1000
0010
1000
0010
1000
0002
0000
,
0003
1000
0001
0000
1000
0001
0000
0110
,
0000
0100
0010
0000
0100
0010
0100
0000
,
0010
1000
0010
1000
0010
1000
0000
0000
,
0001
0100
0001
0100
0001
0100
0020
0000
,
0030
0100
0010
0000
0100
0010
0000
1001
,
0000
0001
1000
0000
0001
1000
0200
0000
,
0320
0000
0000
0000
,
0030
0000
0000
0000
,
0001
0000
0010
0000
0001
0000
0100
0001
,
1000
0000
0100
0000
0010
0000
0100
1000
,
0001
0000
0100
0000
0010
0000
0100
0001
,
1000
0000
0100
0000
0010
0000
0100
0010
,
0001
0000
0010
0000
0001
0000
0100
0001
,
1000
0000
0100
0000
0010
0000
0100
1000
,
0010
0000
0100
0000
0001
0000
0010
0001
,
1000
0001
0100
0010
,
1000
0100
0010
0001
1000
0100
0000
0000
,
1000
0100
0010
0001
1000
0100
0020
0000
,
0030
0100
1000
0000
0100
1000
0000
1100
,
0000
1000
0001
0000
1000
0001
1000
0000
,
0001
0010
0100
1000
0001
0010
0000
0000
,
0001
0010
0100
1000
0001
0010
0200
0000
,
0300
0010
0001
0000
0010
0001
0000
0011
,
0000
0001
0100
0000
0010
0100
0001
0000
,
0000
2000
0000
0000
3002
0000
0000
0023
,
0000
0000
0230
0000
0000
2300
0000
0000
,
3020
0000
0000
0230
0000
0000
0310
0000
,
2002
0000
0000
3003
,
1010
0000
0010
0000
1000
0000
0001
0010
,
0100
0000
0010
0000
0001
0000
0100
0010
,
1000
0000
0100
0000
0010
0000
0001
0010
,
0100
0000
0010
0000
0001
0000
0001
0100
,
1000
0000
0100
0000
0010
0000
1000
0010
,
0100
0000
0001
0000
0010
0000
1000
0010
,
0001
0000
0010
0000
0001
0000
0100
0001
,
1000
0000
0100
0000
0010
0100
2000
0000
,
3001
0000
0010
0000
0100
0000
1000
0100
,
0001
0000
0100
0000
1000
0000
0010
0100
,
0001
0000
0100
0000
1000
0000
0100
0010
,
1000
0000
0001
0000
0010
0001
0100
0000
,
0010
0000
0001
0000
0010
0000
0100
0001
,
1000
0000
0100
0000
0001
0000
0100
0010
,
0001
0010
0100
1000
,
0100
1000
0010
0200
,
0301
0000
0000
0001
0000
0000
0001
0000
0000
0000
0000
0000
0000
0000
0000
0000
,
1000
0000
0000
1000
0000
0000
1000
0000
0000
0000
0000
0000
0000
0000
0000
0000
,
0010
0000
0000
0010
0000
0000
0010
0000
0000
0000
0000
0000
0000
0000
0000
0000
,
0100
0000
0000
0100
0000
0000
0100
0000
0000
0000
0000
0000
0000
0000
0000
0000
,
0001
0000
0000
0100
0000
0000
0010
0000
0000
0000
0000
0000
0000
0000
0000
0000
,
1000
0000
0000
0010
0000
0000
0100
0000
0000
0000
0000
0000
0000
0000
0000
0000
,
0010
0000
0000
1000
0000
0000
0001
0000
0000
0000
0000
0000
0000
0000
0000
0000
,
0010
0000
0000
0100
0000
0000
1000
0000
0000
0000
0000
0000
0000
0000
0000
0000
,
2002
0000
0000
0000
,
0000
0000
0000
0000
,
3003
0000
0000
0000
;

//--------------- dance-single - ----------------
#NOTES:
     dance-single:
     Pandemonium X:
     Hard:
     12:
     0,0,0,0,0:
0000
0000
0000
0000
,
0000
0000
0000
0000
,
0000
0000
0000
0000
,
0000
0000
0000
0000
,
0000
0000
0000
0000
,
0001
1000
0001
1000
0001
0001
0000
0000
,
1000
0001
1000
0001
1000
1000
0002
0000
,
0003
1000
0010
0000
1000
0010
0000
0101
,
0000
0001
0010
0000
0010
0100
2000
0000
,
3001
0100
0100
0001
1000
1000
0000
0000
,
0100
1000
1000
0100
0010
0010
0002
0000
,
0003
1000
0001
0000
1000
0001
0000
1100
,
0000
0100
0010
0000
0100
1000
0020
0000
,
0130
0001
0100
0010
0100
0001
0000
0000
,
0100
0010
1000
0010
0100
0010
2000
0000
,
3000
0001
1000
0000
0001
1000
0000
0101
,
0000
0010
0001
0000
0010
0100
1000
0000
,
2002
0000
0000
0000
,
0003
0000
0000
0000
0000
0000
0000
3000
,
0011
0000
0000
0010
0000
0000
0001
0000
0000
0100
0000
0000
0010
0000
0100
0000
,
0001
0000
0000
1000
0000
0000
0100
0000
0000
0010
0000
0000
0100
0000
1000
0000
,
0001
0000
0000
0100
0000
0000
0010
0000
0000
1000
0000
0000
0010
0000
0100
0000
,
0001
0000
0000
0010
0000
0000
0100
0000
0000
0010
0000
0000
0001
0000
1000
0001
,
1000
0000
0000
0001
0000
0000
0100
0000
0000
0001
0000
0000
0100
0000
0010
0000
,
1000
0000
0000
0100
0000
0000
0010
0000
0000
0100
0000
0000
0010
0000
0001
0000
,
0100
0000
0000
0001
0000
0000
1000
0000
0000
0010
0000
0000
1000
0000
0010
0000
,
0100
0000
0000
0010
0000
0000
1000
0000
0000
0001
0000
0000
0010
0000
0100
0000
,
1000
0100
0001
0100
1000
0010
0100
0000
,
0100
1000
0100
0001
0100
0010
2000
0000
,
3000
0001
0001
0000
1000
1000
0000
0110
,
0000
1000
1000
0000
0001
0100
0020
0000
,
1030
0100
0001
0100
0010
0001
0100
0000
,
0001
0100
1000
0100
0010
1000
0002
0000
,
0003
1000
1000
0000
0001
0001
0000
1001
,
0000
0001
0100
0000
0001
0100
0010
0000
,
0000
0000
1000
0000
0000
0100
0000
0000
0010
0000
0000
0100
0000
0000
1000
0000
,
0000
0001
0000
0000
0010
0000
0000
0100
0000
0000
0010
0000
0000
0001
0000
0000
,
1000
0000
0000
0100
0000
0000
0010
0000
0000
0001
0000
0000
1000
0000
0000
0010
,
0200
0000
0000
0300
,
1001
0000
0000
0001
0000
0000
1000
0000
0000
0010
0000
0000
1000
0001
1000
0000
,
0001
0000
0000
0010
0000
0000
0100
0000
0000
0010
0000
0000
0001
0100
0010
0000
,
0100
0000
0000
0010
0000
0000
1000
0000
0000
0001
0000
0000
1000
0100
1000
0000
,
0100
0000
0000
1000
0000
0000
0010
0000
0000
0100
0000
0000
0010
0000
0100
0001
,
0010
0000
0000
0100
0000
0000
0010
0000
0000
0001
0000
0000
1000
0100
1000
0000
,
0100
0000
0000
1000
0000
0000
0010
0000
0000
0100
0000
0000
0010
0100
0001
0000
,
1000
0000
0000
0001
0000
0000
0010
0000
0000
0001
0000
0000
0100
0001
0100
0000
,
0010
0000
0000
0100
0000
0000
0010
0000
0000
1000
0000
0000
0002
0000
0000
0000
,
0013
0000
0000
1000
0000
0000
0010
0000
0000
0001
0000
0000
0100
0010
0100
0000
,
0010
0000
0000
1000
0000
0000
0001
0000
0000
0010
0000
0000
0100
0010
0001
0000
,
1000
0000
0000
0100
0000
0000
0001
0000
0000
0100
0000
0000
0010
0001
0010
0000
,
0001
0010
1000
0010
0100
1000
0020
0000
,
0130
0000
0000
1000
0000
0000
0100
0000
0000
0001
0000
0000
0100
0010
0100
0000
,
0010
0000
0000
1000
0000
0000
0100
0000
0000
0001
0000
0000
0100
0010
0001
0000
,
1000
0000
0000
0001
0000
0000
0100
0000
0000
0001
0000
0000
0010
0100
0010
0000
,
0100
1000
0001
0000
0100
0001
1000
0000
,
0101
0000
0000
0011
0000
0000
0101
0000
0000
0000
0000
0000
0000
0000
0000
0000
,
1010
0000
0000
1100
0000
0000
1010
0000
0000
0000
0000
0000
0000
0000
0000
0000
,
1001
0000
0000
0101
0000
0000
1001
0000
0000
0000
0000
0000
0000
0000
0000
0000
,
1100
0000
0000
0110
0000
0000
0011
0000
0000
0000
0000
0000
0000
0000
0000
0000
,
0101
0000
0000
0110
0000
0000
1010
0000
0000
0000
0000
0000
0001
0000
0000
0000
,
1100
0000
0000
0110
0000
0000
0011
0000
0000
0000
0000
0000
1000
0000
0000
0000
,
1001
0000
0000
0101
0000
0000
1010
0000
0000
0000
0000
0000
0010
0000
0000
0000
,
1001
0000
0000
0011
0000
0000
1100
0000
0000
0000
0000
0000
0100
0000
0000
0000
,
2002
0000
0000
0000
,
0000
0000
0000
0000
,
3003
0000
0000
0000
;

//--------------- dance-single - ----------------
#NOTES:
     dance-single:
     Pandemonium X:
     Challenge:
     14:
     0,0,0,0,0:
0000
0000
0000
0000
,
0000
0000
0000
0000
,
0000
0000
0000
0000
,
0000
0000
0000
0000
,
0000
0000
0000
0000
,
1000
0010
0010
1000
0100
0100
0000
0000
,
0010
0100
0100
1000
0010
1000
0002
0000
,
0003
1000
0010
0000
0100
0001
0000
1100
,
0000
1000
0010
0000
0100
0001
2000
0000
,
3001
0100
1000
0100
0010
1000
0001
0000
,
1000
0100
0001
0100
0010
0001
2000
0000
,
3000
0001
0100
0000
0010
1000
0000
1001
,
0000
1000
0100
0010
0001
1000
0020
0000
,
1030
0100
0001
0100
0010
0001
1000
0000
,
0010
0001
0010
1000
0010
0100
0002
0000
,
0003
1000
0100
0000
0010
0001
0000
1100
,
0000
0001
0100
0001
1000
0001
0020
0000
,
0230
0000
0000
0000
,
2000
0000
0000
0000
0000
0000
0000
0300
,
3001
0000
0000
0010
0000
0000
0001
0000
0000
0100
0000
0000
0010
1000
0001
0000
,
0010
0000
0000
0100
0000
0000
1000
0000
0000
0001
0000
0000
1000
0001
0010
0000
,
0100
0000
0000
1000
0000
0000
0100
0000
0000
0010
0000
0000
0100
1000
0001
0000
,
0100
0000
0000
0001
0000
0000
0010
0000
0000
0001
0000
0000
0100
0000
0100
0010
,
1000
0000
0000
0100
0000
0000
0010
0000
0000
0100
0000
0000
0010
0001
0100
0000
,
0010
0000
0000
1000
0000
0000
0001
0000
0000
0010
0000
0000
0100
1000
0001
0000
,
1000
0000
0000
0001
0000
0000
0010
0000
0000
0100
0000
0000
0010
0100
1000
0000
,
0001
0000
0000
1000
0000
0000
0100
0000
0000
1000
0000
0000
0010
0000
0010
1000
,
0001
0000
0000
0000
0000
0000
0000
0000
0200
0300
0000
0000
0000
0000
0000
0000
0200
0300
0000
0000
0000
0000
0000
0000
1000
0000
0000
0000
0000
0000
0000
0000
0200
0300
0000
0000
0000
0000
0000
0000
0200
0300
0000
0000
0000
0000
0000
0000
0001
0000
0000
0000
0000
0000
0000
0000
0000
0000
0000
0000
0000
0000
0000
0000
,
0001
0000
0000
0000
0000
0000
0000
0000
0200
0300
0000
0000
0000
0000
0000
0000
0200
0300
0000
0000
0000
0000
0000
0000
1000
0000
0000
0000
0000
0000
0000
0000
0200
0300
0000
0000
0000
0000
0000
0000
0200
0300
0000
0000
0000
0000
0000
0000
0002
0000
0000
0000
0000
0000
0000
0000
0000
0000
0000
0000
0000
0000
0000
0000
,
0003
0000
0000
0000
0000
0000
0000
0000
1000
0000
0000
0000
0000
0000
0000
0000
0020
0030
0000
0000
0000
0000
0000
0000
0000
0000
0000
0000
0000
0000
0000
0000
0020
0030
0000
0000
0000
0000
0000
0000
0001
0000
0000
0000
0000
0000
0000
0000
0000
0000
0000
0000
0000
0000
0000
0000
1001
0000
0000
0000
0000
0000
0000
0000
,
0000
0000
0000
0000
0000
0000
0000
0000
1000
0000
0000
0000
0000
0000
0000
0000
0200
0300
0000
0000
0000
0000
0000
0000
0200
0300
0000
0000
0000
0000
0000
0000
0001
0000
0000
0000
0000
0000
0000
0000
0200
0300
0000
0000
0000
0000
0000
0000
0200
0000
0000
0000
0000
0000
0000
0000
0000
0000
0000
0000
0000
0000
0000
0000
,
1300
0000
0000
0000
0000
0000
0000
0000
0020
0030
0000
0000
0000
0000
0000
0000
0020
0030
0000
0000
0000
0000
0000
0000
0001
0000
0000
0000
0000
0000
0000
0000
0020
0030
0000
0000
0000
0000
0000
0000
0020
0030
0000
0000
0000
0000
0000
0000
1000
0000
0000
0000
0000
0000
0000
0000
0000
0000
0000
0000
0000
0000
0000
0000
,
1000
0000
0000
0000
0000
0000
0000
0000
0020
0030
0000
0000
0000
0000
0000
0000
0020
0030
0000
0000
0000
0000
0000
0000
0001
0000
0000
0000
0000
0000
0000
0000
0020
0030
0000
0000
0000
0000
0000
0000
0020
0030
0000
0000
0000
0000
0000
0000
2000
0000
0000
0000
0000
0000
0000
0000
0000
0000
0000
0000
0000
0000
0000
0000
,
3000
0000
0000
0000
0000
0000
0000
0000
0001
0000
0000
0000
0000
0000
0000
0000
0200
0300
0000
0000
0000
0000
0000
0000
0000
0000
0000
0000
0000
0000
0000
0000
0200
0300
0000
0000
0000
0000
0000
0000
1000
0000
0000
0000
0000
0000
0000
0000
0000
0000
0000
0000
0000
0000
0000
0000
1001
0000
0000
0000
0000
0000
0000
0000
,
0000
0000
0000
0000
0000
0000
0000
0000
0001
0000
0000
0000
0000
0000
0000
0000
0020
0030
0000
0000
0000
0000
0000
0000
0020
0030
0000
0000
0000
0000
0000
0000
1000
0000
0000
0000
0000
0000
0000
0000
0020
0030
0000
0000
0000
0000
0000
0000
0020
0000
0000
0000
0000
0000
0000
0000
0000
0000
0000
0000
0000
0000
0000
0000
,
0031
0000
1000
0000
0000
0001
0000
0000
0010
0000
0000
1000
0000
0000
0010
0000
,
0000
0001
0000
0000
0100
0000
0000
1000
0000
0000
0100
0000
0000
0010
0000
0000
,
1000
0000
0000
0001
0000
0000
0010
0000
0000
0100
0000
0000
0010
0000
0000
0004
,
4000
0000
0000
3003
,
0101
0000
0001
1000
0000
0100
0010
0000
0100
1000
0000
0010
0100
0010
1000
0000
,
0100
0000
0010
0100
0000
1000
0010
0000
0100
0001
0000
0010
0001
0100
0001
0000
,
1000
0000
0001
0010
0000
0001
0100
0000
0010
1000
0000
0100
0010
0100
1000
0000
,
0001
0000
1000
0100
0000
1000
0010
0000
0100
0001
0000
0010
0200
0000
0000
0000
,
1300
0000
0100
0010
0000
0100
1000
0000
0001
0100
0000
0010
0100
0001
1000
0000
,
0001
0000
0010
0001
0000
0010
0100
0000
0010
0001
0000
0100
0010
1000
0100
0000
,
0010
0000
0100
1000
0000
0001
0100
0000
0010
1000
0000
0001
0010
0001
1000
0000
,
0001
0000
0100
0010
0000
1000
0001
0000
0010
0100
0000
0010
0001
0000
0001
0010
,
0100
0000
0100
1000
0000
1000
0010
0000
0010
0100
0000
0100
0001
0010
0100
0000
,
0010
0000
0010
0100
0000
0100
1000
0000
1000
0001
0000
0001
0100
0001
0010
0000
,
0100
0000
0010
0001
0000
0001
0100
0000
0100
0010
0000
0010
1000
0001
0010
0000
,
0100
0000
0100
1000
0000
1000
0001
0000
0001
0100
0000
0100
0010
0000
0010
0100
,
0001
0000
1000
0001
0000
0001
0010
0000
0010
0001
0000
0001
0100
0010
1000
0000
,
0100
0000
0100
0010
0000
0010
0100
0000
0100
1000
0000
1000
0001
0100
0010
0000
,
0000
0000
0000
0000
0000
0000
0000
0000
1000
0000
0000
0000
0000
0000
0000
0000
0020
0030
0000
0000
0000
0000
0000
0000
0000
0000
0000
0000
0000
0000
0000
0000
0020
0030
0000
0000
0000
0000
0000
0000
0001
0000
0000
0000
0000
0000
0000
0000
0000
0000
0000
0000
0000
0000
0000
0000
1001
0000
0000
0000
0000
0000
0000
0000
,
0000
0001
0100
1000
0100
0010
2000
3000
,
0011
0000
0000
1010
0000
0000
1000
0000
0000
0001
0000
0000
0100
0010
0100
0010
,
1000
0000
0000
0101
0000
0000
0001
0000
0000
1000
0000
0000
0001
0010
0001
0010
,
0001
0000
0000
1010
0000
0000
0001
0000
0000
1000
0000
0000
0100
0010
0100
0010
,
0001
0000
0000
1100
0000
0000
1000
0000
0000
0001
0000
0000
1000
0001
1000
0001
,
1000
0000
0000
0011
0000
0000
0010
0000
0000
0100
0000
0000
1000
0100
1000
0100
,
0010
0000
0000
1100
0000
0000
0001
0000
0000
1000
0000
0000
0001
1000
0001
1000
,
0001
0000
0000
0101
0000
0000
1000
0000
0000
0100
0000
0000
0010
0100
0010
0100
,
1000
0000
0000
0110
0000
0000
0001
0000
0000
1000
0000
0000
0010
0100
0010
0100
,
0002
0000
0000
0000
,
0000
0000
0000
0000
,
0003
0000
0000
0000
;
