#TITLE:Ghost Hunters;
#SUBTITLE:;
#ARTIST:96;
#TITLETRANSLIT:;
#SUBTITLETRANSLIT:;
#ARTISTTRANSLIT:;
#GENRE:;
#CREDIT:;
#MUSIC:Ghost Hunters.ogg;
#BANNER:;
#BACKGROUND:;
#CDTITLE:;
#SAMPLESTART:46.944;
#SAMPLELENGTH:10.135;
#SELECTABLE:YES;
#OFFSET:0.488;
#BPMS:0.000=148.000;
#STOPS:;
#BGCHANGES:;
#FGCHANGES:;

//--------------- dance-single - Pandemonium X ----------------
#NOTES:
     dance-single:
     Pandemonium X:
     Beginner:
     4:
     0,0,0,0,0:
0000
0000
0000
0000
,
0000
0000
0000
0000
,
0000
0000
0000
0000
,
0000
0000
0000
0000
,
0000
0001
0000
0000
,
1000
0000
0000
0010
,
0000
0000
0100
0000
,
0000
0000
0010
0000
,
0000
1000
0000
0000
,
0100
0000
0000
0000
0000
0000
0000
0010
,
0000
0000
0001
0000
0000
0000
0000
1000
,
0000
0000
0000
0000
0000
0001
0000
0000
,
0000
0000
0000
0100
0000
0000
0000
0000
,
0000
0010
0000
0000
0000
0000
0000
0000
,
0100
0000
0000
0000
,
0010
0000
0000
1000
,
0000
0000
0000
0001
,
0000
1000
0000
0010
,
0000
0000
0100
0000
,
0000
0000
0000
0010
0000
0000
0000
0000
,
0000
1000
0001
0000
,
1000
0000
0000
0000
0010
0000
0000
0010
,
0000
0010
0010
0010
,
0000
0000
0100
0000
0000
0100
0000
0000
,
0100
0100
0100
0000
,
0001
0000
0000
1000
0000
0000
0001
0000
,
1000
0001
0000
0100
,
0000
0010
0000
0000
0100
0000
0010
0000
,
1000
1001
0000
0000
,
0000
0000
0001
0000
,
0000
0010
0000
0001
,
0100
0000
0010
0010
,
0000
0000
0100
0000
,
0000
0010
1000
0001
,
1000
0000
0000
0100
,
0000
0000
1000
0000
,
0001
1000
0001
0100
,
0001
0000
0010
0100
,
0000
0000
0010
0000
,
0001
1000
1000
0001
,
1000
0000
0001
1000
,
1000
0001
1000
0000
,
0001
1000
1000
0001
,
1000
0000
0000
0001
,
0100
0010
1000
0000
,
0000
0010
0000
0000
,
0100
0000
0000
1001
,
0000
0000
0000
0001
,
0000
1000
0000
0010
,
0000
0100
0000
0010
,
0000
1001
0000
0000
0000
0000
0000
0000
,
1000
0000
0000
0001
,
0000
0000
0010
0000
,
0000
0000
0000
0110
0000
0000
0000
0000
,
0000
0100
0000
0000
,
1000
0000
0000
0001
,
0000
0000
0000
0000
0000
0110
0000
0000
,
0000
0000
0000
0000
0001
0000
0000
1000
,
0000
0001
1000
0001
,
1000
0000
0001
0000
0000
1000
0000
0000
,
0001
1000
0001
0110
;

//--------------- dance-single - Pandemonium X ----------------
#NOTES:
     dance-single:
     Pandemonium X:
     Easy:
     8:
     0,0,0,0,0:
0000
0000
0000
0000
,
0000
0000
0000
0000
,
0000
0000
0000
0000
,
0000
0000
0000
0000
,
0000
0001
0000
0000
,
1000
0000
0000
0000
0000
0000
0000
0010
,
0000
0000
0000
0000
0000
0100
0000
0000
,
0010
0000
1000
0001
,
0010
0001
1000
0010
,
1000
0001
0100
0001
,
1000
0001
1000
0001
,
1000
0100
1000
0001
,
0100
0001
1000
0100
,
1000
0001
1000
0001
,
1000
0000
0010
0000
0100
0001
0100
0000
,
0001
0000
0010
0000
0100
1000
0000
0000
,
0100
0000
1000
0010
1000
0000
1010
0000
,
0000
0011
0000
1000
,
0001
0000
0100
0010
0100
0000
0010
0000
,
1000
0000
0001
0010
0000
0000
0100
0000
,
0010
0001
0100
0000
0110
0000
0000
0000
,
1001
0000
0000
0000
0001
1000
0000
0001
,
1000
0000
0001
1000
0001
0000
1000
0000
,
0001
0000
1000
0001
0000
1000
0001
0000
,
1000
0001
1000
0000
0001
0000
1000
0000
,
0010
0100
0000
0010
0100
0000
0100
0000
,
0010
0000
0100
0000
0010
0000
0100
0010
,
0000
0100
0010
0000
0100
0000
0010
0000
,
0100
0000
0000
0000
0001
0000
0000
1000
0000
0000
0010
0000
0000
0000
0000
0000
,
0000
0100
0002
0000
,
1003
0100
0001
0100
,
2000
0000
3001
0200
,
0000
0000
0320
0000
,
0130
0001
0010
0100
,
2000
0000
3100
1000
,
0001
1000
0010
1000
,
0001
0010
0100
0010
,
0001
0000
0100
0000
0010
0000
1000
0002
,
0000
0003
0201
0000
,
0301
0100
0010
1000
,
1200
0000
1300
0001
,
0100
0010
1020
0000
,
0130
0001
1000
0100
,
2001
0000
3001
0011
,
1100
0011
1001
1000
,
0001
1000
0000
0000
0001
0000
0100
0010
,
0000
0000
0100
0000
0001
1000
0000
1001
,
0000
0110
0000
0001
,
1000
0010
0100
0001
,
0010
0100
1000
0100
,
1000
0010
0100
0001
,
1000
0000
0001
0000
0100
0001
0000
0000
,
0010
0000
0100
1000
0000
0000
0100
0000
,
1000
0010
0000
0110
0000
0000
1001
0000
,
0000
0000
1000
0000
0010
0000
1000
0001
,
0010
0000
0100
0000
0100
1000
0001
0000
,
1000
0000
0001
0010
0100
0000
0010
0000
,
0001
0000
0100
0000
0010
1000
0000
0001
,
0100
0000
0010
1000
0010
0000
0100
0000
,
0001
0000
0010
0001
0000
1000
0100
0000
,
0010
0000
0001
0000
1000
0000
0000
0000
0001
0000
0000
0000
1000
0000
0000
1000
,
0000
1000
0000
0000
0000
0000
0000
0000
;

//--------------- dance-single - Pandemonium X ----------------
#NOTES:
     dance-single:
     Pandemonium X:
     Medium:
     12:
     0,0,0,0,0:
0000
0000
0000
0000
,
0000
0000
0000
0000
,
0000
0000
0000
0000
,
0000
0000
0000
0000
,
0000
0000
0000
0000
0001
0000
1000
0000
0000
0001
0000
0000
0100
0000
0100
0000
,
0000
0000
0010
0000
0000
1000
0000
0000
0100
0000
0100
0000
0000
0000
0010
0000
,
0000
0001
0000
0000
0100
0000
0100
0000
0000
0000
0010
0000
0000
1000
0000
0000
,
0001
0000
0000
0010
0000
0000
0100
0000
1000
0000
0100
0000
0000
1000
0000
0000
,
0010
0000
0100
0000
0000
0000
0010
0000
0000
1000
0000
0000
0001
0000
0010
0000
,
0000
0000
0100
0000
0000
0010
0000
0000
0001
0000
0100
0000
0000
0000
0101
0000
,
0000
0100
0000
0000
0110
0000
0000
0010
0000
0000
1010
0000
0000
0000
1000
0000
,
0000
0001
0000
0000
0010
0000
0100
0000
0000
0000
0010
0000
0000
0001
0000
0000
,
0100
0000
0010
0000
0000
0000
1000
0000
0000
0010
0000
0000
0100
0000
0001
0000
,
0000
0000
0101
0000
0000
1000
0000
0000
1001
0000
0000
0001
0000
0000
1100
0000
,
0000
0000
1000
0000
0000
0001
0000
1000
0001
0000
1000
0000
0001
0000
0000
0000
,
0001
0000
0000
1000
0000
0001
1000
0000
0001
0000
1000
0000
0000
0000
0010
0000
,
0000
0100
0000
0010
0100
0000
0010
0000
0100
0000
0000
0000
0110
0000
0000
0010
,
0000
0000
0100
0000
1001
0000
0000
1000
0000
0000
0001
0000
0000
0000
1000
0000
,
0000
0001
0000
0100
0001
0000
0010
0000
0100
0000
0000
0000
0010
0000
0000
0001
,
0000
0100
0010
0000
1000
0000
0001
0000
0000
0000
1000
0000
0000
0100
0000
0010
,
0100
0000
1000
0000
0001
0000
0000
0000
1000
0000
0000
0001
0000
0000
0100
0000
,
0010
0000
0000
1000
0000
0000
0001
0000
0010
0000
0010
0000
0000
0000
0001
0000
,
0001
0000
0100
0010
1000
0001
0100
0010
,
1000
0001
1000
1000
0000
0001
0001
0000
,
1000
0001
0100
0001
0100
0001
0010
0100
,
0010
0010
0000
0001
0001
0000
0100
0010
,
1000
0001
0010
0100
1000
0100
0010
0010
,
0000
0100
0100
0000
1000
0001
0100
0001
,
1000
0000
0001
0000
0011
0000
0000
1100
0000
0000
0011
0000
0000
0000
0000
0000
,
0000
0000
0010
0001
2000
0000
0000
3010
,
1000
0001
2000
0000
3002
0000
0023
0000
,
0230
0000
0000
0310
0001
1000
0020
0000
,
0000
0000
0000
0000
0230
0000
0000
0310
,
1000
0001
2000
0000
3002
0000
1003
0100
,
0020
0000
0000
0130
1000
0010
0200
0000
,
0000
0000
0302
0000
2003
0000
0000
3100
,
1000
0010
0200
0000
0320
0000
2030
0000
,
3002
0000
0000
0013
0001
0100
0010
0020
,
0000
0000
0000
0000
0230
0000
0000
0310
,
1000
0001
0020
0000
0230
0000
0310
0001
,
2000
0000
0000
3001
0010
0100
2000
0000
,
3020
0000
0130
0001
2000
0000
0000
3001
,
1000
0010
0200
0000
0302
0000
1003
0100
,
0020
0000
0000
0130
1000
0001
0200
0000
,
0302
0000
0000
0000
2003
0000
0000
0000
3100
0000
1000
0000
0000
0010
0000
0000
,
0100
0000
0100
0000
0000
0000
0010
0000
0000
1000
0000
0000
0001
0000
0001
0000
,
0000
0000
0010
0000
0000
0100
0000
0000
1000
0000
1000
0000
0000
0000
0100
0000
,
0000
1000
0000
0000
0010
0000
0000
0100
0000
0000
0001
0000
1000
0000
0001
0000
,
0100
0000
0001
1000
0010
0000
0100
0010
,
1000
0000
0001
0010
0100
0000
0010
0001
,
0100
0010
1000
0001
0010
0100
1000
0001
,
0000
0000
1000
0000
0000
0001
0000
0100
0001
0000
0100
0000
0000
0000
0001
0000
,
0000
1000
0000
0100
1000
0000
0100
0000
0000
0000
1000
0000
0000
0001
0000
0100
,
0001
0000
0100
0000
0000
0000
0010
0000
0000
0100
0000
0000
0001
0000
0000
1000
,
0000
0000
0001
0000
0000
0000
1000
0000
0000
0010
0000
0100
0010
0000
1000
0000
,
0000
0000
0001
0000
0000
0010
0000
0100
0010
0000
0001
0000
0000
0000
0100
0000
,
0000
0010
0000
1000
0100
0000
0010
0000
0000
0000
0010
0000
0000
0001
0000
0000
,
0100
0000
0000
0010
0000
0000
1000
0000
0001
0000
0001
0000
0000
0000
0010
0000
,
0010
0000
0100
1000
0010
0100
0001
0010
,
0100
1000
0100
0100
0000
1000
1000
0000
,
0001
0000
0100
0000
0001
0000
0010
0000
0100
0000
1000
0000
1001
0000
0000
1001
,
0000
1001
0000
0000
0000
0000
0000
0000
;

//--------------- dance-single - Pandemonium X ----------------
#NOTES:
     dance-single:
     Pandemonium X:
     Hard:
     14:
     0,0,0,0,0:
0000
0000
0000
0000
,
0000
0000
0000
0000
,
0000
0000
0000
0000
,
0000
0000
0000
0000
,
0000
0000
0000
0000
0001
0000
1000
0000
0000
1000
0000
1000
0010
0000
0101
0000
,
0000
0000
0001
0000
0000
0001
0000
0001
0010
0000
1100
0000
0000
0000
1000
0000
,
0000
1000
0000
1000
0001
0000
1001
0000
0000
0000
0101
0000
0000
1010
0000
0000
,
1100
0000
0000
0110
0000
0000
0011
0000
0001
0000
0200
0000
0000
0310
0000
0010
,
1000
0000
0001
0000
0000
0000
2000
0000
0000
3100
0000
0100
0010
0000
0001
0000
,
0000
0000
0002
0000
0000
0013
0000
0010
0100
0000
1000
0000
0000
0000
1100
0000
,
0000
0011
0000
0000
0101
0000
0000
1010
0000
0000
1001
0000
0000
0000
2000
0000
,
0000
3001
0000
0100
0010
0000
0100
0000
0000
0000
0020
0000
0000
1030
0000
0001
,
0010
0000
0100
0000
0000
0000
0020
0000
0000
0031
0000
0100
0010
0000
1000
0000
,
0000
0000
1001
0000
0000
0101
0000
0000
0011
0000
0000
0110
0000
0000
1100
0000
,
0000
0000
0001
0000
0000
1000
0000
0010
0100
0000
0001
0000
0010
0000
0000
0000
,
0100
0000
0000
0010
0000
0001
0100
0000
0010
0000
1000
0000
0000
0000
0001
0000
,
0000
1000
0000
0010
0100
0000
0001
0000
1000
0000
0000
0000
1001
0000
0000
1010
,
0000
0000
1001
0000
0011
0000
0000
1001
0000
0000
1010
0000
0000
0000
0001
0000
,
0000
1000
0000
0010
0100
0000
0001
0000
0010
0000
0000
0000
0100
0000
0000
0010
,
0000
0010
0001
0000
1000
0000
0001
0000
0000
0000
0010
0000
0000
0001
0000
0100
,
0010
0000
1000
0000
0001
0000
0000
0000
1001
0000
0000
0101
0000
0000
1001
0000
,
1100
0000
0000
1001
0000
0000
0101
0000
0001
0010
0001
0000
0010
0000
0001
0010
,
0001
0000
0100
0000
0010
1000
0100
0000
0010
0001
0100
0000
0010
1000
0001
0000
,
1000
0001
0100
0000
0010
1000
0010
0000
1000
0000
0010
1000
0010
0000
1000
0000
,
0010
0100
0001
0000
1000
0100
0010
0000
0100
0010
0001
0000
1000
0001
0100
0000
,
0010
1000
0100
0000
0110
0000
0010
0001
0100
0000
0110
0000
0100
0001
0010
0000
,
0100
1000
0010
0000
0100
0001
0010
0000
0100
0010
0001
0000
1000
0100
0010
0000
,
0011
0000
0010
0100
1000
0000
1010
0000
0100
0001
0010
0000
0100
1000
0010
0000
,
1000
0001
1000
0000
1001
0000
0000
1001
0000
0000
2002
0000
0000
0000
0000
0000
,
3003
0000
0000
0000
0001
0100
0001
0100
0020
0000
0000
0000
0000
0000
1030
0000
,
0100
0100
2000
0000
3200
0000
2300
0000
,
3002
0000
0000
0000
0000
0000
0103
0000
0010
0000
1000
0000
0001
0010
0200
0000
,
0000
0000
0000
0000
0320
0000
0000
0031
,
0010
0010
0110
0000
1001
0000
1000
0010
,
0200
0000
0000
0310
0100
0100
0101
0000
,
1001
0000
1100
0000
0100
0010
0001
0100
,
0010
1000
0002
0000
2003
0000
3200
0000
,
0310
0000
0100
0000
1000
0000
0010
0000
0100
0000
1000
0000
0100
0010
2000
0000
,
0000
0000
0000
0000
0000
0000
3001
1000
0020
0000
0000
0000
0000
0000
0130
0000
,
0001
0010
0210
0000
2300
0000
3001
0010
,
0012
0000
0000
0013
0100
1000
2100
0000
,
3002
0000
1003
0001
0201
0000
0000
0310
,
1000
0001
2001
0000
3020
0000
1030
0001
,
0021
0000
0000
0130
0010
0001
1001
0000
,
0101
0000
0000
0000
1001
0000
0000
0000
1100
0000
0100
0000
0000
0010
0000
0001
,
0100
0000
0101
0000
0000
0000
0100
0000
0000
0010
0000
1000
0001
0000
0011
0000
,
0000
0000
0001
0000
0000
0100
0000
0010
0100
0000
0101
0000
0000
0000
1010
0000
,
0000
0101
0000
0000
1010
0000
0000
1100
0000
0000
0110
0000
0100
0000
1000
0000
,
0010
0100
0001
0010
0100
0010
0001
0100
,
0010
1000
0001
0010
0100
0010
0001
1000
,
0010
0000
0110
0000
0000
0101
0000
0000
1010
0000
0000
1100
0000
0000
1001
0000
,
0011
0000
0001
0000
0000
1000
0000
0010
1000
0000
1010
0000
0000
0000
1000
0000
,
0000
0001
0000
0010
0100
0000
1100
0000
0000
0000
0100
0000
0000
1000
0000
0010
,
0100
0000
0101
0000
0000
0000
0011
0000
0000
1001
0000
0000
1100
0000
0000
0110
,
0000
0000
0011
0000
0000
0000
1001
0000
0000
0001
0000
0100
0010
0000
1001
0000
,
0000
0000
1010
0000
0000
1000
0000
0001
1000
0000
0101
0000
0000
0000
0011
0000
,
0000
0001
0000
0010
0100
0000
1100
0000
0000
0000
1001
0000
0000
0101
0000
0000
,
0110
0000
0000
1010
0000
0000
0110
0000
1000
0001
0010
0000
0100
0000
0010
0001
,
0100
0000
0010
0000
0100
0001
0010
0000
0100
1000
0010
0000
0100
0001
1000
0000
,
0001
1000
0100
0000
0010
0001
0100
0000
0110
0000
0010
1000
0001
0000
1001
0000
,
0001
1000
0010
0000
0100
0001
0010
0000
0100
1000
0001
0000
1001
0000
0000
1001
,
0000
1001
0000
0000
0000
0000
0000
0000
;

//--------------- dance-single - Pandemonium X ----------------
#NOTES:
     dance-single:
     Pandemonium X:
     Challenge:
     16:
     0,0,0,0,0:
0000
0000
0000
0000
,
0000
0000
0000
0000
,
0000
0000
0000
0000
,
0000
0000
0000
0000
,
0000
0000
0000
0000
0001
0000
0011
0000
0000
0011
0000
0001
0010
0000
0101
0000
,
0000
0000
1010
0000
0000
1010
0000
0010
0100
0000
1001
0000
0000
0000
0101
0000
,
0000
1100
0000
1000
0100
0000
0011
0000
0000
0000
1001
0000
0000
0101
0000
0000
,
1001
0000
0000
1100
0000
0000
1001
0000
1010
0000
1000
0000
0001
0010
0000
0010
,
0100
0000
1100
0000
1000
0000
0001
0000
0100
0001
0000
0001
1000
0000
1010
0000
,
1000
0000
0001
0000
0010
0001
0000
0001
1000
0000
1001
0000
0001
0000
0011
0000
,
0000
1100
0000
0000
1001
0000
0000
1010
0000
0000
1001
0000
0001
0000
0011
0000
,
0010
0100
0000
0100
1000
0000
1001
0000
0001
0000
1010
0000
1000
0010
0000
0100
,
0001
0000
1001
0000
0001
0000
0011
0000
0010
0001
0000
1000
0100
0000
0110
0000
,
0000
0000
0011
0000
0000
0101
0000
0000
1010
0000
0000
1001
0000
0000
1100
0000
,
1001
0000
1001
0000
0000
1001
0000
1001
1001
0000
1001
0000
1001
0000
0000
0000
,
0110
0000
0000
0110
0000
0110
0110
0000
0110
0000
0110
0000
1001
0000
1001
0000
,
0000
1001
0000
1001
1001
0000
1001
0000
1001
0000
0000
0000
0110
0000
0000
0110
,
0000
0000
1001
0000
0110
0000
0000
0110
0000
0000
0110
0000
1001
0000
0110
0000
,
0000
0110
0000
0110
0110
0000
0110
0000
0110
0000
0000
0000
1001
0000
0000
1001
,
0000
1001
1001
0000
1001
0000
1001
0000
0000
0000
0110
0000
0000
0110
0000
0110
,
0110
0000
0110
0000
0110
0000
0000
0000
1001
0000
0000
0101
0000
0000
1010
0000
,
1100
0000
0000
0011
0000
0000
1001
0000
1000
0001
0100
0000
0101
0000
0001
0010
,
0100
0000
1100
0000
1000
0100
0010
0000
0100
0010
0001
0000
1000
0001
0100
0000
,
0001
0100
0001
0000
0100
0010
1000
0000
1001
0000
0001
0010
0100
0000
1100
0000
,
0100
1000
0010
0000
0100
0001
1000
0000
0100
0010
0001
0000
0010
0100
1000
0000
,
0001
0100
0001
0000
1010
0000
1000
0100
1000
0000
0011
0000
0010
0001
0100
0000
,
0010
1000
0001
0000
0010
0100
1000
0000
0100
1000
0010
0000
1000
0010
0100
0000
,
0101
0000
0001
1000
0100
0000
0011
0000
0010
0001
0100
0000
0010
1000
0100
0000
,
0010
0100
1000
0000
1001
0000
0000
1001
0000
0000
0102
0000
0000
0000
0000
0000
,
0000
0000
0000
0000
1003
0100
1000
0001
2000
0000
0000
0000
0000
0000
3100
1000
,
0010
0100
0002
0000
0023
0000
0230
0000
,
0320
0000
0000
0000
0000
0000
0031
0000
1000
0000
1000
0000
0001
1000
0200
0000
,
0000
0000
0000
0000
0300
0000
0010
0001
2000
0000
0000
0000
0000
0000
3001
0000
,
0100
0100
0002
0000
0023
0000
0130
0010
,
0002
0000
0000
0013
0100
0100
2000
0000
,
3002
0000
0000
0000
0203
0000
0000
0000
0310
0000
1000
0000
0100
0010
0100
0000
,
0010
0000
0001
0000
1000
0010
1000
0000
0001
1000
0100
0000
0100
0010
0001
0000
,
0010
0001
1000
0000
1000
0000
0010
0000
0100
0000
0001
1000
0100
0010
0100
0000
,
1000
0000
0001
0000
1000
0000
0001
1000
0100
0000
0010
0000
0001
0100
0010
0000
,
0100
0001
2000
0000
3200
0000
0310
0001
,
0100
0000
0010
0000
1000
0010
1000
0000
0001
0000
1000
0000
0002
0000
0000
0000
,
2003
0000
0000
0000
3001
0000
0010
0000
0100
0000
1000
0000
0010
0100
0001
0000
,
1000
0001
0020
0000
0230
0000
0310
0001
,
1000
0000
0010
0000
1000
0001
0010
0000
0100
0000
1000
0000
2100
0000
0000
0000
,
3020
0000
0000
0000
0230
0000
0000
0000
0301
0000
1000
0000
0000
0001
0000
0010
,
0100
0000
1100
0000
0000
0000
1000
0000
0000
0010
0000
0100
0001
0000
0011
0000
,
0000
0000
0001
0000
0000
1000
0000
0010
1000
0000
0101
0000
0000
1000
0001
0010
,
0001
0100
0001
0010
0001
0100
0010
1000
0001
0010
0100
1000
0001
0100
0001
0100
,
0010
0100
0010
1000
0010
1000
0001
1000
0001
0010
0001
0010
0100
0010
0100
1000
,
0100
1000
0010
1000
0010
0100
0001
0010
0100
1000
0100
0010
0001
0100
0010
1000
,
0001
0010
0100
1000
0004
0040
0000
0000
0000
0000
0000
0000
0000
0000
0000
0000
,
0033
0000
1001
0000
0000
0101
0000
0001
0010
0000
0110
0000
0000
0000
1100
0000
,
0000
0110
0000
0010
0001
0000
1001
0000
0000
0000
1100
0000
0000
0011
0000
0001
,
0100
0000
0110
0000
0000
0000
0101
0000
0000
1010
0000
0000
0110
0000
0000
1001
,
0000
0000
0101
0000
0011
0000
1001
0000
0000
1001
0000
0001
0010
0000
0110
0000
,
0000
0000
0110
0000
0000
0011
0000
0001
0100
0000
0110
0000
0000
0000
0110
0000
,
0000
1010
0000
0010
0100
0000
0110
0000
0000
0000
1001
0000
0000
1010
0000
0000
,
1001
0000
0000
0011
0000
0000
0110
0000
0100
1000
0010
0000
0110
0000
0100
0001
,
0010
0000
0110
0000
0010
0001
0100
0000
0010
1000
0001
0000
0010
0100
1000
0000
,
0001
1000
0010
0000
0100
0001
0010
0000
0100
0000
0010
0001
1000
0000
0001
0000
,
1000
0001
0100
0000
0001
1000
0100
0000
0010
0001
0100
0000
1001
0000
0000
1001
,
0000
1001
0000
0000
0000
0000
0000
0000
;
