#TITLE:Ghost Clock;
#SUBTITLE:;
#ARTIST:BEMANI Sound Team "Yvya";
#TITLETRANSLIT:;
#SUBTITLETRANSLIT:;
#ARTISTTRANSLIT:Yvya;
#GENRE:;
#CREDIT:;
#MUSIC:Ghost Clock.ogg;
#BANNER:;
#BACKGROUND:;
#CDTITLE:;
#SAMPLESTART:76.837;
#SAMPLELENGTH:20.204;
#SELECTABLE:YES;
#OFFSET:0.216;
#BPMS:0.000=190.000
,180.000=95.000
,196.000=190.000
,291.000=95.000
,299.000=190.000
;
#STOPS:226.000=0.316;
#BGCHANGES:;
#FGCHANGES:;

//--------------- dance-single - Pandemonium X ----------------
#NOTES:
     dance-single:
     Pandemonium X:
     Beginner:
     5:
     0,0,0,0,0:
0000
0000
0000
0000
,
0000
0000
0000
0000
,
0000
0000
0000
0000
,
0000
0000
0000
0000
,
0000
0000
0000
0000
,
0001
0000
0000
0000
,
0000
0000
0000
0000
,
1000
0000
0000
0000
,
0000
0000
0000
0000
,
0010
0000
0000
0000
,
0100
0000
0000
0000
,
0001
0000
0000
0000
,
0000
0000
0000
0000
,
1000
0000
0001
0000
,
0010
0000
0001
0000
,
1000
0000
0000
0000
,
0100
0000
0000
0000
,
1000
0000
0000
0000
,
0010
0000
0000
0000
,
0100
0000
0000
0000
,
0010
0000
0000
0000
,
0100
0000
0001
0000
,
0010
0000
0001
0000
,
1000
0000
0000
0000
,
1001
0000
0110
0000
,
1001
0000
0000
0000
,
0000
0000
0000
0000
,
0010
0000
0000
0000
,
0100
0100
0100
0000
,
0001
0000
0000
0000
,
0000
0000
0000
0000
,
1000
0000
0000
0000
,
0000
0000
0000
0000
,
0100
0000
0000
0000
,
0000
0000
0000
0000
,
0010
0000
0100
0000
,
1000
0000
0000
0000
,
1001
0000
0000
0000
,
0001
0000
0000
0000
0000
0000
0000
1000
,
0000
0000
0000
0001
0000
0000
0000
0100
,
0000
0000
0000
0000
,
0110
0000
0000
0000
,
1000
0000
0000
0000
,
0001
0000
0000
0000
,
0010
0000
0100
0000
,
1000
0000
0000
0000
,
0001
0000
0000
0000
,
0100
0000
0000
0000
,
0010
0000
0000
0000
,
1000
0000
0000
0000
,
0100
0000
0000
0000
,
0010
0000
0000
0000
,
0001
0000
1000
0000
,
0001
0000
0000
0000
,
0100
0000
0000
0000
,
0010
0000
1000
0000
,
1001
0000
0000
0001
,
0000
0000
0000
0000
0000
0000
0000
1000
,
0000
0000
0000
0001
,
0000
0000
0000
0000
0000
0100
0000
0000
,
0000
0000
0000
0010
,
0000
0000
0000
1000
,
0000
0000
0000
0100
,
0000
0000
0000
0010
,
0000
0001
0000
1001
,
0000
0000
0000
0001
,
0000
0000
0000
1000
,
0000
0001
0000
0100
,
0000
0000
0000
0010
,
0000
0000
0100
0100
,
0000
0010
0000
1000
,
0000
0001
0000
1000
,
0001
0100
0010
1001
,
0000
0000
0000
0000
,
0000
0000
0000
0000
,
0001
0000
0000
0001
0000
0000
0001
0000
,
0000
0001
0000
0000
0001
0000
0000
0000
,
1000
0000
0000
1000
0000
0000
1000
0000
,
0000
1000
0000
0000
1000
0000
0010
0000
,
0000
0100
0000
0000
0010
0000
0000
0100
,
0000
0010
0000
0100
,
0000
0001
0000
0000
1000
0000
0001
0000
,
0001
0001
0000
0000
;

//--------------- dance-single - Pandemonium X ----------------
#NOTES:
     dance-single:
     Pandemonium X:
     Easy:
     8:
     0,0,0,0,0:
0000
0000
0000
0000
,
0000
0000
0000
0000
,
0000
0000
0000
0000
,
0000
0000
0000
0000
,
0000
0000
0000
0000
,
0001
0000
1000
0000
,
0010
0000
0100
0000
,
0001
1000
0010
0100
,
2002
0000
0000
3003
,
1001
0000
0000
1000
0000
0001
0000
0100
,
0001
0010
0100
1000
,
0001
0000
0000
1000
0000
0000
0010
0000
,
0000
0200
0000
0000
0000
0000
0301
1000
,
0001
0000
0000
1000
0100
0000
0000
0010
,
0001
0000
0000
1000
0100
0000
0000
0010
,
0001
0100
0010
1000
,
0001
0000
1000
0000
0010
1000
0001
0000
,
0010
0000
0000
0100
0000
1000
0000
0000
,
0001
1000
0010
0100
,
0001
0000
0000
0100
0000
0000
0010
0000
,
0000
0000
2000
0000
0000
0000
3001
0010
,
0100
0000
0000
1000
0010
0000
0000
0100
,
0001
0100
0010
1000
,
0002
0000
0000
0003
,
1000
0001
0101
1010
,
1001
0000
1000
0000
,
0001
0000
0010
0100
,
1000
0000
0100
0000
,
1000
0100
0010
0000
,
0100
1000
0010
0100
,
0001
0010
1000
0010
,
0001
0100
0010
1000
,
0100
0001
0100
1000
,
0001
1000
0010
0001
,
0010
1000
0010
0100
,
0002
0003
0100
0001
,
0010
1000
0010
0001
,
1000
0000
0001
1000
,
0010
0000
1000
0000
0100
0000
0000
0110
,
0000
0000
0000
1100
0000
0000
0000
0011
,
0000
0100
0001
1000
,
1001
0000
0000
0001
,
1000
0010
1000
0001
,
0010
0000
0100
0010
,
0001
0100
0010
1000
,
0100
0000
0010
0000
,
0001
0000
1000
0000
,
0100
0000
1000
0000
,
0010
0000
0100
0000
,
0010
0010
0100
0100
,
0010
1000
0001
0010
,
0100
0100
0010
0010
,
0100
1000
0001
0100
,
0001
0001
1000
1000
,
0001
1000
0010
0100
,
0010
0010
0100
0100
,
1001
0000
0000
1000
,
0000
0001
0000
0000
0010
0000
0000
0100
,
0010
0001
1000
0010
,
0000
0100
0000
0000
0010
0000
1000
0000
,
0001
0010
0100
1000
,
0000
0100
1000
0010
,
0100
0001
1000
0010
,
0000
0100
0010
1001
,
0110
1010
0101
1001
,
0000
0001
0010
0100
,
0010
0001
0100
0010
,
1000
0001
0010
1000
,
0000
0110
0000
1001
0000
1000
0002
0000
,
0000
0000
0103
0010
,
1000
0001
0010
0100
,
0000
0010
0000
0101
,
1010
1100
0011
2002
,
0000
0000
0000
0000
,
3003
0000
0000
0000
0000
0000
0001
1000
,
0001
0000
0000
1000
0000
0000
0010
0000
,
0000
0100
0000
0000
0001
0000
0010
0100
,
0010
0000
0100
0000
0000
1000
0000
0000
,
0010
0000
0000
0100
0000
0000
0001
0000
,
0100
0010
1000
0001
,
0010
0100
0010
0001
,
1000
0000
0010
0000
0100
0000
0001
0100
,
0010
1000
0001
0100
0010
0000
0000
0000
;

//--------------- dance-single - Pandemonium X ----------------
#NOTES:
     dance-single:
     Pandemonium X:
     Medium:
     12:
     0,0,0,0,0:
0000
0000
0000
0000
,
0000
0000
0000
0000
,
0000
0000
0000
0000
,
0000
0000
0000
0000
,
0000
0000
0000
0000
,
0001
0100
0010
1000
,
0100
0010
0100
1000
,
0001
1000
0010
1000
,
0001
0000
0000
0010
0100
1000
0001
0010
,
0100
0000
0000
0010
0000
0001
0000
0100
,
0010
1000
0001
0010
,
0100
0000
0000
1000
0100
0000
1000
0010
,
0000
0010
0200
0000
0000
0000
0300
0010
,
2000
0000
0000
3001
0020
0000
0000
0130
,
2000
0000
0000
3001
0200
0000
0000
0301
,
0010
0100
0010
0001
,
1000
0001
0100
0001
0010
0100
1000
0000
,
0100
0000
0000
1000
0000
0010
0000
0100
,
0010
1000
0001
0010
,
0100
0000
0000
0010
0000
0001
0200
0000
,
0000
0010
0020
0000
0300
0000
1030
0001
,
0020
0000
0130
0010
0002
0000
0013
0100
,
1000
0100
1000
0000
0100
0000
0010
0000
,
0002
0100
1000
0010
,
1003
0000
0001
0000
1000
0000
0001
1000
0001
1000
0001
1000
,
0002
0000
0103
0000
,
0020
0000
1030
0100
,
0020
0000
0130
0000
,
0020
0000
0032
0000
0103
0010
1010
0000
,
1001
1000
0001
0010
,
1000
0000
0010
0000
0001
0000
0100
0010
,
1000
0100
0001
0100
,
0010
0000
0001
0000
0100
0010
1000
0001
,
0010
0100
1000
0100
,
1000
0000
0010
0000
0100
0000
0010
0100
,
0001
0000
0000
1000
0001
0010
0100
0010
,
0001
1000
0010
1000
0001
0010
0001
1000
,
0200
0000
0000
0000
0310
0001
0100
0001
,
1000
0100
1000
0000
0001
0100
0001
0011
,
0000
0000
0000
1100
0000
0000
0000
1001
,
0000
0000
0000
1010
0000
0010
0000
1000
,
0200
0000
0000
0000
0300
0000
0010
0100
,
1000
0001
0100
0001
,
0010
0100
0010
0001
,
0010
0001
0100
0010
1000
0001
0010
0000
,
1100
0000
0100
0000
,
1000
0000
0010
0100
,
0001
0000
1000
0000
,
0100
0000
0010
0001
,
1000
0001
0100
0001
,
0010
0100
1000
0100
,
1000
0010
0100
0001
,
0010
0000
0000
0100
0000
0000
1000
0000
0001
0000
1000
0000
,
0001
0100
0001
0010
,
0001
0100
0010
1000
,
0010
0100
0001
1000
,
0220
0000
0330
1001
,
0000
0001
0000
0000
1000
0001
0000
0010
,
0100
1000
0100
0010
0001
0100
0001
0000
,
1000
0001
0000
0010
0001
0020
0000
0100
,
0230
0000
1300
0100
1000
0001
0100
0000
,
0000
0010
1000
0000
0001
0000
0010
0000
,
0100
0000
1000
0100
0010
0001
2000
0000
,
0000
0000
0000
3010
0000
0000
0100
0000
0000
0001
0100
0001
,
0100
0001
0100
0010
1000
0010
1000
0010
1000
0200
0000
0000
,
0010
0010
0310
0001
,
0100
0010
1000
0001
,
0010
0000
0100
0000
1000
0000
0100
1000
,
0010
0100
0000
0110
0000
0100
0002
0000
,
0000
0000
0003
0000
1000
0100
0010
0000
,
0100
0000
1000
0000
0001
0100
0020
0000
,
0000
0000
0000
0130
0000
0000
0002
0000
0000
0000
0000
0000
0013
0000
0000
0100
0000
0000
1000
0000
0100
0000
0010
0000
,
0001
0100
0010
1000
0000
0001
0000
1000
0000
0110
0000
0000
,
0000
0000
0000
0000
,
0000
0000
0000
0000
0000
0000
1000
0010
,
1000
0000
0001
0100
0000
0001
0010
0000
,
0001
1000
0000
0001
0100
0000
0010
1000
,
0001
0000
1000
0100
0000
1000
0001
0000
,
1000
0010
0000
1000
0001
0000
1000
1010
,
0000
0001
0101
0000
0001
0011
0000
0010
,
0110
0000
1100
0000
1010
0000
0001
0100
,
0010
1000
0001
0010
0100
1000
0002
0000
,
2003
0002
3003
0000
;

//--------------- dance-single - Pandemonium X ----------------
#NOTES:
     dance-single:
     Pandemonium X:
     Hard:
     14:
     0,0,0,0,0:
0000
0000
0000
0000
,
0000
0000
0000
0000
,
0000
0000
0000
0000
,
0000
0000
0000
0000
,
0000
0000
0000
0000
0000
0000
1000
0000
0100
0000
0000
0010
0000
0000
0001
0000
,
1000
0100
0010
0000
0100
1000
0000
1000
,
0001
0000
0100
0010
0000
1000
0100
0010
,
0100
1000
0001
0000
0100
0010
0000
1000
,
0020
0000
0000
1030
0100
0010
0001
1000
,
1001
0000
1000
0002
0000
0013
0000
0010
,
0100
1000
0001
1000
0100
0010
0100
1000
,
0002
0000
0000
0103
0010
0010
2000
0000
,
0000
0000
0000
0000
3020
0000
0000
0000
0000
0000
0000
0000
1030
0000
0010
0100
,
0002
0000
0000
0000
0003
0000
0100
0010
0002
0000
0000
0000
0003
0000
1000
0100
,
0020
0000
0000
0000
0030
0000
1000
0001
0200
0000
0000
0000
0300
0000
0010
1000
,
0001
1000
0010
0100
0100
0001
1000
0010
,
0100
0100
0001
0010
0100
1000
0102
0000
,
1003
0000
0100
0020
0000
0031
0000
0010
,
0001
1000
0100
1000
0010
0100
0001
0010
,
0200
0000
1300
0002
0000
1003
0010
0200
,
0000
0310
2000
0000
0010
0000
0100
0000
,
3002
0000
0000
0000
0103
0000
0010
1000
0200
0000
0000
0000
0310
0000
0100
1000
,
0001
0000
0010
0000
0100
0000
0010
0000
0000
0000
0100
0000
1000
0000
0010
1000
,
0001
0000
0000
1001
0000
0000
1010
0000
,
1001
0000
1001
0000
1001
0000
1000
0010
0100
0001
1000
0010
,
1000
0100
0001
0100
,
1000
0010
0100
0001
,
0010
1000
0010
0001
,
0100
0010
1000
0001
0010
0100
0000
0000
,
0011
0001
0010
0001
1000
1000
0010
0100
,
0001
0001
0010
1000
0010
0100
1000
0001
,
1000
1000
0100
1000
0001
0001
0100
0010
,
1000
1000
0100
0001
0100
0010
0001
1000
,
0001
0001
0100
0010
1000
1000
0100
0010
,
0001
0100
0010
0001
0010
0100
0001
1000
,
0200
0000
0300
0010
0001
1000
0100
0100
,
1000
0010
0001
0010
0100
0010
1000
0001
,
2001
0000
0000
0000
3010
1000
0001
1000
,
0010
1000
0100
0010
0100
1000
0001
0101
,
0000
0010
1000
1010
0000
1000
0100
1100
,
0000
0100
0010
0100
0010
0010
0001
1000
,
0020
0000
0000
0000
0030
1000
0100
0010
,
0100
1000
0001
0010
0001
0010
0100
1000
,
0020
0000
0000
0130
0001
1000
0100
0010
,
0001
0100
0010
1000
0001
0100
0010
1000
,
0001
0100
0010
1000
0000
0000
0000
0000
0001
0100
0010
1000
0000
0000
0001
0100
,
0010
1000
0100
0010
0000
0000
0000
0000
0100
1000
0001
0100
0000
0000
0000
0000
,
0010
0100
0001
0010
0000
0000
0000
0000
0100
1000
0010
0100
0000
0000
0000
0000
,
0010
0100
0001
1000
0000
0000
0000
0000
0002
0000
0000
0000
2000
0000
0000
3003
,
0110
0001
1000
0010
,
1010
1000
0001
0010
,
1100
0100
0010
0001
,
1010
0000
0000
0001
0000
0000
0001
0010
0001
0100
0010
1000
,
0100
0010
0001
0100
0000
0010
0100
0001
,
1000
0100
0010
0001
1000
0001
0010
0100
,
1000
0100
1000
0010
0100
0010
1000
0001
,
2002
0000
3003
1001
,
0001
0020
0000
0031
0100
0020
0000
0130
,
0001
0010
0100
0010
0001
1000
0200
0000
,
0310
2000
0000
3100
0010
0002
0000
0013
,
0001
0100
0010
1000
0100
0010
0012
0000
,
0003
1000
0100
1000
0010
0100
0001
1000
,
0100
0000
0000
1000
0000
0000
0001
0000
0010
0000
0100
0000
0010
0000
0001
0000
1000
0000
0020
0000
0000
0000
0000
0000
,
0000
0000
0000
0130
0000
0000
0001
0000
0000
0010
0000
0000
0100
0000
0000
1000
0000
0000
0001
0000
1000
0000
0001
0000
,
1000
0000
0000
0000
0001
0000
0000
0000
1000
0000
0000
0000
0001
0000
0000
0100
0000
0000
0001
0000
0000
0100
0000
0000
0001
0000
0000
0100
0000
0000
0001
0000
0000
0100
0000
0000
0002
0000
0000
0000
0000
0000
0000
0000
0000
0000
0000
0000
,
0100
0100
0103
2010
,
0010
0010
3010
2100
,
3010
0000
0012
0000
0103
0000
1000
0001
,
0100
0110
0000
1001
0000
1000
2010
0000
,
0000
0000
3000
0000
0001
0001
0100
0100
,
0010
0010
1000
1000
0001
0001
1000
0001
,
0010
0000
0000
0100
0000
0000
0010
0000
0000
0001
0000
0000
0010
0000
0000
0100
0000
0000
1000
0000
0100
0000
0010
0000
,
0001
0100
0010
1000
0000
0010
0000
0100
0000
2002
0000
0000
,
0000
0000
0000
0000
,
0000
0000
0000
0000
0000
0000
0000
0000
0000
0003
3000
0000
0101
0000
0001
0000
,
0020
0000
0130
1100
0000
1000
1010
0000
,
0010
0110
0000
0100
0101
0000
0001
0100
,
0002
0000
1003
1010
0000
0010
0110
0000
,
0100
0101
0000
0001
1001
1000
0100
1000
,
0010
0100
0001
0010
0100
0010
0001
0100
,
0010
1000
0001
0010
0100
1000
0001
1000
,
0010
1000
0001
0010
0100
1000
0001
0100
,
1000
0000
0100
0000
0001
0000
1000
0001
1000
0000
0000
0000
0000
0000
0000
0000
;

//--------------- dance-single - Pandemonium X ----------------
#NOTES:
     dance-single:
     Pandemonium X:
     Challenge:
     16:
     0,0,0,0,0:
0000
0000
0000
0000
,
0000
0000
0000
0000
,
0000
0000
0000
0000
,
0000
0000
0000
0000
,
0000
0000
0000
0000
0000
0000
1000
0001
1000
0000
0000
1000
0000
0000
1000
0001
,
1000
0100
0010
0000
0010
0100
0000
0010
,
0001
0000
0100
0010
0000
1000
0100
0010
,
0100
1000
0001
0000
0100
0010
0000
1000
,
0100
0000
0000
0000
0000
0000
1000
0100
0010
0100
1000
0001
0010
0100
1000
0001
,
0100
0000
0000
0000
0010
0000
2000
0000
0000
0000
3100
0000
0000
0000
0010
0001
,
0100
0010
1000
0001
0010
0100
0010
0001
,
2000
0000
0000
3010
0100
0100
0002
0000
,
0010
0000
0000
0000
0203
0000
0000
0000
0010
0000
0000
0000
0301
0000
0100
0010
,
2000
0000
0000
0000
3100
0000
0010
0100
2000
0000
0000
0000
3001
0000
0001
0010
,
0200
0000
0000
0000
0310
0000
0001
1000
0020
0000
0000
0000
1030
0000
0001
1000
,
0001
0100
0001
0000
0100
0000
0010
1000
0010
0000
1000
0000
0001
0010
0100
0000
,
1000
0100
0010
0000
0001
0000
0100
0000
0010
0000
0001
0000
0120
0000
0000
0000
,
1030
0000
0000
0000
0010
0000
0200
0000
0000
0000
0301
0000
0000
0000
0100
0010
,
1000
0001
0010
0001
0100
0010
1000
0100
,
0010
0001
0010
0000
0001
0000
1000
0010
1000
0000
0001
0000
0100
0001
0020
0000
,
0000
0000
0130
1000
0002
0000
0000
0000
0100
0000
0000
0000
0010
0000
0000
0000
,
2003
0000
0000
0000
3010
0000
0100
0001
0020
0000
0000
0000
0130
0000
0010
0001
,
2000
0000
0000
0000
3100
0000
0010
0001
0200
0000
0000
0000
0310
0000
0100
0001
,
1000
0100
1000
0010
1000
0001
0100
0001
,
1001
0000
1010
0000
1001
0000
0001
0100
0010
1000
0001
0100
,
0002
0100
1000
0100
,
0010
0000
0000
0000
0100
0000
0000
0000
1000
0000
0000
0000
0103
0000
0100
0010
,
2000
0010
0100
0001
,
3010
0000
0001
0000
0010
0000
0100
0000
0001
1000
0001
0010
0000
0000
0000
0000
,
1100
1000
0100
1000
0001
0001
0100
0010
,
1000
1000
0100
0001
0100
0010
0001
1000
,
0001
0001
0010
0001
1000
1000
0010
0100
,
0001
0001
0010
1000
0010
0100
1000
0001
,
1000
1000
0010
0100
0001
0001
0010
0100
,
1000
0010
0100
1000
0100
0010
1000
0001
,
0020
0000
0000
0000
0030
0000
0100
1000
0001
0100
0001
1000
0100
0000
0010
0000
,
0001
0100
1000
0100
0001
0010
1000
0010
,
0012
0000
0000
0000
0000
0000
0000
0000
0103
0010
0100
0010
1000
0000
0001
0000
,
0100
0001
0010
1000
0010
0001
1000
1010
,
0000
0100
0001
0101
0000
0001
0010
0011
,
0000
0010
0100
0010
0010
0100
1000
0001
,
0200
0000
0000
0000
0000
0000
0000
0000
0300
0000
0010
1000
0010
0000
1000
0000
,
0100
0010
0001
0100
1000
0100
0010
1000
,
0002
0000
0000
1003
0010
0001
0010
0100
,
0100
0010
0100
0001
0100
0001
1000
0010
1000
0001
1000
0001
0010
0001
1000
0000
,
1001
0000
0000
0000
0000
0000
0000
0000
1000
0000
0000
0000
0000
0000
0010
1000
,
0100
0000
0000
0000
0000
0000
0000
0000
0000
0000
0000
0000
0000
0000
0000
0000
0000
0000
0000
0000
0000
0000
0000
0000
0010
0000
0000
0000
0000
0000
0100
0000
0000
0000
0000
0000
1000
0000
0000
0000
0000
0000
0001
0000
0000
0000
0000
0000
0100
0000
0000
0000
0000
0000
0000
0000
0000
0000
0000
0000
0000
0000
0000
0000
0000
0000
0010
0000
0000
0100
0000
0000
0010
0000
0000
0000
0000
0000
0000
0000
0010
0000
0000
0000
0000
0000
0000
0000
0100
0000
0000
0000
0000
0000
0000
0000
,
0100
0000
0000
0000
0000
0000
0000
0000
0001
0000
0010
0000
0100
0000
0010
0000
0001
0000
0000
0000
0001
1000
0010
0000
0000
0000
0100
0000
0010
0000
1000
0000
,
0100
0000
0000
0000
0000
0000
0010
0000
0000
0000
0000
0000
0001
0000
0000
0000
1000
0000
0000
0000
0000
0000
0001
1000
0001
0000
0000
0000
0000
0000
0000
0000
,
1000
0010
0100
0001
0010
0100
1000
0100
,
1000
0010
0100
0001
0010
0100
0010
0001
,
1000
0010
0100
0001
0010
0100
0010
0001
,
1000
0000
0000
0010
0000
0000
0100
0000
0000
0001
0000
0000
0010
0000
0100
0000
1000
0000
0010
0000
0100
0000
0001
0000
,
0010
0100
1000
0010
0000
0100
0010
1000
,
0001
0000
0010
0000
0100
0000
1000
0000
0001
0000
1000
0000
0010
0100
0001
1000
,
0100
0000
0010
0000
0001
0000
0100
0000
0010
1000
0010
1000
0001
0100
0001
0100
,
0020
0000
0030
1001
,
1000
0000
0200
0000
0000
0000
1300
0000
0010
0000
0200
0000
0000
0000
0310
1000
,
0010
0100
0001
0010
0100
1000
0002
0000
,
0103
0002
0000
0013
0100
2000
0000
3100
,
1000
0010
0100
0001
0010
0100
2100
0000
,
3000
0001
0010
0001
0100
0010
1000
0001
,
0010
0000
0000
0001
0000
0000
1000
0000
0100
0000
0010
0000
0100
0000
1000
0000
0001
0000
0200
0000
0000
0000
0000
0000
,
0000
0000
0000
0000
0000
0000
0310
0000
0000
1000
0000
0000
0010
0000
0000
0000
0000
0000
0100
0000
0000
0000
0000
0000
0001
0000
0000
0000
0000
0000
1000
0000
0000
0000
0000
0000
0100
0000
0000
0000
0010
0000
0000
0000
0001
0000
0000
0000
,
0100
0000
0000
0000
0010
0000
0000
0000
1000
0000
0000
0000
0001
0000
0000
0010
0000
0000
0001
0000
0000
1000
0000
0000
0010
0000
0000
1000
0000
0000
0001
0000
0000
0010
0000
0000
0100
0000
0000
0000
0000
0000
1000
0000
0000
0000
0000
0000
,
0100
0001
0100
1000
0010
0100
0001
0010
,
1000
0010
0001
0010
0100
1000
0001
0100
,
1000
0100
0010
1000
0001
0100
0101
0001
,
0010
0110
0000
1100
0000
1010
0102
0000
,
0000
0000
0000
0000
0003
0000
0000
0000
0010
0100
1000
0001
1000
0010
1000
0100
,
1000
0010
1000
0001
1000
0010
1000
0100
0010
0001
0010
0100
2000
0000
0000
0000
,
3000
0000
0000
0001
0000
0000
0010
0000
0000
0010
0000
0000
0100
0000
0000
0010
0000
0000
0001
0000
0010
0000
0100
0000
,
1000
0010
0100
0101
0000
1010
0000
0101
0000
2002
0000
0000
,
0000
0000
0000
0000
,
0000
0000
0000
0000
0000
0000
0000
0000
0000
3000
0003
0000
1010
0000
1000
0000
,
0200
0000
0000
0000
0310
0001
0010
0000
0100
0000
1000
0100
1000
0000
0010
0000
,
0100
0010
0100
0000
0010
0000
1000
0001
0010
0000
0100
0000
1000
0000
0001
0000
,
0200
0000
0000
0000
0310
1000
0010
0000
0100
0000
0001
0100
0001
0000
0010
0000
,
0100
1000
0100
0000
1000
0000
0100
0010
0001
0000
1000
0000
0010
0000
0001
0000
,
0010
0100
0001
0010
1000
0010
0100
1000
,
0010
0100
0010
1000
0001
0010
0100
1000
,
0100
0000
0001
0000
0100
0000
0010
0000
0001
0000
1000
0000
0001
0010
0100
1000
,
0100
1000
0010
0100
0010
1000
0001
1000
0000
0000
0000
0000
0000
0000
0000
0000
;
