#TITLE:Fever;
#SUBTITLE:;
#ARTIST:Lenno feat. Benson;
#TITLETRANSLIT:;
#SUBTITLETRANSLIT:;
#ARTISTTRANSLIT:;
#GENRE:;
#CREDIT:;
#MUSIC:Fever.ogg;
#BANNER:;
#BACKGROUND:;
#CDTITLE:;
#SAMPLESTART:50.148;
#SAMPLELENGTH:17.357;
#SELECTABLE:YES;
#OFFSET:-0.148;
#BPMS:0.000=114.000;
#STOPS:;
#BGCHANGES:;
#FGCHANGES:;

//--------------- dance-single - Pandemonium X ----------------
#NOTES:
     dance-single:
     Pandemonium X:
     Beginner:
     4:
     0,0,0,0,0:
0000
0000
0000
0000
,
0000
0000
0000
0000
,
0000
0000
0000
0000
,
0000
0000
0000
0000
,
0001
0000
1000
0000
,
0001
1000
0001
0000
,
0100
0000
0010
0000
,
0100
0000
0000
0010
,
1001
0000
0001
0000
,
1000
1000
1000
1000
,
0001
0000
1000
0000
,
0010
0010
0100
0100
,
0010
0000
1000
0000
,
0001
0001
0001
0001
,
1000
0000
0001
0000
,
0100
0100
0100
0100
,
1001
0000
0000
0000
,
0110
0000
0000
0000
,
0001
0001
0001
0000
,
1000
1000
1000
0000
,
1001
0000
0000
0000
,
0110
0000
0000
0000
,
0001
0001
0001
0000
,
1000
1000
1000
0010
,
1001
0000
0001
0000
,
1000
0100
1000
0000
,
1001
0000
1000
0000
,
0001
0100
0001
0000
,
1001
0000
1000
0000
,
0010
1000
0010
0000
,
0100
0100
0100
0000
,
0001
0001
0001
0000
,
1000
0000
0001
0000
,
1000
0000
0001
0000
,
0100
0000
0010
0000
,
0100
0100
0100
0000
,
0010
0000
0000
0000
,
1000
1000
1000
1000
,
0001
0000
0010
0000
,
0100
0100
0010
0010
,
0001
0000
1000
0000
,
0010
0010
0010
0010
,
0100
0000
0010
0000
,
1000
1000
0001
0001
,
1001
0000
0000
0000
,
0110
0000
0000
0000
,
0100
0100
0100
0000
,
0010
0010
0010
0000
,
1001
0000
0000
0000
,
0110
0000
0000
0000
,
1000
0000
0001
0000
,
1000
0001
1000
0100
,
1001
0000
1001
0000
,
0001
1000
0001
0000
,
1001
0000
1001
0000
,
1000
0001
0100
0000
,
1001
0000
1001
0000
,
0001
1000
0010
0000
,
0100
0100
0100
0000
,
0010
0010
0010
0000
;

//--------------- dance-single - Pandemonium X ----------------
#NOTES:
     dance-single:
     Pandemonium X:
     Easy:
     6:
     0,0,0,0,0:
0000
0000
0000
0000
,
0000
0000
0000
0000
,
0000
0000
0000
0000
,
0000
0000
0000
0000
,
0001
1000
0010
1001
,
1000
0001
0010
0001
,
1000
0001
0100
0001
,
1000
1000
1000
1001
,
0001
1000
0010
1000
,
0002
1003
0002
1003
,
0010
0100
0001
1000
,
0002
0023
0230
2300
,
3001
0100
0001
1000
,
0200
0310
0200
0310
,
0001
0010
0001
1000
,
1001
0110
1001
0110
,
0001
0000
0100
0000
0010
1000
0000
0000
,
0010
0000
1000
0000
0001
0100
0000
0000
,
0002
2003
0200
3300
,
2000
3002
0200
0303
,
0001
0000
1000
0000
0010
0100
0000
0000
,
0010
0000
1000
0000
0001
0010
0000
0000
,
0200
0320
0032
1003
,
0002
0203
0320
0130
,
1001
0001
1000
1001
,
0001
0100
0010
1010
,
0101
0001
1000
0010
,
0100
0001
0010
0101
,
1010
0001
1000
0010
,
0100
0001
1000
0100
,
2000
3200
0310
0011
,
0002
0023
0130
1100
,
0001
1000
0001
0000
1000
0000
1001
0000
,
0001
1000
0001
0000
1000
0000
1000
0000
,
1000
0001
1000
0000
0001
0000
1001
0000
,
1000
0001
1000
0001
1000
0001
0000
0000
,
0100
0101
0000
0001
,
0020
0130
0020
0130
,
1000
0001
0100
0001
,
2000
3200
0320
0032
,
1003
0010
1000
0001
,
0020
0130
0020
0130
,
1000
0001
0100
0001
,
2000
3002
0023
0230
,
1300
0000
0100
0000
0010
0001
0000
0000
,
0010
0000
0100
0000
1000
0001
0000
0000
,
2000
3020
0200
0330
,
0020
2030
0002
3003
,
1000
0000
0001
0000
0100
0010
0000
0000
,
0100
0000
0010
0000
1000
0100
0000
0000
,
0020
0230
2000
3300
,
0020
0230
0301
0110
,
1001
0000
1000
0000
0001
0010
0001
0000
,
0010
0100
1000
1001
,
0110
0000
0010
0000
1000
0010
1000
0000
,
0001
1000
0100
1001
,
0110
0000
0010
0000
0100
0001
0100
0000
,
0001
1000
0100
1000
,
0002
0023
0230
1300
,
0002
0203
0320
0030
;

//--------------- dance-single - Pandemonium X ----------------
#NOTES:
     dance-single:
     Pandemonium X:
     Medium:
     8:
     0,0,0,0,0:
0000
0000
0000
0000
,
0000
0000
0000
0000
,
0000
0000
0000
0000
,
0000
0000
0000
0000
,
0001
0000
0000
0001
0000
0000
0001
0000
1000
0000
0000
0000
0000
0000
0000
0000
,
0010
0000
0000
0100
0000
0000
0001
0000
1000
0000
0000
0000
0000
0000
0000
0000
,
0100
0000
0000
0100
0000
0000
0010
0000
0100
0000
0000
0000
0000
0000
0000
0000
,
0020
0032
0203
0320
,
1030
0000
0000
0000
0001
0000
0000
1000
0000
0000
0100
0000
1000
0000
0000
0000
,
1010
0110
1010
0110
,
0100
0001
0010
0100
,
0110
1001
0110
1001
,
1000
0001
0010
0001
,
0101
1100
0101
1100
,
0100
1000
0010
0100
,
1001
0110
1001
0110
,
0001
0000
0000
0001
0000
0000
0001
0000
1000
0000
0000
0000
0000
0000
0000
0000
,
0010
0000
0000
0010
0000
0000
0010
0000
0100
0000
0000
0000
0000
0000
0000
0000
,
0002
0023
0230
2300
,
3020
0230
0302
2003
,
3001
0000
0000
0001
0000
0000
0001
0000
1000
0000
0000
0000
0000
0000
0000
0000
,
0100
0000
0000
0100
0000
0000
0100
0000
0010
0000
0000
0000
0000
0000
0000
0000
,
0200
2300
3020
0230
,
0302
2003
3002
0103
,
1010
0000
0000
0010
0000
0000
0010
0000
1000
0000
0000
0000
0000
0000
0000
0000
,
0001
0000
0000
0010
0000
0000
0100
0000
0010
0000
0000
0000
0011
0000
0000
0000
,
1100
0000
0000
0100
0000
0000
1000
0000
0001
0000
0000
0000
0000
0000
0000
0000
,
0100
0000
0000
0001
0000
0000
0010
0000
0100
0000
0000
0000
1100
0000
0000
0000
,
1001
0000
0000
0001
0000
0000
0001
0000
1000
0000
0000
0000
0000
0000
0000
0000
,
0010
0000
0000
0100
0000
0000
0001
0000
0010
0000
0000
0000
0100
0000
0000
0000
,
2000
3200
0320
0032
,
0203
0320
2030
3002
,
1003
0001
0010
0000
0001
1000
0010
0000
,
1000
0001
0010
0000
0100
0000
1001
0000
,
0001
1000
0100
0000
1000
0001
0100
0000
,
0001
1000
0100
1000
0001
0100
0001
0000
,
1000
0000
0001
0000
0000
0000
0010
0100
,
2000
3100
0020
0031
,
0001
0000
1000
0000
0010
0000
0100
0010
,
2000
3010
0200
0301
,
1000
0000
0001
0000
0010
0000
0100
0010
,
0011
0101
0011
0101
,
0001
0000
1000
0000
0010
0000
0100
0010
,
1001
0110
1001
0110
,
1000
0000
0000
0010
0000
0000
0100
0000
0001
0000
0000
0000
0000
0000
0000
0000
,
0010
0000
0000
0100
0000
0000
1000
0000
0001
0000
0000
0000
0000
0000
0000
0000
,
2000
3200
0320
0032
,
0203
0320
0230
0302
,
1003
0000
0000
0010
0000
0000
1000
0000
0100
0000
0000
0000
0000
0000
0000
0000
,
0010
0000
0000
0001
0000
0000
0100
0000
0010
0000
0000
0000
0000
0000
0000
0000
,
0200
0302
2003
3020
,
2030
3200
0320
0031
,
1001
0000
0000
0001
0000
0000
1000
0000
0010
0000
0000
0010
0000
0000
0000
0000
,
0100
0000
0000
0010
0000
0000
1000
0000
0100
0000
0000
0000
0011
0000
0000
0000
,
1100
0000
0000
0100
0000
0000
1000
0000
0001
0000
0000
0010
0000
0000
0000
0000
,
0001
0000
0000
0100
0000
0000
0001
0000
1000
0000
0000
0000
1001
0000
0000
0000
,
0101
0000
0000
0100
0000
0000
0001
0000
1000
0000
0000
0010
0000
0000
0000
0000
,
1000
0000
0000
0001
0000
0000
0010
0000
0001
0000
0000
0000
0010
0000
0000
0000
,
0002
0023
0230
2300
,
3002
0000
0000
0000
0203
0000
0000
0000
0302
0000
0000
0013
0000
0000
0000
0000
;

//--------------- dance-single - Pandemonium X ----------------
#NOTES:
     dance-single:
     Pandemonium X:
     Hard:
     12:
     0,0,0,0,0:
0000
0000
0000
0000
,
0000
0000
0000
0000
,
0000
0000
0000
0000
,
0000
0000
0000
0000
,
1001
0000
0000
1001
0000
0000
1100
0000
0201
0000
0000
0000
0310
0000
0000
0000
,
1001
0000
1000
0001
0000
0001
1000
0000
0110
0000
0000
0000
0000
0000
0000
0000
,
1001
0000
0000
1001
0000
0000
0101
0000
1001
0000
0000
0000
0000
0000
0000
0000
,
1001
0000
0000
1000
0020
0000
0000
0130
0002
0000
0000
1003
0020
0000
0000
0000
,
0130
0000
0000
0000
0010
0000
0100
0010
0000
0000
1000
0000
0001
0000
0010
0000
,
0012
0000
0200
0303
0012
0000
0200
0000
,
0303
0000
0001
0000
0100
0010
0000
1000
0000
0000
0001
0000
1000
0000
0100
0000
,
2000
3020
0230
0002
,
0303
0000
1000
0000
0001
0100
0000
0001
0000
0000
0010
0000
0100
0000
1000
0000
,
1020
0000
0200
0330
1020
0000
0200
0000
,
0330
0000
0010
0000
0100
0010
0000
1000
0000
0001
0010
0000
0100
0000
1000
0000
,
2100
3010
0201
0310
,
1001
0000
0001
0100
0000
0100
0020
0000
1000
0000
0130
0000
0000
0000
0010
0000
,
1000
0000
0001
0010
0000
0100
0020
0000
0001
0000
0130
0000
0000
0000
0010
0000
,
0001
0000
0000
0001
0010
0000
0000
0010
0100
0000
0000
0000
1100
0000
0000
0000
,
1001
0000
0000
1000
0100
0000
0000
0100
0010
0000
0000
0000
0011
0000
0000
0000
,
1001
0000
0001
0100
0000
0010
2000
0000
0100
0000
3001
0000
0000
0000
1000
0000
,
0001
0000
0100
0010
0000
1000
0002
0000
1000
0000
0103
0000
0000
0000
0010
0000
,
1000
0000
0000
1000
0100
0000
0000
0100
0010
0000
0000
0000
0011
0000
0000
0000
,
1001
0000
0000
0001
0010
0000
0000
0010
0100
0000
0000
0000
0110
0000
0000
0000
,
2001
0000
0000
0001
0000
0000
0001
0000
3001
0000
0000
0000
1001
0000
0000
0000
,
0001
0000
0100
0010
0000
0010
0100
0000
0101
0000
0000
0000
1001
0000
0000
0000
,
2010
0000
0000
0010
0000
0000
0010
0000
3010
0000
0000
0000
0110
0000
0000
0000
,
0010
0000
1000
0010
0000
0010
1000
0000
0001
0000
0000
0000
0011
0000
0000
0000
,
0210
0000
0000
0010
0000
0000
0010
0000
0310
0000
0000
0000
1001
0000
0000
0000
,
0001
0000
0100
0010
0000
0010
0100
0000
0001
0000
0000
0000
0100
0000
0000
0000
,
1001
0000
0000
1000
0100
0000
0000
0100
0010
0000
0000
0000
0011
0000
0000
0000
,
1001
0000
0000
0001
0010
0000
0000
0010
0100
0000
0000
0000
1100
0000
0000
0000
,
1000
0001
1000
0000
0010
0000
0000
0000
1000
0001
1000
0000
0102
0000
0000
0000
,
1003
0001
1000
0000
0010
0000
0000
0000
1000
0001
0000
0001
0000
0001
1000
0000
,
0001
1000
0001
0000
0100
0000
0000
0000
0001
1000
0001
0000
0010
0000
0000
0000
,
0001
1000
0001
0000
1000
0001
1000
0000
0001
1000
0001
0000
1001
0000
0000
0000
,
1020
0000
0200
0000
0330
0000
0001
0100
,
0210
0000
0002
0303
0210
0000
0002
0000
,
0303
0000
1000
0000
0001
0100
0000
0010
0000
0000
0100
0000
0001
0000
1000
0000
,
2001
3020
0230
0002
,
0303
0000
1000
0000
0001
1000
0000
0001
0000
0000
0100
0000
0001
0000
0010
0000
,
0021
0000
0200
0330
0021
0000
0200
0000
,
0330
0000
0010
0000
0001
0100
0000
0010
0000
0000
1000
0000
0001
0000
0010
0000
,
0110
1001
0110
1001
,
0001
0000
1000
0010
0000
0010
0200
0000
0001
0000
0301
0000
0000
0000
0010
0000
,
0100
0000
1000
0100
0000
0100
0020
0000
0100
0000
0130
0000
0000
0000
0010
0000
,
0001
0000
0000
0001
0010
0000
0000
0010
0100
0000
0000
0000
0110
0000
0000
0000
,
1100
0000
0000
1000
0100
0000
0000
0100
0010
0000
0000
0000
0011
0000
0000
0000
,
1001
0000
0001
0100
0000
0010
2000
0000
0001
0000
3001
0000
0000
0000
0010
0000
,
0001
0000
0100
0010
0000
1000
0200
0000
0010
0000
0310
0000
0000
0000
0100
0000
,
0010
0000
0000
0001
0010
0000
0000
0010
0100
0000
0000
0000
0110
0000
0000
0000
,
1100
0000
0000
1000
0100
0000
0000
0100
0010
0000
0000
0000
1001
0000
0000
0000
,
0110
0000
0000
0110
0000
0000
0100
0000
0010
0000
0100
0010
0000
0000
0000
0000
,
0010
0000
0100
0001
0000
0010
0100
0000
1000
0000
0000
0000
1100
0000
0000
0000
,
0011
0000
0000
0101
0000
0000
0011
0000
0010
0000
0100
0010
0000
0000
0000
0000
,
0100
0000
1000
0100
0000
0100
0010
0000
0001
0000
0000
0000
0011
0000
0000
0000
,
1001
0000
0000
0101
0000
0000
1001
0000
0001
0000
1000
0010
0000
0000
0000
0000
,
1000
0000
0001
0010
0000
0100
1000
0000
0010
0000
0000
0000
1001
0000
0000
0000
,
0011
0000
0000
1000
0200
0000
0000
0310
0002
0000
0000
1003
0001
0000
0000
0000
,
0110
0000
0000
0001
0200
0000
0000
0310
1000
0000
0001
0010
0000
0000
0000
0000
;

//--------------- dance-single - Pandemonium X ----------------
#NOTES:
     dance-single:
     Pandemonium X:
     Challenge:
     14:
     0,0,0,0,0:
0000
0000
0000
0000
,
0000
0000
0000
0000
,
0000
0000
0000
0000
,
0000
0000
0000
0000
,
0101
0000
0000
0011
0000
0000
1100
0000
1001
0000
0000
0000
MMMM
0000
0000
0000
,
0101
0000
0001
0010
0000
001M
1000
0000
1001
0000
0000
0000
0000
0000
0000
0000
,
1100
0000
0000
0101
0000
0000
1010
0000
1001
0000
0000
0000
0000
0000
0000
0000
,
1000
0000
0001
1000
0020
0000
0130
0001
0020
0000
0130
1000
0020
0000
0000
0000
,
0130
0000
0000
0000
0001
0000
1000
0010
0000
0000
0100
0000
0010
0000
0100
0000
,
0202
0000
0000
0303
1M1M
0000
0000
0000
0202
0000
0000
0303
1M1M
0000
0000
0000
,
0000
0000
0001
0000
1000
0010
0000
1000
0000
0000
0001
0000
0010
0000
0001
0000
,
0022
0000
0000
0033
22MM
0000
0000
3300
MM22
0000
0000
0033
22MM
0000
0000
3300
,
0001
0000
1000
0000
0010
1000
0000
0001
0000
0000
0010
0000
0100
0000
1000
0000
,
2200
0000
0000
3300
MM11
0000
0000
0000
2200
0000
0000
3300
MM11
0000
0000
0000
,
0000
0000
0001
0000
0100
0010
0000
1000
0000
0001
0010
0000
0001
0000
0100
0000
,
0202
0000
0000
0303
2M2M
0000
0000
3030
M2M2
0000
0000
0303
1M1M
0000
0000
0000
,
1001
0000
1000
0100
0000
M100
0001
0000
1001
0000
1001
0000
0000
0000
0001
0000
,
1001
0000
1000
0010
0000
M010
0001
0000
1001
0000
1001
0000
0000
0000
0000
0000
,
1001
0000
0001
0100
1000
000M
1000
0100
0001
0000
0000
0000
1001
0000
0000
0000
,
1001
0000
1000
0100
0001
M000
0001
0100
4000
0004
0000
0000
0000
0000
3003
0000
,
1001
0000
1000
0100
0000
M100
0001
0000
1001
0000
1001
0000
0000
0000
0000
0000
,
0001
0000
0001
0010
0000
001M
1000
0000
1001
0000
1001
0000
0000
0000
0000
0000
,
1001
0000
1000
0100
0001
M000
0001
0100
1000
0000
0000
0000
1001
0000
0000
0000
,
0001
0000
0000
0001
0000
0001
0010
0000
0001
0000
0000
0000
0202
0000
0000
0303
,
1M1M
0000
0000
1010
0000
0000
0101
0000
1001
0000
0000
0000
MMMM
0000
0000
0000
,
1000
0000
1000
0100
0000
M100
0001
0000
1001
0000
0000
0000
2200
0000
0000
3300
,
MM11
0000
0000
1100
0000
0000
1001
0000
0101
0000
0000
0000
0000
0000
0000
0000
,
1001
0000
0001
0100
0000
010M
1000
0000
1001
0000
0000
0000
2020
0000
0000
3030
,
M1M1
0000
0000
0101
0000
0000
0110
0000
1010
0000
0000
0000
0000
0000
0000
0000
,
1001
0000
1000
0100
0000
M100
0001
0000
1001
0000
0000
0000
0110
0000
0000
0000
,
1001
0000
1000
0100
0001
M000
0001
0100
1000
0000
0000
0000
1001
0000
0000
0000
,
1001
0000
0001
0100
1000
000M
1000
0100
0001
0000
0000
0000
1001
0000
0000
0000
,
0001
0100
0010
0000
1010
0000
0000
0000
1000
0100
0010
0000
MMMM
0000
0000
0000
,
0001
0010
0100
0000
1100
0000
0000
0000
1000
0100
0000
0100
0000
0100
0010
0000
,
0001
0010
0100
0000
1100
0000
0000
0000
0100
1000
0010
0000
1010
0000
0000
0000
,
1000
0001
1000
0000
1000
0001
1000
0000
1000
0001
1000
0000
0000
0000
0000
0000
,
0101
0000
0000
0010
1000
0000
0010
0000
0010
0000
0000
0000
0100
0000
0001
0000
,
0022
0000
0000
0033
11MM
0000
0000
0000
0022
0000
0000
0033
11MM
0000
0000
0000
,
1001
0000
0001
0000
0100
0010
0000
0100
0000
0000
0001
0000
1000
0000
0100
0000
,
2200
0000
0000
3300
MM22
0000
0000
0033
22MM
0000
0000
3300
MM22
0000
0000
0033
,
1001
0000
0001
0000
0010
0100
0000
1000
0000
0000
0100
0000
1000
0000
0010
0000
,
2020
0000
0000
3030
M1M1
0000
0000
0000
2020
0000
0000
3030
M1M1
0000
0000
0000
,
0000
0000
1000
0001
0010
0100
0000
0010
0000
0001
0100
0000
0010
0000
1000
0000
,
2200
0000
0000
3300
MM22
0000
0000
0033
22MM
0000
0000
3300
MM11
0000
0000
0000
,
1001
0000
1000
0100
0000
M100
0001
0000
1001
0000
1001
0000
0000
0000
0000
0000
,
1001
0000
0001
0010
0000
001M
1000
0000
1001
0000
1001
0000
0000
0000
0000
0000
,
1001
0000
0001
0010
1000
000M
1000
0010
0001
0000
0000
0000
1001
0000
0000
0000
,
1001
0000
1000
0010
0001
M000
0001
0010
4000
0004
0000
0000
0000
0000
3003
0000
,
1001
0000
0001
0100
0000
010M
1000
0000
1001
0000
1001
0000
0000
0000
0000
0000
,
1001
0000
1000
0010
0000
M010
0001
0000
1001
0000
1001
0000
0000
0000
0000
0000
,
1001
0000
1000
0100
0001
M000
0001
0100
1000
0000
0000
0000
1001
0000
0000
0000
,
1001
0000
0001
0100
1000
000M
1000
0100
0001
0000
0000
0000
0202
0000
0000
0303
,
1M1M
0000
0000
1010
0000
0000
0001
0000
1001
0000
1000
0010
0000
0000
0000
0000
,
1001
0000
0001
0100
0000
010M
1000
0000
1001
0000
0000
0000
0022
0000
0000
0033
,
11MM
0000
0000
1100
0000
0000
0100
0000
1100
0000
0100
0010
0000
0000
0000
0000
,
1001
0000
0001
0010
0000
001M
1000
0000
1001
0000
0000
0000
0202
0000
0000
0303
,
1M1M
0000
0000
1010
0000
0000
1000
0000
1001
0000
0001
0010
0000
0000
0000
0000
,
1001
0000
1000
0010
0000
M010
0001
0000
1001
0000
0000
0000
0110
0000
0000
0000
,
1001
0000
0001
0100
1000
000M
1000
0100
0001
0000
0000
0000
1001
0000
0000
0000
,
1001
0000
0001
0010
1000
000M
1000
0010
0001
0000
0100
0010
0000
0000
0000
0000
;
