#TITLE:Feel The Beat;
#SUBTITLE:;
#ARTIST:Falsion;
#TITLETRANSLIT:;
#SUBTITLETRANSLIT:;
#ARTISTTRANSLIT:;
#GENRE:;
#CREDIT:;
#MUSIC:Feel The Beat.ogg;
#BANNER:;
#BACKGROUND:;
#CDTITLE:;
#SAMPLESTART:55.408;
#SAMPLELENGTH:10.971;
#SELECTABLE:YES;
#OFFSET:0.821;
#BPMS:0.000=175.000;
#STOPS:;
#BGCHANGES:;
#FGCHANGES:;

//--------------- dance-single - Pandemonium X ----------------
#NOTES:
     dance-single:
     Pandemonium X:
     Beginner:
     4:
     0,0,0,0,0:
0000
0000
0000
0000
,
0000
0000
0000
0000
,
0000
0000
0000
0000
,
0000
0000
0000
0000
,
0000
0000
0000
0000
,
0001
0000
0000
0000
,
1000
0000
0000
0000
,
0010
0000
0100
0000
,
0001
0001
0001
0000
,
1001
0000
0000
0000
,
1000
0000
0000
0000
,
0010
0000
0000
0000
,
0100
0000
0000
0000
,
0001
0000
0000
0000
,
0010
0000
0000
0000
,
0100
0000
1000
0000
,
0001
0001
1000
0001
,
1000
0000
0000
0000
,
0001
0000
0000
0000
,
0100
0000
0000
0000
,
0010
0000
0000
0000
,
0100
0000
0000
0000
,
0001
0000
0000
0000
,
1001
0000
0000
0000
,
0110
0000
0000
0000
,
1000
0000
0000
0000
,
0100
0000
0000
0000
,
0010
0000
0000
0000
,
0001
0000
0000
0000
,
0100
0000
0000
0000
,
0010
0000
0000
0000
,
1000
0000
0000
0000
,
0001
0000
0000
0000
,
1001
0000
0000
0000
,
0110
0000
0000
0000
,
1001
0000
0000
0000
,
0110
0000
0000
0000
,
0001
0000
1000
0000
,
0001
0000
1000
0000
,
0010
0000
0000
0000
,
0100
0100
0100
0000
,
1001
0000
0000
0000
,
1000
0000
0001
0000
,
0100
0000
0000
0000
,
0010
0000
1000
0000
,
0100
0000
0000
0000
,
0010
0000
0001
0000
,
1000
0000
0000
0000
,
1001
0000
0000
0000
,
0001
0000
0000
0000
,
1000
0000
0000
0000
,
0010
0000
0000
0000
,
1000
0000
0100
0000
,
0010
0000
0000
0000
,
0100
0000
0000
0000
,
1001
0000
0000
0000
,
0110
0000
0000
0000
,
0001
0000
0000
0001
0000
0000
0000
0000
,
0000
1000
0000
0000
1000
0000
1000
0000
,
0001
0000
0000
0001
0000
0000
0000
0000
,
1000
0000
0000
0000
,
1000
0000
0000
1000
0000
0000
0000
0000
,
0000
0001
0000
0000
0000
0000
0000
0000
,
1000
0000
0001
0000
,
0100
0100
0100
0000
,
0110
0000
0000
0000
,
0010
0000
0000
0000
,
1000
0000
0000
0000
,
0100
0000
0000
0000
,
0010
0000
0000
0000
,
0001
0000
0000
0000
,
1000
0000
0000
0000
,
0001
0000
0000
0000
,
0110
0000
0000
0000
,
0100
0000
0000
0000
,
0010
0000
0000
0000
,
1000
0000
0000
0000
,
0100
0000
0000
0000
,
0010
0000
0000
0000
,
0001
0000
0000
0000
,
1000
0001
1000
1000
,
1001
0000
0000
0000
,
0010
0000
0000
0000
,
1000
0000
0000
0000
,
0100
0000
0010
0000
,
0001
0000
0000
0000
,
0100
0000
0000
0000
,
0010
0000
0000
0000
,
0100
0000
0010
0000
;

//--------------- dance-single - Pandemonium X ----------------
#NOTES:
     dance-single:
     Pandemonium X:
     Easy:
     7:
     0,0,0,0,0:
0000
0000
0000
0000
,
0000
0000
0000
0000
,
0000
0000
0000
0000
,
0000
0000
0000
0000
,
0000
0000
0000
0000
,
0001
0000
1000
0001
0000
0000
0000
0000
,
0000
1000
0000
0001
1000
0000
0001
0000
,
1000
0001
0100
0100
,
0110
1001
0110
0000
,
0001
1000
0010
1000
,
0001
0010
0001
1000
,
0010
1000
0001
0010
,
0001
1000
0100
1000
,
0001
0100
0001
0010
,
0100
0010
0001
0100
,
0010
1000
0001
0010
,
0100
0000
0100
0000
0100
0010
0001
0000
,
2000
0000
0000
3000
,
0002
0000
0000
0003
,
0200
0000
0000
0300
,
0020
0000
0000
0030
,
1000
0001
0010
0100
,
0010
0001
0100
0010
,
1000
0001
0100
0001
,
1000
0100
0010
0011
,
0001
0000
1000
0000
,
0010
0000
0100
0001
,
1000
0000
0010
0000
,
1000
0000
0100
0010
,
0001
0000
0010
0000
,
0001
0000
0100
0001
,
0010
0000
0100
0000
,
1000
0000
0100
0000
,
1001
0000
0000
0000
,
0110
0000
0000
0000
,
1010
0000
0000
0000
,
0101
0000
0000
0000
,
0011
0000
0110
0000
,
1100
0000
1001
0000
,
0001
1000
0010
0100
,
1001
0110
1001
0000
,
0001
1000
0010
1000
,
0100
0010
0001
0100
,
0010
1000
0001
0010
,
0100
0010
0001
1000
,
0100
1000
0010
0100
,
0010
1000
0001
0010
,
0100
0010
0001
1000
,
1001
0000
0000
0000
,
0001
1000
0010
0001
,
0010
0100
1000
0100
,
0010
1000
0001
0010
,
0100
0010
0001
0010
,
0100
0100
1000
1000
,
0010
0010
0100
0100
,
0000
0220
0000
0000
0000
0000
0330
0000
,
0000
2002
0000
0000
0000
0000
3003
0000
,
0001
0000
1000
0001
0000
0000
0000
0000
,
0000
1000
0000
0001
1000
0000
1000
0000
,
0001
0000
1000
0001
0000
0000
0000
0000
,
1000
0000
0001
1000
0001
0000
0000
0000
,
1000
0000
0001
1000
0000
0000
0000
0000
,
0000
0001
0000
1000
0001
0000
1000
0000
,
0001
0000
1000
0000
0010
0100
0010
0000
,
1001
0110
1001
0000
,
0201
0000
0000
0300
,
1020
0000
0000
0030
,
2100
0000
0000
3000
,
0012
0000
0000
0003
,
1000
0001
0100
0001
,
0010
0100
1000
0010
,
0100
0010
1000
0001
,
1000
0100
0010
0001
,
2000
0000
0000
0000
,
3002
0000
0000
0000
,
0203
0000
0000
0000
,
0320
0000
0000
0000
,
0130
0000
0010
0000
,
1000
0000
0001
0000
,
1000
0000
0100
0000
,
0010
0000
0010
0000
0010
0100
0010
0000
,
0001
0010
0001
0100
,
0010
0100
0010
1000
,
0001
1000
0100
1000
,
0001
0000
0100
0000
0010
0000
1000
0010
,
0100
0001
0010
0100
,
0010
0001
0001
1000
,
0000
0022
0000
0000
0000
0000
0033
0000
,
0000
2020
0000
0000
0000
0000
0000
3030
;

//--------------- dance-single - Pandemonium X ----------------
#NOTES:
     dance-single:
     Pandemonium X:
     Medium:
     11:
     0,0,0,0,0:
0000
0000
0000
0000
,
0000
0000
0000
0000
,
0000
0000
0000
0000
,
0000
0000
0000
0000
,
0000
0000
0000
0000
,
0001
0000
1000
0001
0000
0000
0110
0000
,
0000
1001
0000
0001
1000
0000
1000
0000
,
0101
1100
0101
0101
,
0002
2003
0020
3030
,
0100
0001
0010
0001
,
1000
0100
0010
0100
,
1000
0010
0100
0001
,
0010
0000
0100
0000
0010
0001
0100
0000
,
0010
0000
0100
0000
0010
1000
0001
0000
,
1000
0000
0100
0000
0010
0100
1000
0000
,
0001
0000
1000
0000
0010
0100
0001
0000
,
1000
0000
1000
0000
1000
0001
0110
0000
,
0001
0000
0000
0001
0000
0000
0001
0000
0000
0001
0000
0000
0001
0000
0000
0000
,
1000
0000
0000
1000
0000
0000
1000
0000
0000
1000
0000
0000
1000
0000
0000
0000
,
0010
0000
0000
0010
0000
0000
0010
0000
0000
0010
0000
0000
0010
0000
0000
0000
,
0100
0000
0000
0100
0000
0000
0100
0000
0000
0100
0000
0000
0100
0000
0000
0000
,
0010
0000
0000
1000
0000
0000
0010
0000
0000
1000
0000
0000
0010
0000
0000
0000
,
0100
0000
0000
0001
0000
0000
0100
0000
0000
0001
0000
0000
0100
0000
0000
0000
,
0001
0000
0000
0010
0000
0000
0100
0000
0000
1000
0000
0000
0001
0000
0000
0000
,
1000
0000
0000
0100
0000
0000
0010
0000
0000
0001
0000
0000
1000
0000
0000
0000
,
0001
0000
1000
0000
,
0010
0000
1000
0100
,
0010
0000
0100
0000
,
1000
0000
0010
0100
,
0001
0000
0010
0000
,
0001
0000
1000
0001
,
0100
0000
0001
0000
,
0010
0000
0001
0000
0100
0000
0010
1000
,
0000
0000
0100
0000
0000
1000
0000
0000
0010
0000
0000
0100
0000
0000
0001
0000
,
0000
0000
0100
0000
0000
0010
0000
0000
1000
0000
0000
0001
0000
0000
0010
0000
,
0000
0000
0100
0000
0000
0010
0000
0000
0001
0000
0000
0010
0000
0000
0100
0000
,
0000
0000
0010
0000
0000
0001
0000
0000
0100
0000
0000
0010
0000
0000
1000
0000
,
0000
0000
0001
0000
0000
1000
0000
0000
0000
0000
0100
0000
0000
0010
0000
0000
,
0000
0000
0100
0000
0000
1000
0000
0000
0000
0000
0100
0000
0000
0010
0000
0000
,
0000
0000
0100
0000
0000
1000
0000
0000
0010
0000
0000
0100
0000
0000
0001
0000
,
2000
3002
0020
0033
,
0100
1000
0010
0100
,
0001
0000
0010
0000
0100
0000
0010
0100
,
1000
0100
0010
0001
,
0100
0000
0010
0000
0100
0010
1000
0001
,
0010
0001
1000
0010
,
0100
0000
0001
0000
0010
0000
0100
0010
,
0001
0010
0001
1000
,
0000
0000
0010
0000
0000
1000
0000
0000
0001
0000
1000
0000
0100
0000
0000
0000
,
0010
0100
1000
0010
,
0100
0001
0010
0100
,
0010
0001
0100
0010
,
1000
0000
0001
0000
1000
0000
0100
1000
,
0010
0100
0001
0010
,
0100
0010
0001
1000
,
0000
0000
0001
0000
0000
0100
0000
0000
0010
0000
0000
1000
0000
0000
0001
0000
,
0000
0000
1000
0000
0000
0100
0000
0000
0010
0000
0000
0100
0000
0000
0000
0000
,
0010
0000
0001
0100
0000
0000
1010
0000
,
0000
1000
0000
1000
0001
0000
0001
0000
,
1000
0000
0001
0010
0000
0000
1100
0000
,
0100
1000
0100
1000
0001
0000
0000
0000
,
1000
0000
0001
0100
0000
0000
1010
0000
,
0000
1000
0000
0010
1000
0000
0001
0000
,
1000
0001
0100
0001
0010
0010
0010
0000
,
0200
2300
0002
3003
,
0202
0000
0000
0303
,
2020
0000
0000
3030
,
1000
0000
0000
1000
0000
0000
1000
0000
0000
1000
0000
0000
0001
0000
0000
0000
,
0100
0000
0000
0100
0000
0000
0100
0000
0000
0100
0000
0000
0010
0000
0000
0000
,
0100
0010
1000
0001
,
0010
0100
0010
0001
,
1000
0000
0000
0100
0000
0000
1000
0000
0000
0010
0000
0000
0100
0000
0001
0000
,
0010
0000
0000
0100
0000
0000
0010
0000
0000
0001
0000
0000
1000
0000
0000
0000
,
0002
0000
0000
0000
,
2003
0000
0000
0000
,
3020
0000
0000
0000
,
0230
0000
0000
0000
,
0300
0000
0010
0000
0000
1000
0000
0000
0010
0000
0000
1000
0000
0000
0010
0000
,
0000
0000
0100
0000
0000
0001
0000
0000
0100
0000
0000
0001
0000
0000
0100
0000
,
0000
0000
0001
0000
0000
0010
0000
0000
0100
0000
0000
0000
1000
0000
0000
0000
,
0001
0000
1000
0000
0010
0100
0110
0000
,
1000
1000
0001
0000
0010
0000
0001
0000
,
0100
0010
1000
0001
,
0010
0010
0100
0000
0010
0000
0001
0000
,
1000
1000
0100
0000
1000
0010
0100
0001
,
1000
1000
0100
0000
1000
0000
0010
0000
,
0100
0100
0001
0000
0010
0000
0001
0000
,
0000
0000
1000
0000
0000
0001
0000
0000
0100
0000
0000
0010
0000
0000
1000
0000
,
0000
0000
1001
0000
0000
0110
0000
0000
1001
0000
0000
1010
0000
0000
0101
0000
;

//--------------- dance-single - Pandemonium X ----------------
#NOTES:
     dance-single:
     Pandemonium X:
     Hard:
     13:
     0,0,0,0,0:
0000
0000
0000
0000
,
0000
0000
0000
0000
,
0000
0000
0000
0000
,
0000
0000
0000
0000
,
0000
0000
0000
0000
,
1000
0000
0010
0200
0000
0000
0301
0000
,
0000
0010
0000
0100
1000
0000
1000
0000
,
0001
0010
0100
0100
,
1001
0110
2002
3003
,
0001
1000
0010
0000
1000
0000
0001
0000
,
0010
0100
1000
0000
0100
0000
1000
0000
,
0010
0100
0001
0000
0010
0000
0100
0000
,
1000
0100
0010
0000
0100
1000
0010
0100
,
0001
0010
0100
0000
0010
0000
0001
0000
,
0100
0001
0010
0000
0100
0000
1000
0000
,
0100
0000
1000
0000
0010
0100
0001
0000
,
0101
0000
1010
0000
0001
1000
0110
0000
,
0001
0000
0000
0001
0000
0000
1000
0000
0000
1000
0000
0000
0010
0000
0000
0000
,
0100
0000
0000
0100
0000
0000
0010
0000
0000
0010
0000
0000
1000
0000
0000
0000
,
0001
0000
0000
0001
0000
0000
0010
0000
0000
0010
0000
0000
0100
0000
0000
0000
,
0010
0000
0000
0010
0000
0000
0001
0000
0000
0001
0000
0000
1000
0000
0000
0000
,
0001
0000
0000
0100
0000
0000
0010
0000
0000
1000
0000
0000
0100
0000
0000
0000
,
0010
0000
0000
0100
0000
0000
1000
0000
0000
0010
0000
0000
0100
0000
0000
0000
,
0001
0000
0000
0100
0000
0000
0010
0000
0000
1000
0000
0000
0001
0000
0100
0000
,
0010
0000
0000
1000
0000
0000
0100
0000
0000
0010
0000
0000
0002
0000
0000
0000
,
1003
0000
0001
0000
0000
0010
0000
0000
0100
0000
0000
1000
0000
0000
0100
0000
,
0000
0000
0010
0000
0000
0001
0000
0000
1000
0000
0000
0001
0100
0000
0010
0000
,
0000
0000
0100
0000
0000
0010
0000
0000
1000
0000
0000
0010
0000
0000
0100
0000
,
0000
0000
0010
0000
0000
1000
0000
0000
0001
0000
0010
0000
0100
0000
1000
0000
,
0000
0000
0100
0000
0000
1000
0000
0000
0010
0000
0000
0100
0000
0000
0001
0000
,
0000
0000
0010
0000
0000
0100
0000
0000
0010
0000
0000
0001
0100
0000
0010
1000
,
0000
0000
0100
0000
0000
0010
0000
0000
0100
0000
0000
1000
0000
0000
0001
0000
,
0000
0000
1000
0000
0000
0001
0000
0000
0010
0000
0001
0000
0100
0000
0010
0000
,
0000
0000
1010
0000
0000
1010
0000
0000
0101
0000
0000
0101
0000
0000
1001
0000
,
0000
0000
0011
0000
0000
0011
0000
0000
1100
0000
0000
1100
0000
0000
1001
0000
,
0000
0000
0101
0000
0000
1010
0000
0000
0101
0000
0000
1010
0000
0000
1001
0000
,
0000
0000
1100
0000
0000
0011
0000
0000
1100
0000
0000
0011
0000
0000
1001
0000
,
0000
0000
0001
0000
0000
0100
0000
0000
0000
0000
0010
0000
0000
1000
0000
0000
,
0000
0000
0001
0000
0000
0100
0000
0000
0000
0000
0010
0000
0000
1000
0000
0000
,
0000
0000
0001
0000
0000
1000
0000
0000
0010
0000
0000
0100
0000
0000
0001
0000
,
1001
0110
2002
3003
,
1000
0000
0100
0000
0000
1000
0000
0000
0010
0000
0000
0001
0000
0000
0010
0000
,
0000
0000
0100
0000
0000
0010
0000
0000
1000
0000
0000
0010
1000
0000
0001
0000
,
0000
0000
1000
0000
0000
0100
0000
0000
0001
0000
0000
0100
0000
0000
0010
0000
,
0000
0000
0100
0000
0000
0010
0000
0000
0001
0000
0010
0000
0100
0000
1000
0000
,
0000
0000
0001
0000
0000
0100
0000
0000
1000
0000
0000
0100
0000
0000
0010
0000
,
0000
0000
0100
0000
0000
0010
0000
0000
1000
0000
0000
0001
1000
0000
1000
0001
,
0000
0000
0010
0000
0000
0100
0000
0000
0010
0000
0000
0001
0000
0000
0010
0000
,
0000
0000
0011
0000
0000
1100
0000
0000
0101
0000
0100
0000
0010
1000
0001
0000
,
1000
0000
0100
0000
0000
1000
0000
0000
0010
0000
0000
0100
0000
0000
0101
0000
,
0000
0000
0001
0000
0000
1000
0000
0000
0010
0000
0000
1000
0000
0000
1100
0000
,
0000
0000
0100
0000
0000
0010
0000
0000
0001
0000
0000
1000
0000
0000
1100
0000
,
0000
0000
0100
0000
0000
0010
0000
0000
0001
0000
0100
0000
0001
0010
0001
0000
,
1000
0000
0010
0000
0000
0100
0000
0000
0001
0000
0000
0010
0000
0000
1100
0000
,
0000
0000
1000
0000
0000
0010
0000
0000
0100
0000
0000
0001
0000
0000
0011
0000
,
0000
0000
1001
0000
0000
0101
0000
0000
1001
0000
0000
1100
0000
0000
1001
0000
,
0000
0000
1010
0000
0000
0101
0000
0000
0011
0000
0000
1100
0000
0000
0000
0000
,
0001
0000
1000
0020
0000
0000
0130
0000
,
0000
0010
0000
0100
0001
0000
0001
0000
,
1000
0000
0001
0020
0000
0000
0130
0000
,
0010
0010
0001
0001
1000
0000
0002
0203
,
0310
0000
1000
0002
0000
0000
0103
0000
,
0000
0010
0000
1000
0001
0000
0001
0000
,
1000
0100
0001
0100
1000
0010
0100
0000
,
1001
0110
2002
3003
,
0001
0000
0000
0010
0000
0000
0001
0000
0000
0100
0000
0000
0010
0000
0000
0000
,
0100
0000
0000
0010
0000
0000
1000
0000
0000
0010
0000
0000
0100
0000
0000
0000
,
1001
0000
0000
1001
0000
0000
1001
0000
0000
1001
0000
0000
1001
0000
0000
0000
,
0110
0000
0000
0110
0000
0000
0110
0000
0000
0110
0000
0000
0110
0000
0000
0000
,
0001
0000
0000
0100
0000
0000
0010
0000
0000
1000
0000
0000
0100
0000
0000
0000
,
0001
0000
0000
0100
0000
0000
1000
0000
0000
0010
0000
0000
0100
0000
0000
0000
,
1000
0000
0000
0100
0000
0000
0001
0000
0000
1000
0000
0000
0001
0000
0010
0000
,
0100
0000
0000
0010
0000
0000
0001
0000
0000
0100
0000
0000
0010
0000
0000
0000
,
0100
0010
1000
0001
,
0010
0000
0001
0000
1000
0000
0100
1000
,
0010
0100
0001
0010
,
0100
0000
0010
0000
0001
0010
0100
1000
,
0001
0000
1000
0000
0000
0001
0000
0000
0100
0000
0000
0010
0000
0000
1001
0000
,
0000
0000
0001
0000
0000
1000
0000
0000
0100
0000
0000
0010
0000
0000
1001
0000
,
0000
0000
0001
0000
0000
1000
0000
0000
0100
0000
0000
0010
0000
0000
0100
0000
,
0110
0000
0110
0000
0010
0100
1001
0000
,
0001
0000
0001
0000
0000
1000
0000
0000
0010
0000
0000
0100
0000
0000
0001
0000
,
0000
0000
0010
0000
0000
0100
0000
0000
0010
0000
0000
0001
0000
0000
0100
0000
,
0001
0000
0001
0000
0000
1000
0000
0000
0010
0000
0000
1000
0000
0000
0001
0000
,
1000
0000
1000
0000
0000
0001
0000
0000
0010
0000
0100
0000
0010
0000
0001
0000
,
1000
0000
1000
0000
0000
0001
0000
0000
0100
0000
0000
0001
0000
0000
0010
0000
,
0100
0000
0100
0000
0000
1000
0000
0000
0100
0000
0000
1000
0000
0000
0001
0000
,
0001
0000
1001
0000
0000
0101
0000
0000
1001
0000
0000
1100
0000
0000
1001
0000
,
0000
0000
0011
0000
0000
1100
0000
0000
1010
0000
0000
0101
0000
0000
1001
0000
;

//--------------- dance-single - Pandemonium X ----------------
#NOTES:
     dance-single:
     Pandemonium X:
     Challenge:
     16:
     0,0,0,0,0:
0000
0000
0000
0000
,
0000
0000
0000
0000
,
0000
0000
0000
0000
,
0000
0000
0000
0000
,
0000
0000
0000
0000
,
1002
0000
0010
0013
0000
0000
MMMM
0000
,
0000
2100
0000
0010
0010
0000
3010
0000
,
0101
1001
1010
1010
,
0201
0320
2000
3030
,
0001
1000
0010
1000
0001
0010
0100
1000
,
0001
1000
0010
1000
0001
1000
0100
0010
,
0001
0100
0010
0001
0010
0100
0010
1000
,
0100
0000
0010
0000
0100
0000
1000
0001
0010
0000
0100
0000
1000
0001
1000
0000
,
0001
0100
0110
0010
1000
0100
0110
0000
,
0100
0010
0011
0001
0100
0010
1010
0000
,
0002
0000
0203
0000
1300
0100
0001
0000
,
0011
0000
0011
0000
0010
0100
1100
0000
,
0001
0000
0000
1000
0000
0000
0010
0000
0000
1000
0000
0000
0001
0000
0000
0000
,
1000
0000
0000
0001
0000
0000
0100
0000
0000
0001
0000
0000
1000
0000
0000
0000
,
0001
0000
0000
0010
0000
0000
0100
0000
0000
1000
0000
0000
0001
0000
0000
0000
,
1000
0000
0000
0100
0000
0000
0010
0000
0000
0001
0000
0000
0100
0000
0000
0000
,
0010
0000
0000
0001
0000
0000
0010
0000
0000
1000
0000
0000
0001
0000
0000
0000
,
1000
0000
0000
0100
0000
0000
0001
0000
0000
0100
0000
0000
0010
0000
0000
0000
,
0011
0000
0000
0101
0000
0000
0110
0000
0000
1010
0000
0000
1000
0000
0100
0000
,
0110
0000
0000
1100
0000
0000
0011
0000
0000
0101
0000
0000
1010
0000
0000
0000
,
0000
0000
0001
0000
0000
1000
0000
0000
0001
0000
0000
0010
0000
0000
0100
0000
,
0000
0000
0010
0000
0000
0001
0000
0000
0100
0000
0000
0010
0100
0001
0100
0010
,
0000
0000
0100
0000
0000
0010
0000
0000
1000
0000
0000
0001
0000
0000
0010
0000
,
0000
0000
0001
0000
0000
0100
0000
0000
0010
0000
1000
0000
0100
1000
0010
0100
,
0000
0000
0010
0000
0000
1000
0000
0000
0001
0000
0000
0010
0000
0000
0100
0000
,
0000
0000
0010
0000
0000
0001
0000
0000
1000
0000
0000
0001
0100
0000
0001
1000
,
0000
0000
0100
0000
0000
1000
0000
0000
0010
0000
0000
0100
0000
0000
0010
0000
,
0000
0000
0100
0000
0000
0001
0000
0000
0010
0000
0100
0000
1000
0100
0010
0100
,
0000
0000
0110
0000
0000
0011
0000
0000
0101
0000
0000
1001
0000
0000
1100
0000
,
0000
0000
1100
0000
0000
0110
0000
0000
0011
0000
0000
0101
0000
0000
1010
0000
,
0000
0000
1010
0000
0000
0101
0000
0000
1001
0000
0000
1100
0000
0000
0011
0000
,
0000
0000
0011
0000
0000
0110
0000
0000
1100
0000
0000
1010
0000
0000
0101
0000
,
0000
0000
1001
0000
0000
0101
0000
0000
0000
0000
1001
0000
0000
1100
0000
0000
,
0000
0000
1001
0000
0000
1010
0000
0000
0000
0000
1001
0000
0000
0011
0000
0000
,
0000
0000
0011
0000
0000
0110
0000
0000
1100
0000
0000
0110
0000
0000
0011
0000
,
0002
2003
0020
3030
,
1000
0000
1001
0000
0000
0011
0000
0000
0110
0000
0000
1100
0000
0000
1010
0000
,
0000
0000
1100
0000
0000
0110
0000
0000
0011
0000
0000
0100
1000
0100
0010
0001
,
0000
0000
1001
0000
0000
1010
0000
0000
1001
0000
0000
1100
0000
0000
0011
0000
,
0000
0000
1100
0000
0000
0101
0000
0000
1010
0000
1001
0000
0001
1000
0010
1000
,
0000
0000
1100
0000
0000
1001
0000
0000
0101
0000
0000
1010
0000
0000
0101
0000
,
0000
0000
0011
0000
0000
1100
0000
0000
1001
0000
0000
1000
0001
0000
0001
0010
,
0000
0000
0110
0000
0000
0011
0000
0000
1100
0000
0000
1010
0000
0000
0101
0000
,
0000
0000
1001
0000
0000
0110
0000
0000
1001
0000
0110
0000
0001
1000
0010
1000
,
0100
0000
0110
0000
0000
0011
0000
0000
1100
0000
0000
1001
0000
0000
1010
0000
,
0000
0000
1010
0000
0000
0011
0000
0000
0110
0000
0000
1100
0000
0000
1001
0000
,
0000
0000
0101
0000
0000
1010
0000
0000
1100
0000
0000
0110
0000
0000
0011
0000
,
0000
0000
1001
0000
0000
0101
0000
0000
0011
0000
0001
0000
0010
0100
1000
0001
,
1000
0000
1100
0000
0000
0110
0000
0000
0011
0000
0000
0101
0000
0000
1001
0000
,
0000
0000
1001
0000
0000
1010
0000
0000
1001
0000
0000
0011
0000
0000
1001
0000
,
0000
0000
0101
0000
0000
1010
0000
0000
0101
0000
0000
1010
0000
0000
1001
0000
,
0000
0000
1100
0000
0000
0011
0000
0000
1100
0000
0000
0001
0010
0100
1000
0000
,
0002
0000
0010
0013
0000
0000
MMMM
0000
,
0000
2000
0000
0010
0010
0000
3010
0000
,
1002
0000
0100
0103
0000
0000
MMMM
0000
,
1000
1000
0001
0001
1000
0000
0001
0100
,
2000
0000
0100
3100
0000
0000
MMMM
0000
,
0000
2001
0000
0001
0001
0000
3001
0000
,
1000
1000
0100
0100
0010
0010
0010
0000
,
0200
2300
0020
3030
,
0100
0000
0000
0100
0000
0000
0001
0000
0000
0001
0000
0000
1000
0000
0000
0000
,
0001
0000
0000
0001
0000
0000
1000
0000
0000
1000
0000
0000
0001
0000
0000
0000
,
0011
0000
0000
1100
0000
0000
0101
0000
0000
1010
0000
0000
1001
0000
0000
0000
,
0011
0000
0000
0110
0000
0000
1100
0000
0000
1010
0000
0000
1001
0000
0000
0000
,
1000
0000
0000
0100
0000
0000
0010
0000
0000
0001
0000
0000
1000
0000
0000
0000
,
0001
0000
0000
0100
0000
0000
0010
0000
0000
1000
0000
0000
0001
0000
0000
0000
,
0100
0000
0000
0010
0000
0000
1000
0000
0000
0100
0000
0000
0010
0000
0100
0000
,
1000
0000
0000
0100
0000
0000
0010
0000
0000
0001
0000
0000
1001
0000
0000
0000
,
2000
0100
0010
3001
,
0002
0100
0010
1003
,
2000
0010
0001
3100
,
0002
0100
0010
1003
,
0000
0000
1001
0000
0000
0101
0000
0000
1001
0000
0000
1100
0000
0000
1001
0000
,
0000
0000
1001
0000
0000
1010
0000
0000
1001
0000
0000
0001
0010
0000
0010
0001
,
0000
0000
1001
0000
0000
0011
0000
0000
1001
0000
0000
1010
0000
0000
0101
0000
,
1001
0000
0110
0000
1001
0110
1001
0000
,
0001
0000
0001
0000
0000
1010
0000
0000
1100
0000
0000
0011
0000
0000
1100
0000
,
0000
0000
0110
0000
0000
1100
0000
0000
1001
0000
0000
0101
0000
0000
1010
0000
,
1000
0000
1000
0000
0000
1100
0000
0000
0011
0000
0000
0101
0000
0000
1001
0000
,
0001
0000
0001
0000
0000
1001
0000
0000
1000
0000
0010
0000
0100
0010
1000
0001
,
0010
0100
0010
0100
0000
0010
0000
0000
0001
0000
0000
0100
0000
0000
0010
0000
,
1000
0001
1000
0001
0000
1000
0000
0000
0100
0000
0000
1000
0000
0000
0010
0000
,
0100
0000
0101
0000
0000
0011
0000
0000
1100
0000
0000
1010
0000
0000
0001
0100
,
0000
0000
1010
0000
0000
0101
0000
0000
0011
0000
0000
0110
0000
0000
1001
0000
;
