#TITLE:FLOURISH;
#SUBTITLE:;
#ARTIST:Knasibas;
#TITLETRANSLIT:;
#SUBTITLETRANSLIT:;
#ARTISTTRANSLIT:;
#GENRE:;
#CREDIT:;
#MUSIC:FLOURISH.ogg;
#BANNER:;
#BACKGROUND:;
#CDTITLE:;
#SAMPLESTART:42.007;
#SAMPLELENGTH:14.977;
#SELECTABLE:YES;
#OFFSET:-0.007;
#BPMS:0.000=160.000
,152.000=80.000
,168.000=160.000
,248.000=80.000
;
#STOPS:;
#BGCHANGES:;
#FGCHANGES:;

//--------------- dance-single - Pandemonium X ----------------
#NOTES:
     dance-single:
     Pandemonium X:
     Beginner:
     3:
     0,0,0,0,0:
0000
0000
0000
0000
,
0000
0000
0000
0000
,
0000
0000
0000
0000
,
0000
0000
0000
0000
,
0001
0000
0000
0000
,
1000
0000
0000
0000
,
0010
0000
0100
0000
,
0010
0000
0000
0000
,
1000
0000
0000
0000
,
0000
0000
0000
0000
,
0001
0000
0000
0000
,
0000
0000
0000
0000
,
0010
0000
0010
0000
,
0100
0000
0100
0000
,
1001
0000
0000
0000
,
0110
0000
0000
0000
,
0001
0000
0000
0000
,
1000
0000
0000
0000
,
0100
0000
0000
0000
,
0000
0000
0010
0000
,
0010
0000
0000
0000
,
0001
0000
0000
0000
,
1000
0000
0000
0000
,
1001
0000
0110
0000
,
1001
0000
0001
0000
,
1000
0000
0010
0000
,
1000
0000
0001
0000
,
0100
0100
0100
0000
,
1001
0000
0001
0000
,
1000
1000
0000
0000
,
0100
0000
1000
0000
,
0010
0000
0100
0100
,
0100
0000
0010
0000
,
1000
0000
0001
0000
,
1000
0000
0100
0000
,
0010
0000
0001
0000
,
1001
0000
0000
0000
,
0000
0000
0000
0000
,
0010
0000
1000
0001
,
0010
0000
0100
0100
0000
0000
0000
0000
,
0010
0001
1000
0010
,
0100
0000
0000
0010
,
1001
0000
0001
0000
,
1000
0000
0100
0100
,
0010
0000
0001
0000
,
0000
0000
0000
0000
,
1000
0000
0000
0000
,
0001
0000
0000
0000
,
0100
0000
0000
0000
,
0010
0000
0010
0000
,
1000
0000
0100
0000
,
0010
0000
0001
0000
,
0100
0000
0010
0000
,
1000
1000
1000
0000
,
0010
0000
1001
0000
0001
0000
0000
1000
,
0000
0000
0000
0000
0000
0000
0000
0001
,
0000
0000
0000
0000
0000
0000
0000
0100
,
0000
0000
0000
0000
,
0010
0000
0000
0000
0000
0000
0000
1000
,
0000
0000
0000
0000
0100
0000
0000
0010
,
0000
0000
0000
0000
0001
0000
0000
1000
,
0000
0000
0010
0000
,
0100
0000
0010
0000
,
1000
0000
0000
0100
,
0010
0000
0001
1000
,
0001
0000
0100
0010
,
1001
0000
1000
0000
,
0001
0010
0001
0100
,
0010
0000
1000
0000
,
0001
0000
1000
0001
,
0110
0000
0000
0000
;

//--------------- dance-single - Pandemonium X ----------------
#NOTES:
     dance-single:
     Pandemonium X:
     Easy:
     5:
     0,0,0,0,0:
0000
0000
0000
0000
,
0000
0000
0000
0000
,
0000
0000
0000
0000
,
0000
0000
0000
0000
,
0001
0100
0001
0000
,
1000
0100
1000
0000
,
0001
0000
1000
0000
,
0001
0100
0010
1000
,
0001
0010
0100
1000
,
0000
0000
0000
0100
,
1000
0010
0000
0100
,
0000
0000
0000
0000
,
0010
0010
0100
0100
,
0001
0001
1000
1000
,
1001
0000
0000
0001
0000
0001
0000
0000
,
0200
0000
0000
0300
,
0020
0000
1030
0000
,
0002
0000
0103
0000
,
0002
0000
0000
0000
0000
1003
0000
0002
,
0000
0000
0203
0000
,
0310
0000
0100
0000
,
0001
0000
1000
0000
,
0001
0100
0010
1000
,
1001
0000
0110
0000
,
1001
0000
1000
0000
,
0001
0000
0010
0000
,
0001
0000
1000
0000
,
0100
1000
0010
0000
,
0200
0000
0301
1000
,
0100
0000
0020
0000
0000
0130
0000
0100
,
0000
0000
0010
0000
0001
0000
0000
1000
,
0000
0001
1000
0010
,
1000
0001
1000
0100
,
0010
0000
0001
0000
0010
0000
0000
0200
,
0000
0000
0000
0000
0310
0000
0000
0002
,
0000
0000
2003
0000
,
3000
2020
0000
0000
0000
0000
3030
0000
,
0202
0000
0000
0303
,
1001
0000
0001
1000
,
0010
0000
0100
0200
0000
0000
0000
0000
,
0310
1000
0001
0010
,
0002
0000
1003
0001
,
0100
0000
0000
0000
0010
0000
0000
2000
,
0000
0000
3100
1000
,
0002
0000
0103
0001
,
0010
0000
0100
0000
,
1000
1000
1000
0000
,
0001
0001
0001
0000
,
0100
0000
0010
0000
,
2002
0000
0000
3003
,
0101
0000
0011
0000
,
1100
0000
1010
0000
,
1000
0001
0010
0001
,
1000
1000
1000
0000
,
0010
1001
0001
0000
,
1000
0000
0020
0000
0000
0130
0000
0100
,
0000
0000
0010
0000
1000
0000
0000
0002
,
0000
0013
0001
1000
,
0001
1000
0100
0010
,
0000
0000
0100
0000
1000
0000
0000
0002
,
0000
0000
0000
0000
1003
0000
0000
0020
,
0000
0000
0230
0000
,
0302
0000
0203
0000
,
0320
0000
2030
3002
,
0023
0000
0230
2300
,
3002
0000
0000
0000
1003
0001
0100
0010
,
2000
0000
3020
0000
,
0230
0000
0302
0000
0023
0230
2300
3002
,
2003
0000
3002
0000
,
2003
0000
0000
0000
3010
0010
0010
0000
,
1001
0000
0000
0000
;

//--------------- dance-single - Pandemonium X ----------------
#NOTES:
     dance-single:
     Pandemonium X:
     Medium:
     10:
     0,0,0,0,0:
0000
0000
0000
0000
,
0000
0000
0000
0000
,
0000
0000
0000
0000
,
0000
0000
0000
0000
,
0001
0000
0000
0000
1000
0000
0000
0100
0000
0000
0100
0000
0000
0000
0120
0000
,
0000
0000
0031
1000
0001
0000
0001
0200
,
0000
0000
0300
0010
2000
0000
3001
0020
,
0000
0230
0320
0032
,
1003
0000
0001
0000
0010
0000
0100
1000
,
0000
0000
0000
0000
0000
0000
0100
1000
,
0010
0000
0100
0100
0000
0000
0010
0010
,
0000
0000
0000
0000
,
0100
0000
0001
1000
0001
0000
1000
0001
,
1000
0000
0001
1000
0001
0000
0110
0000
,
1001
0001
0000
1000
0000
1000
0000
0000
,
1000
0000
0000
0001
0000
0000
0020
0000
0000
0000
0000
0000
0000
0000
0000
0000
,
0230
0000
0000
1300
0002
0000
0000
0000
,
0203
0000
0000
0310
0200
0000
0000
0000
,
0302
0000
0000
0000
0000
1003
0000
2000
,
0000
0000
3002
0000
,
0013
0001
0010
0000
0100
1000
0100
0000
,
1000
0010
1000
0000
0001
0100
0001
0000
,
0200
0320
2030
3002
,
2003
0000
3002
0000
,
0013
0000
0000
0010
0000
0000
0010
0000
0100
0000
0000
0100
0000
0000
0100
0000
,
1000
0000
0000
1000
0000
0000
1000
0000
0001
0000
0000
0001
0000
0000
0001
0000
,
1000
0000
0001
0000
0100
0010
0000
0110
,
0000
0000
0010
0000
1000
0000
0001
2000
0000
0000
0000
0000
3000
0000
0000
0000
,
0012
0000
0000
0000
1003
0001
0000
2001
,
0000
0100
3100
0000
0000
0011
0000
0101
,
0000
0001
2000
0000
0010
3010
0000
1001
,
0000
1000
0001
0100
0010
1000
0001
0000
,
1000
0100
1000
0000
0001
0100
0001
1000
,
0000
0001
0010
0100
2000
0000
0100
0200
,
0000
0000
3300
1000
0010
0000
0100
0002
,
0000
0000
2003
0000
,
0000
0000
3001
0000
0000
0100
0000
0000
0010
0000
0000
1000
0000
0000
0000
0000
,
0001
0000
0000
0100
0000
0000
0010
0000
0000
1000
0000
0000
0001
0000
0000
0000
,
2000
0000
3200
0320
,
0032
0000
0103
2020
0000
0000
0000
3000
,
2030
3002
0023
0230
,
2300
0000
0000
0000
0000
0000
0000
0000
0000
0000
0000
0000
0000
0000
0000
0000
3000
0000
0100
0000
0000
1000
0000
0000
0001
0000
0100
0000
0000
0010
0000
0000
,
2000
0000
0000
3100
0010
0001
0000
1200
,
0000
0000
1300
0001
,
0200
0000
0000
0000
0301
0010
0001
1000
,
0000
0000
0001
0000
0000
1000
0000
0000
0001
0000
0000
0100
0000
0000
0001
0000
,
0010
0100
0010
0000
0100
0000
1000
0000
,
0001
0100
0001
0000
0100
0000
0010
0000
,
1000
0001
1000
0000
0001
1000
0001
0000
,
1000
0000
0000
1000
0000
0000
1000
0000
0001
0000
0000
0000
1000
0000
0000
0000
,
0201
0300
0012
0003
,
2100
3000
1020
0030
,
0210
0310
0120
0130
,
0010
0000
0100
0000
0001
0000
1000
0001
0000
0000
0000
0000
0000
0000
0000
0000
,
1200
0000
0310
0000
0001
0100
0000
0020
,
0000
1030
0002
0000
0000
1003
0000
1200
,
0000
1000
1300
0000
0100
1000
0000
0020
,
0000
0100
0130
0000
0001
0000
1000
0000
,
0001
0100
0010
0000
0100
0001
1000
0100
,
0000
0010
0100
0000
2000
0000
0001
3002
,
0000
0000
0000
1000
2003
0000
0010
3020
,
0000
0000
0000
0000
2000
0000
0000
3030
,
0102
0013
2100
3010
,
2001
0000
3010
0000
0201
0000
0301
0010
,
0200
1300
0021
0230
,
2300
0000
0000
0000
0010
0000
0000
0000
3001
0100
0001
0100
0010
1000
0001
1000
,
0200
0310
0002
0103
,
0020
0000
2030
0000
3002
0023
2030
3020
,
0032
0103
0020
2030
,
3002
0000
0000
0000
1000
0000
0000
0000
1003
0000
0100
0000
0010
0001
0100
0000
,
1010
0000
0000
0000
;

//--------------- dance-single - Pandemonium X ----------------
#NOTES:
     dance-single:
     Pandemonium X:
     Hard:
     12:
     0,0,0,0,0:
0000
0000
0000
0000
,
0000
0000
0000
0000
,
0000
0000
0000
0000
,
0000
0000
0000
0000
,
1000
0000
0000
0000
1000
0000
0000
0010
0000
0000
0010
0000
0000
0000
0101
0000
,
0000
0000
1001
0000
0000
0010
0001
1000
,
0000
0000
0001
1000
0010
0000
1000
0001
,
0000
1100
0110
0011
,
0001
0000
0100
0000
0010
0000
1000
0100
,
0000
0000
0000
0000
0000
0000
0010
0100
,
1000
0000
0100
0010
0000
0000
0001
0100
,
0000
0000
0000
0000
,
0010
0000
0010
1000
0100
0000
0100
0010
,
0001
0000
0001
0100
0010
0000
1000
0000
,
0101
0011
0000
1010
0000
1001
0000
0000
,
0101
0000
0000
1100
0000
0000
2002
0000
0000
0000
0000
0000
3003
0000
0000
0000
,
0002
0000
0000
0000
0000
0000
0013
0100
2000
0000
0000
0000
0000
0000
0000
0000
,
3200
0000
0000
0000
0000
0000
0310
0001
0200
0000
0000
0000
0000
0000
0000
0000
,
0320
0000
0000
0000
0000
0230
0000
0302
,
0000
0000
2003
0000
,
3100
0010
0001
0100
0010
1000
0001
0010
,
0001
1000
0100
0010
0001
0100
0001
1000
,
0100
0100
0010
0010
0001
0001
1000
1000
,
2010
0000
0000
3000
0102
0000
0000
0000
,
0013
0000
0000
0010
0000
0000
0010
0000
0100
0000
0000
0100
0000
0000
0100
0000
,
1000
0000
0000
1000
0000
0000
1000
0000
0001
0000
0000
0001
0000
0000
0001
0000
,
0100
0001
0010
0100
,
1000
0000
0100
0000
0010
0000
0001
1000
0000
0000
0000
0000
0000
0000
0000
0000
,
0002
0000
0100
0000
1003
0200
0000
0010
,
0000
0310
0002
0000
0000
2003
0000
3020
,
0000
0000
0130
0001
2000
0000
0000
0000
3001
0000
1000
0000
0000
0000
0200
0000
,
0000
1300
0010
0100
0001
0010
0100
1000
,
0001
0000
0001
0000
1000
0000
0100
0000
0000
0010
0100
0000
1000
0000
0002
0000
,
0000
0103
0010
1000
0200
0000
1300
0002
,
0000
0000
0000
1003
0020
0000
0130
0002
,
0000
0000
2003
0000
,
0000
0000
3002
0000
0000
0203
0000
0000
2300
0000
0000
3200
0000
0000
0000
0000
,
0320
0000
0000
2030
0000
0000
3002
0000
0000
0023
0000
0000
0230
0000
0000
0000
,
2300
0010
3200
0320
,
0230
0000
1300
0020
0000
0000
0000
0000
,
2030
3002
0023
0230
,
2300
0000
0000
0000
0000
0000
0000
0000
0000
0000
0000
0000
0000
0000
0000
0000
3000
0000
0001
0000
0000
0100
0000
0000
0020
0000
2030
0000
0000
0002
3000
0000
,
0013
0000
0100
0000
1000
0000
0001
0010
0100
0000
0010
0000
0000
0000
2100
0000
,
0000
0000
0001
0000
0000
0001
0000
0000
0001
0000
0000
0001
0000
0000
3001
0000
,
0200
0000
0000
0000
0010
0000
0000
0000
0301
1000
0100
0010
0001
1000
0002
0000
,
0000
0000
1000
0000
0000
1000
0000
0000
1000
0000
0000
1000
0000
0000
1003
0000
,
0001
0100
0001
0000
0100
0000
0010
1000
0000
0010
0000
0100
0001
0000
0010
0000
,
0100
1000
0100
0000
1000
0000
0001
1000
0000
0010
0000
1000
0001
0000
0010
0000
,
0100
0100
1000
1000
0001
0001
0100
0100
,
0010
0000
0000
0010
0000
0000
0010
0000
1000
0001
1000
0001
1000
0001
1000
0001
,
2000
0000
0000
0000
3001
0010
0000
1002
,
0000
1003
0200
0000
0000
0320
0000
0032
,
0000
0000
1003
0001
0100
0000
0000
0000
0100
0000
0010
0000
0000
0000
1000
0000
,
0000
0000
0001
0000
1000
0000
0001
0010
0000
0000
0000
0000
0000
0000
0000
0000
,
0200
0000
0000
0300
1002
0000
0000
0000
1003
0000
0010
0000
0000
0000
0201
0000
,
0000
0310
2000
0000
3000
2100
3000
0021
,
0000
0000
0031
0100
0020
0000
0000
0000
0130
0000
0001
0000
0000
0000
2001
0000
,
0000
3010
1000
0001
0010
0100
1000
0010
,
1000
0000
1000
0000
0001
0000
0010
0000
0000
0100
0010
0000
0001
0000
0200
0000
,
0000
0310
1000
0001
0020
0000
0130
2000
,
0000
0000
0000
3001
0020
0000
0130
2000
,
0000
0000
0000
0000
0000
0000
0000
0000
3002
0000
0000
0000
0000
0000
0000
0003
,
2010
0000
0000
0000
0000
0000
0000
0000
0100
0000
0000
0000
0000
0000
0000
0000
3001
0000
0000
0001
0000
0000
0001
0000
1000
0000
0010
0000
0100
0000
0001
0000
,
0021
0000
0000
0000
0230
0000
0000
0000
1300
0100
0010
0001
0100
0001
1000
0001
,
0020
0000
0000
0000
0000
0000
0000
0000
0001
0000
0000
0000
0000
0000
0000
0000
0130
0000
0000
0100
0000
0000
0100
0000
2000
0000
0000
0000
0000
0000
0000
0000
,
3002
0000
0000
0000
0100
0000
0000
0000
2003
3200
0302
0203
2300
3020
0032
0023
,
2030
0010
3200
0010
,
2300
0000
3002
0000
2003
3200
0320
0032
,
2003
0000
3020
2030
,
0002
0000
0000
0000
0000
0000
0000
0000
0000
0000
0000
0000
0000
0000
3000
0000
1003
0000
0000
1000
0000
0000
1000
0000
0001
0000
1000
0001
1000
0000
0000
0000
,
0220
0000
0000
0000
,
0330
0000
0000
0000
;

//--------------- dance-single - Pandemonium X ----------------
#NOTES:
     dance-single:
     Pandemonium X:
     Challenge:
     15:
     0,0,0,0,0:
0000
0000
0000
0000
,
0000
0000
0000
0000
,
0000
0000
0000
0000
,
0000
0000
0000
0000
,
1100
0000
0000
0000
1010
0000
0000
0100
0001
0000
0010
0000
1000
0000
1010
0000
,
0000
0000
0011
0001
0200
0000
1300
0200
,
0000
0000
0301
0001
2000
0000
3010
2000
,
0000
3002
0023
0230
,
1300
0000
0100
0000
1000
0000
0010
0100
,
0000
0000
0000
0000
0000
0000
0010
0100
,
0001
0000
1000
1000
0000
0000
0001
1000
,
0000
0000
0000
0000
,
0101
0000
0001
0100
0110
0000
0010
0100
,
0101
0000
0001
0100
0110
0000
0001
0100
,
1010
0000
0101
0000
0000
0000
0011
0000
0000
0001
0010
0000
0000
0000
0000
0000
,
0011
0000
1000
0100
0000
0010
0002
0000
0000
0000
0000
0000
0000
0000
0000
0000
,
2003
0000
0000
0000
0100
0000
3100
0010
0002
0000
0000
0000
0100
0000
0000
0000
,
2003
0000
0000
0000
0100
0000
3100
0010
0002
0000
0000
0000
0100
0000
0000
0000
,
0023
0000
0001
0000
0130
2000
3010
0200
,
0001
0010
0302
2003
,
3100
0000
0000
0100
0000
0100
0010
0000
0000
0010
0001
0000
1000
0000
0001
0100
,
0010
0000
0000
0010
0000
0010
0100
0000
0000
0100
0001
0000
0001
0000
1000
0001
,
0100
0010
0100
0010
1000
0010
1000
0001
1000
0001
0010
0001
1000
0100
1000
0001
,
0020
0000
0000
0000
0000
0000
0000
0000
0200
0000
0000
0000
0000
0000
0000
0330
,
2001
0000
0000
0000
3001
0101
0000
0021
,
0000
0100
0100
0000
0000
0031
0000
2001
,
0000
0000
3001
0100
0010
0000
0000
0000
1000
0000
0001
0000
0000
0000
1001
0000
,
0000
0000
0101
0000
0011
0000
0001
2000
0000
0000
0000
0000
3000
0000
0000
0000
,
0102
0000
1000
0000
0203
0010
0300
1002
,
0000
1000
0203
0000
0000
0310
0000
1001
,
0000
0000
0001
0100
0020
0000
0000
0000
1000
0000
1030
0000
0000
0000
0102
0000
,
0000
0013
1000
0010
0001
0100
0001
1000
,
0100
0000
0001
0000
0100
0000
0010
0000
0000
0001
0010
0000
0100
0000
1002
0000
,
0000
1003
0001
0100
2000
0000
3100
1200
,
0000
0000
0310
1000
0010
0000
1000
0200
,
0000
0000
2000
0000
,
3300
0000
0202
0000
0303
0220
0000
0330
2020
0000
3030
2002
0000
0000
0000
3003
,
2200
0000
3300
0220
0000
0330
0022
0000
0033
0220
0000
0330
2200
0000
0000
3300
,
2001
0000
0000
0000
0000
0000
0000
0000
0000
0000
0000
0000
0000
0000
0000
0000
0000
0000
0000
0000
0000
0000
0000
0000
0001
0000
0000
0000
0000
0000
0000
0000
0000
0000
0000
0000
0000
0000
0000
0000
0000
0000
0000
0000
0000
0000
0000
0000
3020
0000
0000
0000
0000
0000
0100
0000
0000
0000
0000
0000
0000
0000
0000
0100
0030
0000
0000
0000
0000
0000
0000
0000
0210
0000
0000
0000
0000
0000
0010
0000
0000
0000
0000
0000
0000
0000
0000
0310
0000
0000
0000
0000
0000
0000
0000
0000
,
2001
0000
0000
0000
0000
3000
0000
0000
0011
0000
0000
0000
1002
0000
0000
0000
0000
0000
0010
0000
0000
0010
0000
0000
1000
0000
1000
0000
0000
1003
0000
0000
,
0102
0000
0000
0000
0000
0000
0000
0000
2003
0000
0000
0000
0000
0000
0000
0000
3020
0000
0100
0000
0000
0130
0000
0000
0002
0000
0100
0000
0000
0103
0001
1000
,
0002
0000
0000
0000
0000
0000
0000
0000
1000
0000
0000
0000
0000
0000
0000
0000
0003
1000
0010
0000
0000
1001
0000
0000
0001
0000
0010
0000
0000
0100
0000
0000
,
1100
0000
1000
0000
0010
0000
0100
0001
0010
0000
0100
0000
0000
0000
0021
0000
,
0000
0000
0100
0000
0000
0001
0000
0000
0100
0000
0000
0001
0000
0000
0130
0000
,
2000
0000
0000
0000
0000
0000
0000
0000
0000
0000
0000
0000
0000
0000
0000
0000
0000
0000
0000
0000
0000
0000
0000
0000
0000
0000
0000
0000
0000
0000
0000
0000
0000
0000
0000
0000
0000
0000
0000
0000
0000
0000
0000
0000
0000
0000
0000
0000
0000
0000
0000
0000
0000
0000
0000
0000
0000
0000
0000
0000
0000
0000
0000
0000
0000
0000
0000
0000
0000
0000
0000
0000
0000
0000
0000
0000
0000
0000
0000
0000
0000
0000
0000
0000
0000
0000
0000
0000
0000
0000
0000
0000
0000
0000
0000
3000
0001
0000
0000
0000
0000
0000
0000
0000
0000
0000
0000
0000
1000
0000
0000
0000
0000
0000
0000
0000
0000
0000
0000
0000
0010
0000
0000
0000
0000
0000
0000
0000
0000
0000
0000
0000
1000
0000
0000
0000
0000
0000
0000
0000
0000
0000
0000
0000
0001
0000
0000
0000
0000
0000
0000
0000
0000
0000
0000
0000
0010
0000
0000
0000
0000
0000
0000
0000
0000
0000
0000
0000
0100
0000
0000
0000
0000
0000
0000
0000
0000
0000
0000
0000
2000
0000
0000
0000
0000
0000
0000
0000
0000
0000
0000
0000
,
0000
0000
0020
0000
0030
0020
0000
0030
0200
0000
0300
0200
0000
0300
3002
0003
,
1000
0001
0100
0000
1000
0000
0100
0001
0000
1000
0000
0001
0010
0000
0100
0000
,
1000
0100
0010
0000
0001
0000
0010
1000
0000
0010
0000
0001
0100
0000
0010
0000
,
1000
0010
1000
0010
0100
0001
0010
0100
,
1000
0100
0010
0000
0001
0000
0100
0010
0000
1000
0000
0001
0010
0000
0100
0000
,
1000
0000
0000
0000
0000
0000
0000
0000
0000
0001
0000
0000
0000
0000
0000
0000
0000
0000
0100
0000
0000
0000
0000
0000
0010
0000
0000
0100
0000
0000
0000
0000
0000
0000
0000
0000
0001
0000
0000
0000
0000
0000
0000
0000
1000
0000
0001
0000
,
1000
0000
0000
0100
0000
0000
0010
0000
0001
0000
0000
0100
0010
0000
0010
1000
,
0001
0000
0010
0100
2000
0000
0000
0000
0010
0000
3010
0000
0000
0000
0102
0000
,
0000
0000
1003
0000
0001
0000
0010
0100
1000
0100
0020
0000
0130
0010
0002
0000
,
2003
0000
0000
3000
0201
0000
0000
0000
0310
0000
1020
0000
0000
0000
0230
0000
,
0000
0000
0310
0000
1002
0000
0000
0000
0003
0000
0021
0000
0000
0030
1200
0000
,
0000
0000
0310
0001
2000
0000
0000
0000
0010
0000
0010
0000
0000
0000
3002
0000
,
0000
0013
1000
0010
0001
0100
1000
0100
,
0010
0000
1000
0000
0001
0000
0100
0000
0000
0001
0010
0000
0100
0000
2100
0000
,
0000
3010
0100
0002
0010
0000
1000
2003
,
0000
0000
0010
3200
0001
0000
0301
0020
,
0000
0000
0000
0000
0200
0000
0000
0330
,
1001
0000
0000
0000
0001
0000
1000
0000
1100
0000
0000
0000
1000
0000
0010
0100
0001
0000
0001
0010
0000
0010
0100
0000
1100
0000
0100
0000
1000
0000
0010
1000
,
0002
0000
0000
0000
0000
0000
1003
0000
1100
0000
0000
0000
1000
0000
0010
0100
0001
0000
0001
0000
0001
0000
1000
0000
1000
0000
0001
0000
0100
0010
1000
0000
,
0201
0000
0000
0000
0000
0000
0301
0000
0101
0000
0000
0000
1000
0000
0001
0010
0100
0000
0000
0100
0000
0000
0100
0000
1000
0000
0010
0000
0100
0001
0010
0000
,
0200
0000
0000
0000
2300
0000
0000
0000
3002
0203
2300
3200
0302
0023
2030
3020
,
0032
0000
0000
0000
0000
0000
1003
0000
1020
0000
0000
0000
0130
0000
0100
0010
1000
0000
1000
0001
0000
0001
0010
0000
0100
0000
0010
0000
0001
0100
0010
0000
,
2010
0000
0000
0000
3001
0000
0000
0000
0102
0000
0000
0000
0013
0000
0000
0000
0021
0000
0030
0001
0020
0000
0030
0010
0200
0000
0300
0100
2000
0000
3000
1000
,
0020
0000
0000
0000
0000
0000
0130
0000
1001
0000
0000
0000
1000
0000
1000
0001
0010
0000
0100
0000
1000
0000
0010
0000
1000
0000
0001
0000
0010
0000
0001
0000
,
2000
0000
0000
0000
0000
0000
0000
0000
0000
0000
0000
0000
0000
0000
0000
0000
0000
0000
0001
0000
0000
0000
0000
0000
3001
0000
0000
0000
0000
0000
0000
0000
0000
0000
0000
0000
1000
0000
0000
0000
0000
0000
0100
0000
0000
0010
0000
0000
0001
0000
0000
0000
0000
0000
1000
0000
0000
0100
0000
0000
0000
0000
0000
0010
0000
0000
0100
0000
0000
0000
0000
0000
1000
0000
0000
0000
0000
0000
0001
0000
1000
0000
0001
0000
1000
0000
0000
0000
0000
0000
0000
0000
0000
0000
0000
0000
,
0110
0000
0000
0000
;
