#TITLE:Don't believe the hype;
#SUBTITLE:;
#ARTIST:DJ Mass MAD Izm* feat.H14(LEONAIR);
#TITLETRANSLIT:;
#SUBTITLETRANSLIT:;
#ARTISTTRANSLIT:;
#GENRE:;
#CREDIT:;
#MUSIC:Don't believe the hype.ogg;
#BANNER:;
#BACKGROUND:;
#CDTITLE:;
#SAMPLESTART:97.065;
#SAMPLELENGTH:19.423;
#SELECTABLE:YES;
#OFFSET:-0.494;
#BPMS:0.000=210.000
,259.000=105.000
,275.000=210.000
;
#STOPS:66.000=0.857;
#BGCHANGES:;
#FGCHANGES:;

//--------------- dance-single - Pandemonium X ----------------
#NOTES:
     dance-single:
     Pandemonium X:
     Beginner:
     5:
     0,0,0,0,0:
0000
0000
0000
0000
,
0000
0000
0000
0000
,
0000
0000
0000
0000
,
0000
0000
0000
0000
,
0000
0000
0000
0000
,
0000
0000
0000
0000
,
0000
0000
1001
0000
,
0000
0000
0000
0000
,
0000
0000
0010
0000
,
0000
0000
0000
0000
,
0000
0000
0100
0000
,
0000
0000
0000
0000
,
0000
0000
0001
0000
,
0000
0000
0000
0000
,
0000
0000
1000
0000
,
0001
0000
0100
0000
,
0010
0010
0000
0100
,
0000
0000
0000
0000
,
0000
0010
0000
1000
,
0000
0000
0000
0000
,
0000
0001
0000
0010
,
0000
0100
0000
0010
,
0000
0001
0000
1001
,
0000
0000
0000
1000
,
1000
1000
0000
0001
,
0000
1000
0000
0010
,
0010
0010
0000
1000
,
0000
0001
0000
0100
,
0100
0100
0000
0001
,
0000
0100
0000
0010
,
0000
1000
0000
0001
,
0000
0000
0000
1000
,
1000
0001
0001
1000
,
0000
0000
0000
0010
,
0000
0000
0000
0100
,
0000
0000
0000
0001
,
0000
0000
0000
0010
,
0000
0000
0000
0001
,
0000
0000
0000
1000
,
0000
0000
0000
0000
,
0010
0010
0000
0110
,
0000
0000
0000
1000
,
0000
0000
0000
0001
,
0000
0000
0000
0000
,
0010
0010
0000
0001
,
0000
0000
0000
1000
,
0000
0000
0000
0010
,
0000
0000
0000
0000
,
0100
0100
0000
0010
,
0000
0000
0000
0000
,
0000
0000
0000
1000
,
0000
0000
0000
0000
,
0000
0000
0000
0001
,
0000
0000
0000
0000
,
0000
0000
0000
0010
,
0000
0000
0000
0000
,
0000
0000
0000
0100
,
0000
0000
0000
0100
,
0000
0000
0000
0010
,
0000
0000
0000
0000
,
0000
0000
0000
0001
,
0000
0000
0000
1000
,
0000
0000
0000
0010
,
0000
0000
0000
0100
,
0000
0000
0000
0001
,
0000
0000
0000
1000
,
0000
0000
0000
0010
,
0000
0000
0000
0100
,
0000
0010
0000
1001
,
0000
0000
0001
0001
,
0001
0001
0001
0000
,
0000
0000
1000
1000
,
1000
1000
1000
0000
,
0000
0000
0010
0010
,
0010
0010
0010
0000
,
0000
0000
0100
0100
,
0100
0100
0000
0010
,
0000
0000
0000
0100
,
0000
0000
0000
0110
,
0000
0000
0000
0001
,
0000
1000
0000
1001
,
0000
0000
0000
0000
,
0000
1000
0000
0001
,
0000
0000
0000
0000
,
0000
0100
0000
0001
,
0000
0010
0000
0100
,
0000
1000
0000
1001
,
0000
0000
0000
0001
,
0001
0001
0000
1000
,
0000
0000
0000
0001
,
0000
0000
0000
0100
,
0000
0000
0000
0010
,
0000
0110
0000
1001
,
0000
0001
0000
1000
,
1000
0001
0001
1000
,
0000
0000
0000
0010
,
0000
0100
0000
0001
,
0000
0000
0000
0010
,
0000
0000
0100
0000
,
0000
1000
0000
0000
,
0010
0000
0000
0100
,
0000
0000
0001
0000
,
0000
1000
0000
0000
,
0010
1000
0001
0100
,
0001
0001
0001
0000
;

//--------------- dance-single - Pandemonium X ----------------
#NOTES:
     dance-single:
     Pandemonium X:
     Easy:
     7:
     0,0,0,0,0:
0000
0000
0000
0000
,
0000
0000
0000
0000
,
0000
0000
0000
0000
,
0000
0000
0000
0000
,
0000
0000
0000
0000
,
0000
0000
0000
0000
,
0000
0000
0220
0000
,
0000
0000
0000
0000
,
0330
0000
1001
0000
,
0000
0000
1000
0000
,
0000
0010
0000
0000
,
0100
0000
0000
0001
,
0000
0000
0010
0000
,
0000
0100
0000
0000
,
1000
0000
0000
0001
,
1000
0001
1000
0010
,
0010
0010
0000
1001
,
1000
0010
0000
0000
,
0100
0001
1000
0001
,
0010
0001
0000
0000
,
0010
0001
0100
0001
,
0001
1000
1000
0010
,
0010
0100
0100
0200
,
0000
0300
0010
1000
,
0001
1000
0000
0001
,
0000
0010
0000
0100
,
0100
0100
0000
1000
,
0000
0001
0000
1000
,
1000
1000
0000
1001
,
0000
1010
0000
1001
,
0000
0011
0000
2002
,
0000
3003
0001
0100
,
1000
0100
0001
1000
,
1000
1000
0000
0001
,
0001
0001
0000
0010
,
0010
0010
0000
0100
,
0100
0100
0000
1000
,
0001
0100
0000
0001
,
1000
0100
0000
1000
,
0001
1000
0000
0000
,
0110
1001
0000
0001
,
0000
1000
0000
0001
,
0000
0010
0000
0001
,
0000
0100
0000
0010
,
1000
0001
0000
1000
,
0000
0100
0000
1000
,
0000
0001
0000
0100
,
0000
0001
0000
0000
,
0110
2002
3003
0001
,
0000
0100
0000
0020
,
0000
0030
0000
1000
,
0000
0001
0000
0200
,
0000
0300
0000
0010
,
0000
1000
0000
0002
,
0000
0003
0000
0010
,
0000
0100
0000
2000
,
0000
3000
0000
0001
,
0000
0001
0000
0000
0000
0000
1000
0000
,
0000
1000
0000
0000
0000
0000
0001
0000
,
0000
0100
0000
0000
0010
0000
0000
0000
,
1000
0000
0000
0001
,
0000
0001
0000
0000
0001
0000
0000
0000
,
1000
0001
0000
0100
,
0000
0100
0000
0000
0010
0000
0000
1000
,
0000
0000
0000
0001
,
0000
0100
0000
0000
0000
0000
0010
0000
,
0000
1000
0000
0000
0000
0000
0100
0000
,
0000
0010
0000
0000
0000
0000
0001
0000
,
0000
1000
0001
0000
0110
0000
1001
0000
,
0001
1000
0010
0010
,
0010
0010
0010
1000
,
0100
0010
0001
0001
,
0001
0001
0001
0100
,
0010
1000
0100
0100
,
0100
0100
0100
0010
,
0001
1000
0010
0010
,
0010
0010
0010
0200
,
0000
0300
0000
0200
,
0000
0300
0000
0220
,
0000
0330
0000
1001
,
0000
0110
0000
1001
,
1000
0001
0000
0000
,
0010
0001
0100
0001
,
1000
0001
0000
0000
,
1000
0100
0010
0100
,
0100
1000
1000
0001
,
0001
0100
0100
0220
,
0000
0330
0100
0010
,
1000
0001
0000
1000
,
0000
0001
0000
0100
,
0100
0100
0000
0001
,
0000
1000
0000
0010
,
0010
0020
0000
0130
,
0000
0001
0000
1000
,
0100
0010
0001
2000
,
0000
3000
0001
1000
,
0010
1000
0001
0000
,
1000
0100
0000
0010
,
0001
0000
1000
0100
,
0000
0010
0001
0000
,
0001
0100
0000
0010
,
1000
0000
0001
0100
,
0000
0010
1000
0000
,
0001
1000
0001
1000
,
0010
0010
0010
0000
;

//--------------- dance-single - Pandemonium X ----------------
#NOTES:
     dance-single:
     Pandemonium X:
     Medium:
     12:
     0,0,0,0,0:
0000
0000
0000
0000
,
0000
0000
0000
0000
,
0000
0000
0000
0000
,
0000
0000
0000
0000
,
0000
0000
0000
0000
,
0000
0000
0000
0000
,
0000
0000
0220
0000
,
0000
0000
0000
0000
,
0000
0330
1001
0001
,
1000
0000
0001
0010
,
0000
0001
1000
0000
,
0001
1000
0000
1000
,
0001
0000
1000
0100
,
0000
1000
0010
0000
,
1000
0001
0000
1000
,
0001
0000
0100
0000
0010
0000
1000
0001
,
1000
0001
1000
0001
0000
0000
1000
0000
,
0001
0100
0001
0010
,
0100
0010
0001
0100
,
0010
1000
0001
1000
,
0100
0010
0100
1100
,
1000
1010
0010
0110
,
0100
0101
1010
0202
,
0000
0303
0001
1000
,
0001
0010
0001
0000
0100
0000
0010
0000
,
1000
0000
0001
0000
0010
0000
0100
1000
,
0100
1000
0000
0100
,
1000
0000
0001
0000
0100
0001
0100
0000
,
0001
0022
0033
0001
,
0000
1000
0000
0010
,
0100
0001
0010
0220
,
0000
0330
0100
1000
,
0001
0100
0001
1000
,
0001
0100
0000
0001
1000
0000
0001
0000
,
0010
0100
0000
0100
1000
0000
0100
0000
,
1000
0010
0000
0100
0001
0000
0010
0000
,
0100
0010
0000
0010
0001
1000
0010
0000
,
0100
0001
0000
0010
0100
0000
1000
0000
,
0100
1000
0000
1000
0010
0000
0100
0000
,
0001
0100
0000
0010
1000
0000
0000
0000
,
1001
0110
0000
0001
,
0100
0000
0010
0000
1000
0010
0100
0000
,
0001
0000
0010
0000
0100
0010
0001
0000
,
0010
0000
0100
0000
1000
0100
0010
0000
,
0100
0000
1000
0000
0001
0100
0010
0000
,
1000
0000
0001
0000
1000
0100
0010
0000
,
0100
0000
1000
0000
0001
0100
0010
0000
,
1000
0000
0001
0000
0010
0100
1000
0000
,
1100
0202
0303
0001
,
0000
1000
0010
0000
,
0200
0000
0300
0010
,
0000
1000
0001
0000
,
0020
0000
0030
0100
,
0000
0010
0001
0000
,
0200
0000
0300
0010
,
0000
1000
0010
0000
,
0200
0000
0300
2001
,
0000
0002
0000
0000
3003
0000
1002
0000
,
0000
2000
0000
0000
3003
0000
0002
0000
,
0000
0203
0000
0000
0320
0000
0000
0000
,
2000
0000
3030
1002
,
0000
1000
0000
0000
1003
0000
0000
0000
,
0001
0100
0010
2001
,
0000
0001
0000
0000
3001
0000
0000
0000
,
1000
0000
0000
0000
0000
0000
0000
0000
0000
0000
0000
0000
0001
0000
0000
0001
,
0000
0000
0001
0000
1000
0000
0000
1000
0000
0000
0000
0000
0010
0000
0000
0010
,
0000
0000
0010
0000
0100
0000
0000
0100
0000
0000
0000
0000
0010
0000
0000
0010
,
0000
0000
0010
0000
1000
0000
0000
1000
0000
0000
0000
0000
0001
0000
0000
1000
,
0000
0010
0110
0000
1001
0000
0001
0000
,
0100
0010
1010
1010
,
1010
1010
1010
1000
,
0100
0010
0011
0011
,
0011
0011
0011
0001
,
1000
0010
0110
0110
,
0110
0110
0110
1000
,
0010
1000
1001
1001
,
1001
0000
1001
0000
1001
0000
0001
0100
,
0010
1000
0000
0000
0000
0000
0001
0100
,
0010
1000
0000
0000
0000
0000
0001
0010
,
0100
1000
0000
0000
0000
0000
1001
0000
,
0000
0110
0000
0001
,
1000
0010
1000
0001
,
0010
0100
0010
0001
,
0100
0010
1000
0001
,
0010
0001
0100
0101
,
0100
0110
0010
1010
,
1000
1010
0101
2020
,
0000
3030
1000
0001
,
0010
0100
1000
0000
0100
0000
1000
0000
,
0010
0000
0100
0000
0001
0010
0100
0000
,
1000
1100
0000
0100
,
1000
0000
0010
0000
0100
0001
0010
0000
,
0100
2002
3003
0101
,
0000
1010
0000
0101
,
0101
0011
0110
2200
,
0000
3300
0100
1000
,
0010
0100
0001
0000
,
1000
0001
0000
1000
,
0100
0000
1000
0010
,
0000
1000
0001
0000
,
0001
1000
0000
0001
,
0010
0000
0001
0100
,
0000
0001
1000
0000
,
0001
0100
0010
1000
,
0001
1000
0001
1000
0001
2000
0000
0000
,
3000
0000
0000
0000
;

//--------------- dance-single - Pandemonium X ----------------
#NOTES:
     dance-single:
     Pandemonium X:
     Hard:
     13:
     0,0,0,0,0:
0000
0000
0000
0000
,
0000
0000
0000
0000
,
0000
0000
0000
0000
,
0000
0000
0000
0000
,
0000
0000
0000
0000
,
0000
0000
0000
0000
,
0000
0000
0110
0000
,
0000
0000
0000
0000
,
0000
0000
1001
0001
,
0100
0000
0100
0001
,
0000
0001
1000
0000
,
1000
0010
0000
0100
,
0001
0000
0100
0010
,
0000
1000
0001
0000
,
0010
0100
0000
0010
,
0001
0000
0100
0000
0010
0000
1000
0001
,
1000
0001
1000
0001
0000
0000
0001
0100
,
0001
0000
0100
0010
0100
0000
0010
0000
,
1000
0000
0001
0000
0010
0000
0100
1000
,
0100
0000
0010
0100
0010
0000
0100
0000
,
1000
0001
0100
0101
,
1010
1100
0110
0011
,
0110
1010
0101
2002
,
0000
3003
0001
0100
,
0010
1000
0001
0000
0010
0000
0100
0000
,
0010
0001
0100
0000
0010
1000
0001
0000
,
0001
1001
0000
0001
,
0010
0100
1000
0000
0100
0010
0011
0000
,
1100
0022
0033
1001
,
0001
0100
0101
0000
0010
1000
1010
0000
,
1100
0110
0011
2002
,
0000
3003
0001
0110
,
1010
0000
1100
0000
1001
0000
1000
0100
,
0010
0001
0010
0100
1000
0001
0100
0010
,
1000
0001
0100
0010
1000
0100
1000
0010
,
0100
0001
0010
0100
0010
0001
1000
0001
,
1000
0010
1000
0001
0010
0100
0010
0001
,
0100
0010
1000
0100
0010
0001
0010
0100
,
1000
0001
1000
0100
0010
0001
0010
0001
,
0100
0001
0010
0100
1000
0100
0010
0100
,
1000
1100
0101
1001
,
0001
0101
0000
1000
1010
0000
1001
0000
,
1000
1100
0000
0100
0110
0000
0011
0000
,
0001
0101
0000
0100
0110
0000
1010
0000
,
0010
1010
0000
1000
1001
0000
0001
0010
,
0001
0101
0000
0001
0001
0000
0001
1000
,
0010
1010
0000
1000
1000
0000
0100
0010
,
0001
0011
0000
0010
0011
0000
0001
0001
,
0011
2200
3300
1000
,
0000
0001
0100
0000
,
0020
0000
0030
0100
,
0000
0001
1000
0000
,
0200
0000
0300
0010
,
0000
0001
1000
0000
,
0020
0000
0030
0100
,
0000
0001
1000
0000
,
0200
0000
0300
0012
,
0000
0200
0000
0000
0303
0000
1020
0000
,
0000
0200
0000
0000
0330
0000
0002
0000
,
0000
0203
0000
0000
0320
0000
0000
0000
,
2030
0000
3000
0001
,
0000
0010
0000
0000
0100
0000
0000
0000
,
0010
0001
0100
0010
,
0000
1000
0000
0000
0001
0000
1000
0100
,
0010
0000
0001
0000
0010
0000
0100
0000
1000
0000
0001
0000
0100
0000
0000
0001
,
0000
0000
0010
0000
0100
0000
0000
2000
0000
0000
0000
3000
0001
0000
0000
1000
,
0000
0000
0010
0000
1000
0000
0000
0200
0000
0000
0000
0300
0010
0000
0000
0100
,
0000
0000
1000
0000
0001
0000
0000
2000
0000
0000
0000
3000
0001
0000
0000
1000
,
0000
0000
0001
0000
1000
0010
1000
0010
0100
0001
0100
0001
0010
0000
0000
0000
,
0100
1000
1100
0011
,
1100
0011
1100
0001
,
1000
0010
1010
0101
,
1010
0101
1010
1000
,
0001
0010
0110
0011
,
0110
1100
0110
0010
,
0001
0100
0101
1010
,
1001
0000
1100
0000
0110
0000
0001
0010
,
0100
1000
0000
0000
0000
0000
0001
0010
,
0100
1000
0000
0000
0000
0000
0001
0010
,
0100
1000
0000
0000
0000
0000
0001
0000
,
0000
1000
0000
1001
,
0001
0100
0000
0010
1000
0000
0001
0000
,
1000
0100
0010
0000
0100
1000
0010
0000
,
0100
0001
0000
0010
0100
0000
0010
0000
,
0001
0100
0010
0000
1000
0000
1010
0000
,
1100
0110
0011
0110
,
1001
1010
0101
2002
,
0000
0000
3003
0000
1000
0000
0001
0100
,
0010
1000
0001
0010
0100
0000
1100
0000
,
0100
0010
0110
0000
0010
0001
0011
0000
,
0001
0100
0101
0000
0100
0010
0110
0000
,
0010
1000
1010
0000
1000
0100
0001
0100
,
1000
0010
0200
0000
0300
0000
1001
0000
,
1000
0011
0010
0110
,
1001
0110
1010
2002
,
0000
3003
0001
0101
,
1100
0101
1001
0001
,
0200
2300
3100
0002
,
0023
1030
0020
0032
,
0103
2000
3200
0301
,
0020
0230
1300
0200
,
0302
0103
2000
3020
,
0031
0020
2030
3001
,
0100
0010
1000
0010
,
1000
0001
1000
0001
1000
0002
0000
0000
,
0003
0000
0000
0000
;

//--------------- dance-single - Pandemonium X ----------------
#NOTES:
     dance-single:
     Pandemonium X:
     Challenge:
     15:
     0,0,0,0,0:
0000
0000
0000
0000
,
0000
0000
0000
0000
,
0000
0000
0000
0000
,
0000
0000
0000
0000
,
0000
0000
0000
0000
,
0000
0000
0000
0000
,
0000
0000
0440
0000
,
0000
0000
0000
0000
,
0000
0330
1002
1000
,
1000
0000
0100
0100
,
0000
1000
1003
0000
,
0001
2000
0000
3100
,
2000
0000
3001
0020
,
0000
0130
2000
0000
,
3010
2000
0000
3001
,
0100
0000
0001
0000
1000
0000
0001
0010
,
0100
0100
0100
0100
0000
0000
1000
0001
,
0100
0000
0001
1000
0100
0000
0010
0001
,
0100
1000
0100
0010
1000
0001
0010
0001
,
0100
0000
0001
1000
0010
0000
1000
0100
,
0010
0000
0100
0000
0001
0000
0100
0000
0010
0000
0001
0000
1000
0000
0000
0001
,
0010
0000
0000
0010
0100
0000
0000
0100
1000
0000
0000
1000
0010
0000
0000
0010
,
0100
0000
0000
0100
0001
0000
0000
0001
0010
0000
0000
0010
0200
0000
0000
0000
,
1000
0000
1300
0000
0100
1000
0001
0010
,
0100
0010
0001
1000
0001
0000
1000
0000
,
0001
0100
0010
0000
0100
0001
1001
0000
,
0110
1001
0000
0001
,
1000
0001
0100
0000
0010
1000
1001
0000
,
0101
1200
0000
1300
,
0001
0010
0011
0000
1000
0010
1010
0000
,
0001
0010
0011
0000
1100
0000
2002
0000
,
0000
3003
0001
0100
,
0010
1000
0001
0000
1000
0000
0001
0100
,
1000
0100
0010
1000
0001
0000
1000
0100
,
0001
0100
0010
0001
1000
0000
0001
0100
,
1000
0100
0010
1000
0001
1000
0001
0010
,
1000
0000
0010
0000
0100
0000
1000
0000
0001
0100
0001
0100
0001
0000
1000
0000
,
0010
0100
1000
0100
0010
1000
0001
0010
,
0100
0001
0100
0010
0001
1000
0010
0100
,
1000
0100
0010
1000
0001
0010
0100
0100
,
0110
1001
0110
1001
,
0001
0000
0100
0000
0000
0000
0001
1000
0010
0000
0100
0000
0001
0000
0000
0000
,
1000
0000
0100
0000
0000
0000
1000
0010
0100
0000
0001
0000
1000
0000
0000
0000
,
0001
0000
0010
0000
0000
0000
0100
0010
0001
0000
0100
0000
0010
0000
0000
0000
,
0100
0000
0010
0000
0000
0000
1000
0010
0100
0000
0001
0000
1000
0000
0000
0000
,
0001
0000
0010
0000
0000
0000
0100
0010
0001
0000
0100
0000
0010
0000
0000
0000
,
1000
0000
0010
0000
0000
0000
0100
0010
1000
0000
0001
0000
0010
0000
0000
0000
,
0100
0000
0010
0000
0000
0000
0100
1000
0010
0000
0100
0000
0001
0000
1000
0000
,
0001
1000
2002
0000
3003
0000
0001
0000
,
0000
0010
0200
0000
,
2000
0000
3300
0001
,
0000
0100
0002
0000
,
2000
0000
3003
1001
,
0000
0001
2000
0000
,
0020
0000
3030
0100
,
0000
0001
0020
0000
,
0200
0000
0330
1001
,
1000
0010
0000
M010
0001
0000
1001
0000
,
0001
0100
0000
010M
1000
0000
1001
0000
,
0001
0100
0000
0010
1000
0000
1001
0000
,
1000
0100
0000
0010
0001
0000
1001
0000
,
0001
0010
0000
001M
1000
0000
1001
0000
,
1000
0100
0000
M100
0001
0000
1001
0000
,
0001
0100
0000
0100
0001
0000
0010
0100
,
1000
0000
0100
0000
0010
0000
0001
0000
1000
0000
0001
0000
1000
0000
0100
0010
,
0000
0000
0100
0000
0010
0000
0001
0200
0000
0000
0000
0000
0310
0000
1000
0001
,
0000
0000
0010
0000
0100
0000
0010
0002
0000
0000
0000
0000
0103
0000
0010
1000
,
0000
0000
0001
0000
0100
0000
0001
2000
0000
0000
0000
0000
3100
0000
0010
0100
,
0000
0000
1000
0000
0001
0100
0001
0100
0010
1000
0010
1000
0100
0000
0000
0000
,
0010
0000
0000
0000
0000
0000
0000
0000
0000
0000
0000
0000
0000
0000
0000
0000
0001
0000
0000
0000
0000
0000
0000
0000
0000
0000
0000
0000
0000
0000
0000
0000
0102
0000
0000
0000
0000
0000
0000
0000
0000
0000
0000
0000
0000
0000
0000
0003
0012
0000
0000
0000
0000
0000
0000
0000
0000
0000
0000
0000
0000
0000
0000
0003
,
0102
0000
0000
0000
0000
0000
0000
0000
0000
0000
0000
0000
0000
0000
0000
0003
0012
0000
0000
0000
0000
0000
0000
0000
0000
0000
0000
0000
0000
0000
0000
0003
0102
0000
0000
0000
0000
0000
0000
0000
0000
0000
0000
0000
0000
0000
0000
0000
1003
0000
0000
0000
0000
0000
0000
0000
0000
0000
0000
0000
0000
0000
0000
0000
,
0001
0000
0000
0000
0000
0000
0000
0000
0000
0000
0000
0000
0000
0000
0000
0000
1000
0000
0000
0000
0000
0000
0000
0000
0000
0000
0000
0000
0000
0000
0000
0000
2010
0000
0000
0000
0000
0000
0000
0000
0000
0000
0000
0000
0000
0000
0000
3000
2100
0000
0000
0000
0000
0000
0000
0000
0000
0000
0000
0000
0000
0000
0000
3000
,
2010
0000
0000
0000
0000
0000
0000
0000
0000
0000
0000
0000
0000
0000
0000
3000
2100
0000
0000
0000
0000
0000
0000
0000
0000
0000
0000
0000
0000
0000
0000
3000
2010
0000
0000
0000
0000
0000
0000
0000
0000
0000
0000
0000
0000
0000
0000
0000
3001
0000
0000
0000
0000
0000
0000
0000
0000
0000
0000
0000
0000
0000
0000
0000
,
1000
0000
0000
0000
0000
0000
0000
0000
0000
0000
0000
0000
0000
0000
0000
0000
0001
0000
0000
0000
0000
0000
0000
0000
0000
0000
0000
0000
0000
0000
0000
0000
0012
0000
0000
0000
0000
0000
0000
0000
0000
0000
0000
0000
0000
0000
0003
0000
0102
0000
0000
0000
0000
0000
0000
0000
0000
0000
0000
0000
0000
0000
0000
0003
,
0012
0000
0000
0000
0000
0000
0000
0000
0000
0000
0000
0000
0000
0000
0000
0003
0102
0000
0000
0000
0000
0000
0000
0000
0000
0000
0000
0000
0000
0000
0000
0003
0012
0000
0000
0000
0000
0000
0000
0000
0000
0000
0000
0000
0000
0000
0000
0003
0100
0000
0000
0000
0000
0000
0000
0000
0000
0000
0000
0000
0000
0000
0000
0000
,
0001
0000
0000
0000
0000
0000
0000
0000
0000
0000
0000
0000
0000
0000
0000
0000
1000
0000
0000
0000
0000
0000
0000
0000
0000
0000
0000
0000
0000
0000
0000
0000
2100
0000
0000
0000
0000
0000
0000
0000
0000
0000
0000
0000
0000
0000
3000
0000
2010
0000
0000
0000
0000
0000
0000
0000
0000
0000
0000
0000
0000
0000
0000
3000
,
2100
0000
0000
0000
0000
0000
0000
0000
0000
0000
0000
0000
0000
0000
0000
3000
2010
0000
0000
0000
0000
0000
0000
0000
0000
0000
0000
0000
0000
0000
0000
3000
2100
0000
0000
0000
0000
0000
0000
0000
0000
0000
0000
0000
0000
0000
0000
3000
0002
0000
0000
0000
0000
0000
0000
0000
2003
0000
0000
0000
0000
0000
0000
0000
,
3020
0200
0000
0030
0300
0000
0002
2003
,
3020
0200
0000
0030
0300
0000
0002
0023
,
0230
2000
0000
0000
0300
0000
3001
0100
,
0010
0000
1000
0000
0001
1000
0001
1000
0001
1000
0001
1000
0001
0000
1000
0000
,
0100
0000
1000
0001
0100
0000
0010
1000
,
0100
0001
0100
0010
0001
1000
0010
1000
,
0100
0000
1000
0001
0010
0000
0001
0100
,
0010
0000
0100
0000
1000
0000
0100
0000
0010
0000
1000
0000
0001
0000
0000
1000
,
0010
0000
0000
0010
0100
0000
0000
0100
0001
0000
0000
0001
0010
0000
0000
0010
,
0100
0000
0000
0100
1000
0000
0000
1000
0010
0000
0000
0010
0200
0000
0000
0000
,
0001
0000
0301
0000
1000
0001
1000
0010
,
0100
0010
1000
0001
1000
0000
0001
0000
,
0001
0010
0110
0000
0010
0001
0101
0000
,
0001
1000
1001
0000
0100
0001
0011
0000
,
0010
0100
1100
0000
1000
0001
1000
0001
,
0001
0000
2002
0000
0000
3003
1000
1000
,
0001
0000
0001
0001
1000
0000
1000
1000
,
0001
1000
0100
0100
0010
0001
0200
0000
,
0010
0000
0301
0000
1001
0000
0001
0010
,
0100
0000
1000
0000
0001
1000
0001
1000
0001
0000
1000
0000
2001
0000
0000
0000
,
0010
0010
0000
0001
,
3001
0000
1020
0100
,
0000
1000
1030
0000
,
1002
0100
0000
1000
,
1003
0000
2100
0010
,
0000
0001
3001
0000
,
1000
0001
0100
0010
,
1000
0001
0010
0010
0010
0020
0000
0000
,
0030
0000
0000
0000
;
