#TITLE:Der Wald;
#SUBTITLE:;
#ARTIST:エレハモニカ;
#TITLETRANSLIT:;
#SUBTITLETRANSLIT:;
#ARTISTTRANSLIT:;
#GENRE:;
#CREDIT:;
#MUSIC:Der Wald.ogg;
#BANNER:;
#BACKGROUND:;
#CDTITLE:;
#SAMPLESTART:62.098;
#SAMPLELENGTH:12.000;
#SELECTABLE:YES;
#OFFSET:0.902;
#BPMS:0.000=80.000;
#STOPS:;
#BGCHANGES:;
#FGCHANGES:;

//--------------- dance-single - Pandemonium X ----------------
#NOTES:
     dance-single:
     Pandemonium X:
     Beginner:
     2:
     0,0,0,0,0:
0000
0000
0000
0000
,
0000
0000
0000
0000
,
0000
0000
0000
0000
,
0001
0000
1000
0000
,
0010
0000
0100
0100
,
0100
0000
0010
0000
,
1000
0000
0001
0001
,
1000
0000
0010
0000
,
0100
0000
0001
0001
,
1000
0000
0001
0100
,
0000
0000
0010
0010
,
1000
0000
0000
0000
,
0001
0000
0000
0000
,
0010
0000
0100
0100
,
0000
0000
1000
0001
,
0100
0010
0000
0000
,
1000
0000
0001
1000
,
0110
0000
0100
0000
,
0110
0000
0010
0000
,
1001
0000
1000
0000
,
1001
0000
0001
0000
,
0100
0000
0010
0000
,
1000
0000
0100
0000
,
0010
0000
0100
0000
,
1000
0000
0001
1000
,
0001
0000
0100
0000
,
0010
0000
0100
0000
,
0001
0000
1000
0000
,
0100
0000
1000
0001
,
1000
0000
0001
0000
,
0000
0100
0000
0010
,
0010
0000
0000
1000
,
1000
0000
0000
0001
,
0001
0000
0100
0000
,
0010
0000
1000
1000
,
1000
0000
0000
0000
,
0001
0000
0000
0000
,
0100
0010
0100
0010
,
1000
0001
1000
1001
;

//--------------- dance-single - Pandemonium X ----------------
#NOTES:
     dance-single:
     Pandemonium X:
     Easy:
     4:
     0,0,0,0,0:
0000
0000
0000
0000
,
0000
0000
0000
0000
,
0000
0000
0000
0000
,
0001
1000
0001
0100
,
0001
1000
0001
0010
,
0100
1000
0100
0010
,
0001
0100
0001
0010
,
0100
1000
0010
1000
,
0001
0010
0001
0100
,
0020
0030
1000
0200
,
0000
0300
0010
0001
,
1000
0020
0000
0030
,
0100
0000
0002
0000
0003
0000
1000
0001
,
2000
3000
0010
2000
,
0000
3000
0100
0010
,
0001
0000
0200
0000
0000
0300
0010
0000
,
1000
0000
0001
1000
,
0001
0100
0110
0000
0010
0000
1000
0000
,
0100
0010
0011
0000
0001
0000
1000
0000
,
0010
1000
1100
0000
1000
0000
0001
0000
,
0100
0010
1001
0000
0001
0000
0010
0000
,
0001
0101
0100
0010
,
1000
0001
0010
0001
,
1000
0100
1000
0010
,
0100
0001
0010
0100
,
1000
0110
0001
1000
,
0100
1000
0010
0100
,
0001
0010
0100
0010
,
0001
1000
0010
1000
,
0002
0003
2000
0000
,
3000
0000
0010
0000
0100
0000
0001
1000
,
0200
0000
0000
0000
0000
0000
0310
0001
,
2000
0000
3000
0001
,
0100
0000
1000
0000
0100
0000
0000
0001
,
2000
0000
0000
3000
0100
0000
0010
0000
,
0002
0000
0000
0000
0000
0000
0000
1003
,
0002
0000
0000
0003
,
1000
0001
0100
0010
,
1000
0000
0001
0000
1000
0001
1001
1001
;

//--------------- dance-single - Pandemonium X ----------------
#NOTES:
     dance-single:
     Pandemonium X:
     Medium:
     7:
     0,0,0,0,0:
0000
0000
0000
0000
,
0000
0000
0000
0000
,
0000
0000
0000
0000
,
0001
0010
0100
0010
0001
1000
0010
0001
,
0010
0000
1000
0000
0001
0000
0100
0000
0001
0000
0010
0100
0010
0000
0001
0000
,
1000
0010
0100
0010
1000
0100
0010
0010
,
0100
1000
0001
0100
0001
0010
0100
1000
,
0100
1000
0010
0100
0001
0010
0001
0001
,
0100
0001
0010
0001
1000
0100
0010
0001
,
2000
0000
0000
0000
0000
0000
3001
0100
0001
0000
0100
0010
0200
0000
0000
0000
,
0000
0000
0000
0000
0300
0000
0010
1000
0001
0000
1000
0000
0100
0000
0010
0000
,
0001
0000
0000
0100
0020
0000
0000
0000
0000
0000
0000
0000
0030
0000
0100
0010
,
1000
0001
2000
0000
3000
0000
0100
0010
,
0200
0000
0000
0000
0300
0000
1000
0010
1000
0000
0010
0100
0002
0000
0000
0000
,
0000
0000
0000
0000
0003
0000
0010
0001
1000
0000
0100
0000
0001
0000
0100
0000
,
1000
0000
0000
0001
0020
0000
0000
0000
0000
0000
0000
0000
0130
0000
1000
0000
,
0002
0000
0000
0000
0003
0000
0100
0010
0100
0000
0000
0000
0010
0000
0000
0000
,
1000
0001
0010
0001
1000
0000
0000
0000
0001
0000
1000
0000
0010
0000
0000
0000
,
1000
0001
0100
0001
1000
0000
0000
0000
0100
0000
0010
0000
0001
0000
0000
0000
,
1000
0001
0100
0001
1000
0000
0000
0000
0100
0000
1000
0000
0010
0000
0000
0000
,
0100
0010
1000
0001
0010
0000
0000
0000
0100
0000
0010
0000
0001
0000
0000
0000
,
1000
0100
0001
0100
1000
0010
0100
0001
,
0010
1000
0010
0001
1000
0010
1000
0001
,
0100
0001
0010
1000
0010
0001
0100
0010
,
1000
0100
0001
0100
0010
0001
1000
0100
,
0010
0001
0100
0010
0100
1000
0100
0010
,
1000
0001
0010
0100
0010
0001
0010
0100
,
0010
0001
0100
1000
0100
0010
1000
0001
,
0010
1000
0010
0001
1000
0010
0100
0001
,
0020
0000
0000
0000
0000
0000
0130
1000
0002
0000
0000
0000
0000
0000
0000
0000
,
0003
0000
0200
0000
0320
0000
1030
0100
,
0020
0000
0000
0000
0000
0000
0000
0000
0000
0000
0000
0000
0230
0000
1300
0010
,
0200
0000
0300
0020
,
2030
0000
3002
0000
0023
0000
0000
0100
,
0230
0000
2300
3002
,
0203
0000
0000
0000
0000
0000
0000
0010
,
0020
0000
0000
0330
,
1000
0000
0001
0100
0001
0000
0100
0000
0010
0000
1000
0000
0100
0000
0010
0000
,
0001
0000
0010
0100
0010
0000
0001
0000
1000
0000
0001
0000
0100
0000
0100
0000
;

//--------------- dance-single - Pandemonium X ----------------
#NOTES:
     dance-single:
     Pandemonium X:
     Hard:
     10:
     0,0,0,0,0:
0000
0000
0000
0000
,
0000
0000
0000
0000
,
0000
0000
0000
0000
,
1000
0000
0001
0100
0001
0000
0010
0000
1000
0000
0010
0000
0001
0000
0100
0000
,
0010
1000
0010
1000
0010
0000
1000
0000
0001
0000
0010
0100
1000
0000
1000
0000
,
0100
0000
1000
0100
1000
0000
0010
0000
1000
0000
0100
0000
0001
0000
0100
0000
,
1000
0010
1000
0010
1000
0000
0001
0100
0001
0000
0010
0000
0100
0000
1000
0000
,
0001
0000
0010
0001
0010
0000
0001
0000
0100
0000
1000
0000
0100
0000
0001
0000
,
1000
0000
0010
1000
0010
0000
0100
0000
0001
0000
0100
0000
0010
0000
1000
0000
,
0200
0000
0000
0000
0300
0000
0100
0010
0001
0000
0010
0100
2000
0000
0000
0000
,
0000
0000
0000
0000
3000
0000
0100
1000
0010
0000
0100
0000
0001
0000
1000
0000
,
0002
0000
0000
0100
0200
0000
0000
0000
0000
0000
0000
0000
0303
0000
0010
0100
,
0001
1000
0002
0000
0003
0000
0010
0100
,
2000
0000
0000
0000
0000
0000
3100
1000
0010
0000
0100
0001
0020
0000
0000
0000
,
0000
0000
0000
0000
0030
0000
0100
0010
0001
0000
0010
0000
0001
0000
1000
0000
,
0020
0000
0000
0100
0200
0000
0000
0000
0000
0000
0330
0000
0010
0000
1000
0000
,
0002
0000
0000
0000
0003
0000
1000
0001
0100
0000
0000
0000
0010
0000
0000
0000
,
1000
1000
0001
0010
0011
0000
0000
0000
0001
0000
0100
0000
0010
0000
0000
0000
,
0100
0100
0010
1000
1010
0000
0000
0000
1000
0000
0100
0000
0010
0000
0000
0000
,
0001
0001
0010
0100
1100
0000
0000
0000
0100
0000
1000
0000
0010
0000
0000
0000
,
1000
1000
0100
0010
0011
0000
0000
0000
0001
0000
1000
0000
0010
0000
0000
0000
,
1001
0000
0001
0100
0010
0000
1000
0000
0100
0000
0001
0000
0100
0000
1000
0000
,
0010
0000
1000
0001
0010
0000
0100
0000
1000
0000
0100
0000
0001
0000
0100
0000
,
1000
0000
0010
0100
0001
0000
0010
0000
1000
0000
0010
0000
0100
0000
0010
0000
,
0001
0000
0100
0010
1000
0000
0010
0000
0001
0000
0010
0000
0100
0000
0001
0000
,
1000
0000
0001
0010
0100
0000
0010
0000
0001
0000
0100
0000
0010
0000
1000
0000
,
0100
0000
0010
0100
1000
0000
0100
0000
1000
0000
0010
0000
0100
0000
0001
0000
,
0010
0000
0100
0010
0001
0000
0010
0000
0001
0000
0100
0000
0010
0000
1000
0000
,
0100
0000
0010
0100
1000
0000
0100
0000
1000
0000
0010
0000
0100
0000
0001
0000
,
2001
0000
0000
0000
3001
0000
0010
0100
0020
0000
0000
0000
0100
0000
0000
0000
,
0031
0000
0002
0000
0023
0000
0130
1000
,
0002
0000
0000
0000
0100
0000
0000
0000
0010
0000
0000
0000
1003
0000
1000
0001
,
0020
0100
0001
0130
,
2000
0000
0000
0000
0000
0000
0000
0000
0000
0000
0000
0000
0000
0000
0000
0000
0000
0000
0000
0000
0000
0000
0000
0000
0000
0000
0000
0000
0000
0000
0000
0000
0000
0000
0000
0000
0000
0000
0000
0000
0000
0000
0000
0000
0000
0000
0000
0000
3020
0000
0000
0000
0000
0000
0000
0000
0000
0000
0000
0000
0000
0000
0000
0000
0000
0000
0000
0000
0000
0000
0000
0000
0000
0000
0000
0000
0000
0000
0000
0000
0000
0000
0000
0000
0000
0000
0000
0000
0000
0000
0000
0000
0000
0000
0000
0000
0230
0000
0000
0000
0000
0000
0000
0000
0000
0000
0000
0000
0000
0000
0000
0000
0000
0000
0000
0000
0000
0000
0000
0000
0000
0000
0000
0000
0000
0000
0000
0000
0000
0000
0000
0000
0000
0000
0000
0000
0000
0000
0000
0000
0000
0000
0000
0000
0001
0000
0000
0000
0000
0000
0000
0000
0000
0000
0000
0000
0000
0000
0000
0000
0000
0000
0000
0000
0000
0000
0000
0000
0010
0000
0000
0000
0000
0000
0000
0000
0000
0000
0000
0000
0000
0000
0000
0000
0000
0000
0000
0000
0000
0000
0000
0300
,
0020
1030
0200
0320
,
0032
0000
0100
0000
0010
0000
1003
0001
,
0220
0000
0000
0330
,
1100
0000
0100
0010
0011
0000
0010
0000
0110
0000
0100
0000
1100
0000
1000
0000
,
1010
0000
0010
0100
0101
0000
0001
0000
0011
0000
1010
0000
1001
0000
1001
0000
;

//--------------- dance-single - Pandemonium X ----------------
#NOTES:
     dance-single:
     Pandemonium X:
     Challenge:
     13:
     0,0,0,0,0:
0000
0000
0000
0000
,
0000
0000
0000
0000
,
0000
0000
0000
0000
,
1001
0000
0001
0010
0110
0000
0010
0000
0011
0000
0010
0000
0110
0000
0100
0000
,
1000
0100
0001
0100
0010
0000
0010
0000
0011
0000
0010
0100
1100
0000
0101
0000
,
1001
0000
1000
0010
0110
0000
0010
0000
0011
0000
0010
0000
1010
0000
0101
0000
,
0001
0001
1000
0100
0010
0000
0100
1000
0010
0010
0100
0001
0011
0000
1100
0000
,
1001
0000
0001
0001
0100
0000
0010
0000
1010
0000
0100
0000
1001
0000
0010
0000
,
1001
1000
0001
0010
0110
0000
0100
0000
1100
0000
0101
0000
0011
0000
1010
0000
,
0102
0000
0000
0000
0003
0000
0100
0010
1000
0000
0010
0100
0002
0000
0000
0000
,
0000
0000
0000
0000
0003
0000
0100
0001
0100
0000
0001
0000
1000
0000
0001
0000
,
2000
0000
0000
0010
0020
0000
0000
0000
0000
0000
0000
0000
3030
0000
1000
0001
,
0010
0100
0020
0000
0000
0000
0130
1000
,
0020
0000
0000
0000
0000
0000
0130
0001
0100
0000
0100
0010
0200
0000
0000
0000
,
0000
0000
0000
0000
0300
0000
0100
0010
1000
0000
0001
0000
0010
0000
1000
0000
,
0020
0000
0000
0001
0002
0000
0000
0000
0000
0000
0033
0000
1000
0000
0001
0000
,
0200
0000
0000
0000
0000
0000
0310
1000
0001
0000
0010
0000
1000
0000
0010
0000
,
0001
0000
0100
0000
0100
0000
0001
0000
1001
0000
0000
0000
0000
0000
0000
0000
0001
0000
1000
0000
0010
0000
0100
0010
0100
0000
0000
0000
0000
0000
0000
0000
,
0010
0000
1000
0000
0001
0000
0001
0000
1001
0000
0000
0000
0000
0000
0000
0000
0001
0000
0010
0000
0001
0000
1000
0100
1000
0000
0000
0000
0000
0000
0000
0000
,
0100
0000
1000
0000
0010
0000
0010
0000
0110
0000
0000
0000
0000
0000
0000
0000
0100
0000
0010
0000
1000
0000
0001
0010
0001
0000
0000
0000
0000
0000
0000
0000
,
0010
0000
0001
0000
1000
0000
1000
0000
1001
0000
0000
0000
0000
0000
0000
0000
0001
0000
0100
0000
0010
0000
1000
0010
1000
0000
0000
0000
1000
0000
0000
0000
,
0011
0000
0010
0100
1100
0000
0011
0000
1100
0000
1010
0000
0101
0000
1001
0000
,
0011
0000
0001
0100
0110
0000
1010
0000
0110
0000
0011
0000
0110
0000
1001
0000
,
0011
0000
0001
0010
0110
0000
1100
0000
1010
0000
1100
0000
1010
0000
0101
0000
,
0110
0000
0001
1000
1001
0000
0101
0000
0011
0000
1100
0000
0101
0000
1010
0000
,
1001
0000
0001
0010
1010
0000
0011
0000
0110
0000
1100
0000
0110
0000
0011
0000
,
1001
0000
0001
0100
1100
0000
0110
0000
0101
0000
1010
0000
1001
0000
0110
0000
,
1001
0000
0001
0010
1010
0000
0110
0000
0011
0000
1001
0000
0101
0000
0110
0000
,
1010
0000
1000
0001
0110
0000
1001
0000
1100
0000
0101
0000
1100
0000
0101
0000
,
1002
0000
0000
0000
0000
0000
0000
0000
1003
0000
0000
0000
0001
0000
0010
0100
1000
0000
0000
0000
0100
0000
1000
0000
1010
0000
0000
0000
0000
0000
0000
0000
,
0110
0000
0000
0000
0000
0000
0000
0000
1002
0000
0000
0000
0000
0000
0003
0000
2100
0000
0000
0000
0000
0000
3100
0010
0001
0000
0010
0000
0001
0000
0100
0000
,
0120
0000
0000
0000
0000
0000
0000
0000
1030
0000
0000
0000
0000
0000
0000
0000
0001
0000
0000
0000
0000
0000
1000
0010
1000
0000
0010
0000
0100
0000
0001
0000
,
0020
0000
0000
0000
0000
0000
0000
0000
0130
0000
0000
0000
0000
0000
0000
0000
1000
0000
0000
0000
0000
0000
0100
1000
0100
0000
1000
0000
0100
0000
0010
0000
,
0011
0000
0001
0001
0101
0000
0100
0100
0110
0000
0010
0010
1010
0000
1000
1000
,
1001
0000
0001
0001
0011
0000
0010
0010
0110
0000
0100
0100
1100
0000
1000
0000
,
1001
0001
0100
0010
1000
0001
0100
0010
1000
0001
0100
0010
1000
0001
0100
0010
,
1000
0100
0010
0001
1000
0100
0010
0001
1000
0100
0010
0001
1000
0100
0010
0000
,
0011
0000
0001
1000
1010
0000
1010
0000
1100
0000
0011
0000
0101
0000
1010
0000
,
1001
0000
1000
0100
0011
0000
1001
0000
0101
0000
1010
0000
1001
0110
1001
0000
;
