#TITLE:Der Wald (kors k Remix);
#SUBTITLE:;
#ARTIST:エレハモニカ remixed by kors k;
#TITLETRANSLIT:;
#SUBTITLETRANSLIT:;
#ARTISTTRANSLIT:;
#GENRE:;
#CREDIT:;
#MUSIC:Der Wald (kors k Remix).ogg;
#BANNER:;
#BACKGROUND:;
#CDTITLE:;
#SAMPLESTART:23.692;
#SAMPLELENGTH:22.574;
#SELECTABLE:YES;
#OFFSET:1.720;
#BPMS:0.000=85.000
,36.000=170.000
,292.000=340.000
;
#STOPS:292.000=0.176
,295.000=0.176
,298.000=0.176
,301.000=0.176
,302.000=0.176
,303.000=0.176
,306.000=0.176
,309.000=0.176
,310.000=0.176
;
#BGCHANGES:;
#FGCHANGES:;

//--------------- dance-single - ----------------
#NOTES:
     dance-single:
     Pandemonium X:
     Beginner:
     5:
     0,0,0,0,0:
0000
0000
0000
0000
,
0000
0000
0000
0000
,
0000
0000
0000
0000
,
0001
0000
0000
0000
,
1000
0000
0000
0000
,
0010
0000
0000
0000
,
0100
0000
0000
0000
,
0010
0000
0000
0000
,
1000
0000
0001
0000
,
0100
0000
0000
0000
,
0010
0000
0000
0000
,
1000
0000
0000
0000
,
0100
0000
0010
0000
,
0100
0000
0000
0000
,
0010
0000
0000
0000
,
0001
0000
0000
0000
,
1000
0000
0001
0000
,
1000
0000
0000
0000
,
0010
0000
0000
0000
,
0100
0000
0000
0000
,
0001
0000
1000
0000
,
0010
0000
0000
0000
,
0100
0000
0000
0000
,
0001
0000
1000
0000
,
0110
0000
0000
0000
,
1000
0000
0000
0001
,
0001
0000
1000
0000
,
0000
0000
0000
0010
,
0010
0000
0100
0000
,
0001
0000
1001
0000
,
0000
0000
0000
0000
,
0001
0001
0001
0000
,
0000
0000
1000
0000
,
0110
0000
0000
0100
,
0100
0010
0010
0000
,
0000
0000
0000
0100
,
0001
0000
1000
0000
,
0110
0000
1001
0000
,
0000
0000
1000
0001
,
0100
0000
0000
0010
,
1000
1000
0001
0001
,
1000
0000
0000
0000
,
0001
0000
0000
0000
,
0100
0000
0010
0000
,
0100
0000
0000
0000
,
0010
0000
0000
0000
,
1000
0000
0000
0000
,
0100
0000
0010
0000
,
0001
0010
0100
1000
,
0001
0000
0000
0000
,
1000
0000
0000
0000
,
0010
0000
1000
0000
,
0100
0100
0010
0010
,
0001
0000
0000
1000
,
0001
0000
0100
0000
,
0010
0000
1001
0110
,
1001
0000
0000
0000
,
0001
0000
0000
1000
,
0100
0000
0000
0000
,
0000
0000
0010
0000
,
0100
0000
1000
0001
,
0100
0000
0000
0000
,
0000
0000
0010
0100
,
0001
0000
0000
0000
,
0000
0000
1000
0000
,
0001
0000
0100
0000
,
0001
0000
0000
0010
,
0010
0000
0000
0000
,
0100
0000
1000
0000
,
0001
0000
0000
0000
,
0000
0000
0000
0000
,
1001
0000
0000
0000
,
0000
0000
0000
0000
,
0010
0000
0000
0010
,
0000
0000
0010
0000
,
0000
0010
0000
0100
,
0000
0000
0100
0000
,
0000
0100
0100
0100
;

//--------------- dance-single - ----------------
#NOTES:
     dance-single:
     Pandemonium X:
     Easy:
     9:
     0,0,0,0,0:
0000
0000
0000
0000
,
0000
0000
0000
0000
,
0000
0000
0000
0000
,
0001
0000
1000
0000
0000
0100
1000
0000
,
0100
0000
0010
0000
0000
0100
0010
0001
,
1000
0000
0001
0000
0000
0100
0001
0000
,
0100
0000
0010
0000
0000
1000
0001
0000
,
0010
0000
0001
0000
0000
1000
0100
0000
,
1000
0000
0001
0000
0000
0100
0010
0000
,
1000
0010
1000
0001
,
0010
1000
0010
0001
,
1000
0001
0100
0001
,
0100
1000
0100
0001
,
1000
0010
1000
0001
,
0010
1000
0010
0001
,
1000
0100
0010
0001
,
0100
1000
0100
0001
,
0101
0001
0100
0010
,
1010
1010
0101
0101
,
0001
1000
0100
0010
,
0011
0011
1100
1100
,
0100
1000
0010
0100
,
0001
0010
0100
0010
,
0001
1000
0010
0100
,
2002
0000
0000
3003
,
0002
0000
0000
0000
0003
0000
1000
0010
,
0100
0000
0010
1000
0002
0000
0000
0000
,
0000
0000
0000
0000
0003
0000
1000
0100
,
0010
0100
1000
0001
,
0100
0000
0000
0010
0020
0000
0000
0000
,
0000
0000
0030
0000
0000
0000
0100
0010
,
1000
0001
2000
0000
,
0000
3000
0100
1000
,
1020
0000
0000
0000
0000
0000
0130
0010
,
1000
0000
0010
0100
0002
0000
0000
0000
,
0000
0000
0000
0000
0003
0000
0010
0001
,
0100
0010
1000
0001
,
1001
0000
0000
0001
0002
0000
0000
0000
,
0000
0003
1000
0001
,
0200
0000
0000
0000
0000
0000
0310
0100
,
0110
1001
1010
0101
,
0001
1000
0010
1000
,
0001
0010
0001
1000
,
0100
0100
1000
1000
,
0002
0000
0000
0000
,
1003
1000
1000
1001
,
0001
0001
0001
1001
,
0002
0013
0002
0013
,
0200
2300
3020
0230
,
0301
1000
0010
1000
,
0001
0010
0001
1000
,
0100
0100
0010
0010
,
0001
0100
0010
1000
,
0220
0000
0000
0000
0330
0000
0001
1000
,
0001
0010
0001
0100
,
0001
1000
1001
1010
,
0001
0100
0101
1010
,
1000
0000
0100
0000
0010
0000
0001
0100
,
0010
0100
0001
1000
,
0100
1000
1001
0001
,
0101
0100
0110
1010
,
0110
0100
0010
1000
,
0001
0000
0010
0000
0110
0000
0100
1000
,
0010
0100
0010
1000
,
0001
0010
0100
0010
,
0011
0001
0101
0100
,
0110
0010
1000
1010
,
0101
0001
1000
0100
,
0110
0100
1100
1000
,
1010
0010
0100
0001
,
1000
0001
0100
0010
,
2002
0000
0000
0000
,
0000
0000
0000
3003
,
0001
1000
0000
0010
,
0100
0000
0001
0010
,
0000
0110
0110
0100
,
1000
0000
0010
0100
,
0000
1001
0110
1001
;

//--------------- dance-single - ----------------
#NOTES:
     dance-single:
     Pandemonium X:
     Medium:
     11:
     0,0,0,0,0:
0000
0000
0000
0000
,
0000
0000
0000
0000
,
0000
0000
0000
0000
,
0001
0000
0000
0000
1000
0000
0000
0100
1000
0000
0010
0000
0100
0000
0000
0000
,
0010
0000
0000
0000
0100
0000
0000
0001
0010
0000
0001
0000
1000
0000
0001
0000
,
0100
0000
0000
0000
0001
0000
0000
0010
0100
0000
0010
0000
0001
0000
0000
0000
,
0100
0000
0000
0000
0010
0000
0000
1000
0100
0000
0010
0000
0100
0000
1000
0000
,
0001
0000
0000
0000
1000
0000
0000
0010
1000
0000
0010
0000
0100
0000
0000
0000
,
0001
0000
0000
0000
0010
0000
0000
0100
0010
0000
0100
0000
1000
0000
0001
0000
,
1000
0000
0001
0100
0001
0000
0010
0000
,
0100
0010
0001
1000
,
0001
1000
0010
1000
0001
0000
1000
0100
,
1000
0000
0001
0010
0002
0000
2003
0000
,
3010
0000
0100
0001
1000
0000
0001
0000
,
0010
1000
0010
0100
,
1000
1000
0100
1000
0010
0000
0100
0000
,
0001
0000
0100
0100
0002
0000
2003
0000
,
3001
0000
1000
0001
0100
0000
0001
0000
,
0011
0011
1100
1100
,
0100
1000
0010
0100
0010
0000
0100
0001
,
1000
1000
0001
0010
0002
0000
2003
0000
,
3001
0000
0100
0001
0010
0000
0100
0000
,
1100
1100
0011
0011
,
0001
0100
0010
1000
0100
0000
0010
0001
,
2000
3200
0320
0032
,
1003
0000
0001
0000
0100
0000
0010
1000
,
0100
0000
0010
0001
0100
0000
0010
0000
,
1000
0000
0001
0000
0010
0000
0100
1000
,
0010
0100
0001
1000
,
0001
0000
1000
0100
0100
0000
1000
0000
,
0010
0000
0100
0000
0001
0000
0010
0100
,
1000
1100
0022
0000
,
0000
0033
0001
0010
,
0100
0000
0010
0000
0001
0000
1000
0001
,
1000
0000
0001
1000
0001
0000
1000
0000
,
0010
0000
1000
0000
0001
0000
0010
0100
,
1000
0100
0010
0001
,
0201
0000
0000
0010
0320
0000
0000
0000
,
1030
0010
0100
0001
,
1001
0000
1000
0000
0001
0000
1000
0001
,
0101
0101
1010
0101
,
0001
0000
1000
0001
0100
0000
0001
0010
,
0000
0100
0010
0001
1000
0000
0110
0000
,
0001
0100
0001
1000
,
0200
0000
0000
0000
,
0310
0000
0100
0010
0001
0000
0010
0100
,
0000
0010
0001
0100
0010
0000
0100
0000
,
0201
0310
2010
3001
,
2000
3200
0320
0032
,
1003
0000
0100
1000
0010
0000
0100
0010
,
0000
0100
0010
1000
0001
0000
0010
0000
,
0110
0110
1001
1001
,
0002
2003
3020
0230
,
0302
0000
0000
0000
0013
0000
0100
1000
,
0001
1000
0010
0100
,
0010
0010
0100
0100
2002
0000
0000
3003
,
0101
1010
1100
1010
,
1001
1000
0001
0100
,
0001
0000
0010
0000
0100
0000
0010
0001
,
0100
0010
1000
0001
,
1000
0000
0100
0000
0010
0000
0100
1000
,
0010
0100
0001
0010
,
0100
0000
0010
0000
0001
0000
0100
0001
,
0010
0100
0010
0001
,
1000
0001
0100
0001
,
1001
0100
0001
1000
,
1010
0010
1000
0001
,
0011
0001
1000
0100
,
0110
0100
1100
0100
,
1000
0010
1000
0000
0001
0100
0001
0000
,
1000
0010
1000
0000
0001
0100
0001
0000
,
1000
0001
1000
0001
1000
0001
1000
0001
,
1000
0001
1000
0001
1000
0001
1000
0000
,
0001
0100
0001
0100
,
0001
0100
0001
0100
,
0001
0100
0101
1000
,
0010
1000
0010
1000
,
0010
1000
0001
0110
;

//--------------- dance-single - ----------------
#NOTES:
     dance-single:
     Pandemonium X:
     Hard:
     13:
     0,0,0,0,0:
0000
0000
0000
0000
,
0000
0000
0000
0000
,
0000
0000
0000
0000
,
0001
0000
0100
0000
0010
0000
0100
0010
1000
0000
0100
0000
0010
0000
0000
0000
,
0100
0000
0010
0000
0100
0000
1000
0001
0010
0000
0100
0000
0010
0000
0001
0000
,
0100
0000
0010
0000
1000
0001
0010
0000
0100
0000
0010
0000
0100
1000
0010
0000
,
0100
0000
0001
0000
1000
0100
0010
0000
0100
0000
1000
0000
0001
0100
1000
0100
,
0001
0000
1000
0000
0010
1000
0010
1000
0001
0000
0010
0000
0100
0010
0100
0010
,
0001
0000
0010
0000
0100
1000
0001
1000
0001
0100
0010
1000
0100
0010
0001
1000
,
1001
0000
0001
0100
0010
0000
0100
0000
,
0001
1000
0100
0001
,
0100
1000
0010
0100
0001
0000
0010
0100
,
0010
0000
0100
1000
0020
0000
0230
0000
,
0301
0000
1000
0100
1000
0000
0100
0000
,
1000
0001
0100
0010
,
0100
0100
0010
1000
0001
0000
0010
0000
,
0001
0000
1000
1000
1001
0000
0101
0000
,
1010
0000
0010
0100
0101
0000
0011
0000
,
1001
1010
1001
0101
,
0001
0001
1000
0100
0010
0000
0100
0010
,
0001
0001
0010
0100
1100
0000
0110
0000
,
0011
0000
0001
0010
0110
0000
1100
0000
,
1010
0110
0101
0011
,
0010
0010
0001
1000
0010
0000
0100
0000
,
0002
0203
0320
2030
,
3100
0000
1000
0000
0010
0000
0100
0001
,
0011
0000
0100
1000
2010
0000
0010
0000
,
0001
0000
3001
0010
0100
0000
0010
0001
,
1000
0101
0011
0110
,
1002
0000
0000
1000
2000
0000
0003
0000
,
3010
0000
0100
0010
1000
0000
0001
0010
,
0110
0011
0110
0100
,
1000
0000
0100
0000
0010
0001
0100
1000
,
0100
0000
0010
0000
1000
0000
0001
0100
,
1000
0000
1000
0100
0001
0000
1000
0000
,
1100
0000
1000
0000
0100
0000
1000
0010
,
0100
0001
0010
0100
,
1000
0000
0000
1001
1002
0000
1000
0000
,
0010
0103
0101
1010
,
1100
0100
0010
0001
0010
0100
0010
0001
,
1001
0101
0110
1010
,
1000
0001
0010
0001
1000
0010
1000
0001
0010
0001
0000
0000
,
1000
0001
0010
0001
1000
0010
1000
0001
0100
0001
0000
0000
,
2000
3100
2000
3010
,
0200
0000
0000
0000
,
0310
1000
0100
1000
0010
1000
0100
1000
0010
1000
0000
0000
,
0001
0100
0010
0100
0001
0100
0010
0100
0001
0100
0000
0000
,
1002
0023
0032
0203
,
0310
0000
1000
0010
1000
0000
0001
0000
0200
0000
0000
0000
0320
0000
0000
0000
,
1030
0100
0010
0001
1000
0100
0010
0001
1000
0100
0000
0000
,
0010
0100
1000
0001
0010
0100
1000
0001
0010
0200
0000
0000
,
0310
0010
0001
0001
,
2000
0010
0100
3001
,
0220
0000
0000
0000
0000
0000
0000
0000
0330
0000
0000
0000
0001
1000
0001
1000
,
0001
1000
1000
0010
1010
0000
0101
0000
,
0001
0000
0001
0000
0001
0000
0001
0000
1000
0010
1000
0000
0001
0100
0001
0000
,
1000
0001
0110
0110
,
1000
0000
0000
0100
0000
0000
1000
0000
0000
0010
0000
0000
0100
0000
0001
0000
,
0010
0000
0000
0100
0000
0000
0010
0000
0000
0001
0000
0000
1000
0000
0001
0000
,
0100
0000
0000
0001
0000
0000
0010
0000
0000
0001
0000
0000
1000
0000
0100
0000
,
0010
0000
0000
0100
0000
0000
1000
0000
0000
0010
0000
0000
0100
0000
0010
0000
,
1000
0000
0000
0001
0000
0000
0010
0000
0000
0001
0000
0000
1000
0000
0001
0000
,
0100
0000
0000
0001
0000
0000
0010
0000
0000
0100
0000
0000
0010
0000
0001
0000
,
1000
0000
0000
0100
0000
0000
0010
0000
0000
0100
0000
0000
0010
0000
0001
0000
,
0100
0000
0000
0010
0000
0000
1000
0000
0000
0001
0000
0000
1000
0000
0100
0000
,
0010
0000
0000
0100
0000
0000
1000
0000
0000
0010
0000
0000
0100
0000
0001
0000
,
0010
0000
0000
0100
0000
0000
0010
0000
0000
0001
0000
0000
0100
0000
0010
0000
,
1000
0000
0000
0001
0000
0000
0010
0000
0000
0001
0000
0000
1000
0000
0100
0000
,
1000
0000
0000
0010
0000
0000
0100
0000
0000
0001
0000
0000
0010
0000
0100
0000
,
1000
0100
1000
0000
0001
0100
0001
0000
,
1000
0010
1000
0000
0001
0010
0001
0000
,
1000
0100
0010
0001
0010
0100
0010
0001
,
0100
0010
0100
0000
0001
1000
0001
0000
1000
0010
1000
0000
0001
0100
0001
0000
,
1001
1000
0001
0010
,
0001
1000
0010
1000
,
0001
0011
1100
1001
,
1000
0001
0100
0001
,
1000
1100
0011
1001
;

//--------------- dance-single - ----------------
#NOTES:
     dance-single:
     Pandemonium X:
     Challenge:
     15:
     0,0,0,0,0:
0000
0000
0000
0000
,
0000
0000
0000
0000
,
0000
0000
0000
0000
,
0001
0010
0100
0010
0001
0100
0010
0100
,
0001
0000
0000
0000
1000
0000
0000
0000
0001
0000
0000
0000
0010
0000
0000
0000
0100
0000
0000
0000
0010
0000
0000
0000
0001
0000
1000
0001
1000
0000
0001
0000
,
0100
0000
0010
0000
1000
0100
0010
0100
1000
0000
0010
0000
0100
0010
0100
0001
,
0010
0000
0000
0000
0100
0000
0000
0000
0010
0000
0001
0000
0100
0000
0001
0000
1000
0000
0000
0000
0001
0000
0000
0000
1000
0000
0010
0100
0010
0000
0100
0000
,
0001
0000
0010
0000
0001
0100
0010
1000
0001
0000
0010
0000
0100
0010
0001
0100
,
0010
0000
1000
0000
0001
0100
0010
1000
0001
0000
0100
0000
0010
0000
1000
0000
,
1001
0000
0001
0100
0110
0000
1010
0000
,
0011
1100
0101
1010
,
1000
1000
0100
0010
0011
0000
0001
0010
,
0110
0000
0010
0001
0101
0000
1010
0000
,
1001
0000
0001
0010
0110
0000
0010
0000
,
0011
0010
0110
0100
,
1000
0100
0001
0100
0010
0000
0010
0000
,
0011
0000
0010
0100
1100
0000
0101
0000
,
1001
0000
0001
0100
0110
0000
1010
0000
,
0110
0101
0011
1001
,
0001
0001
0010
0001
0100
0000
1001
0000
,
1000
1000
0100
1000
1001
0000
0011
0000
,
1000
0001
0100
0001
1000
0100
1000
0001
,
0010
0001
1000
0010
1000
0001
0100
0010
,
1000
0010
1000
0010
0100
0010
0100
0010
0100
0001
0100
0001
0100
0010
1000
0001
,
2000
3200
0320
0032
,
2003
0000
0010
0000
3001
0000
1000
0010
,
0100
0000
0100
0001
2000
0000
0001
0000
,
0010
0000
0001
0000
3010
0000
0100
0010
,
1001
0101
1010
0011
,
1100
0000
0002
0100
0203
0000
0010
0000
,
0001
0000
0010
0000
0301
0000
1000
0100
,
0002
0203
2300
0010
,
0100
0010
3200
0320
,
0032
0000
0010
0000
0103
0000
0001
1000
,
1020
0000
0130
0001
0021
0000
0100
0000
,
0001
0000
0100
0000
0031
0000
0010
0100
,
2100
3010
0201
0310
,
2001
0000
0000
0010
3020
0000
0100
0000
,
1000
0100
2030
3002
,
0023
0000
1000
0000
0001
0000
0130
0010
,
0011
1100
1001
1001
,
1100
1000
0100
0010
0001
0100
0010
1000
0001
1000
0000
0000
,
0001
0010
0100
0010
0001
1000
0001
0010
0100
2000
0000
0000
,
3001
0001
1000
1000
,
2020
0000
0000
0030
,
3100
0000
0010
0000
0001
0000
1000
0000
0010
0000
0001
0000
0010
0000
0100
0000
0001
0000
1000
0000
0000
0001
0000
0000
,
1000
0000
0100
0000
0010
0000
0001
0000
0010
0000
1000
0000
0010
0000
0001
0000
0100
0000
0010
0000
0000
1000
0000
0000
,
2001
3010
1002
0023
,
0031
0000
0001
1000
0020
0000
1030
0000
0020
0000
0031
0000
0200
0000
0310
0000
,
1000
1000
0001
0100
0100
0010
1000
1000
0010
0200
0000
0000
,
0301
0001
0010
0100
0100
0010
0001
0001
1000
0020
0000
0000
,
0130
0100
0002
2003
,
3200
2300
3020
0230
,
0304
0000
0000
0000
4000
0000
0000
0000
0000
0000
0000
0000
0000
0000
0000
0000
0000
0000
0000
0000
3003
0000
0000
0000
0210
0000
0000
0000
0000
0000
0000
0000
0000
0000
0000
0000
0301
0000
0000
1000
0000
0000
0001
0000
0000
1000
0000
0000
,
0010
0010
1000
0001
0001
0010
0100
0100
1000
0001
0000
0000
,
0100
0000
0100
0000
0100
0000
0100
0000
0200
0320
2030
3000
2000
3200
0320
0030
,
0011
1100
0110
0110
,
1001
0000
0000
0001
0000
0000
0010
0000
0000
0100
0000
0000
1000
0000
0100
0000
,
1000
0000
0000
0010
0000
0000
0100
0010
0000
1000
0000
0001
0010
0000
0100
0000
,
0010
0000
0000
0001
0000
0000
1000
0000
0000
0010
0000
0000
1000
0000
0001
0000
,
0100
0000
0000
0001
0000
0000
0010
0100
0000
0010
0000
0001
1000
0000
0010
0000
,
0100
0000
0000
0001
0000
0000
0010
0000
0000
0001
0000
0000
0100
0000
0010
0000
,
1000
0000
0000
0001
0000
0000
0010
0100
0000
1000
0000
0100
1000
0000
0001
0000
,
0100
0000
0000
0001
0000
0000
1000
0000
0000
0010
0000
0000
1000
0000
0100
0000
,
0010
0000
0000
0100
0000
0000
0010
0001
0000
0100
0000
0010
1000
0000
0001
0000
,
0100
0000
0001
0100
0000
0010
1000
0000
0001
0010
0000
0100
1000
0000
0001
0000
,
1000
0000
0100
1000
0000
0100
0010
0000
0100
1000
0000
0100
0010
0000
0001
0000
,
0010
0000
0001
0100
0000
0010
0100
0000
0001
0010
0000
0001
0100
0000
0000
0000
,
1020
0130
0021
0130
,
1000
0100
0010
0100
1000
0010
0100
0001
,
0010
0100
1000
0001
0100
0010
1000
0001
,
0010
0001
0010
0001
1000
0100
1000
0100
1000
0010
1000
0010
0100
0001
0100
0001
,
0100
0010
0100
0010
1000
0001
1000
0001
1000
0001
0100
0010
1000
0000
0000
0000
,
1001
0101
1010
1100
,
0110
0011
1001
1010
,
0101
1001
0110
1001
,
1010
0110
1001
0011
,
0110
1001
0110
2002
,
0000
0000
0000
0000
,
0000
0000
0000
0000
,
0000
0000
0000
0000
,
3003
0000
0000
0000
;
