#TITLE:DEADLOCK (STARDOM Remix);
#SUBTITLE:;
#ARTIST:RoughSketch;
#TITLETRANSLIT:;
#SUBTITLETRANSLIT:;
#ARTISTTRANSLIT:;
#GENRE:;
#CREDIT:;
#MUSIC:DEADLOCK (STARDOM Remix).ogg;
#BANNER:;
#BACKGROUND:DEADLOCK (STARDOM Remix)-bg.png;
#CDTITLE:;
#SAMPLESTART:74.824;
#SAMPLELENGTH:16.145;
#SELECTABLE:YES;
#OFFSET:-0.202;
#BPMS:0.000=119.000;
#STOPS:34.000=0.504
,145.000=0.504
;
#BGCHANGES:;
#FGCHANGES:;

//--------------- dance-single - Pandemonium X ----------------
#NOTES:
     dance-single:
     Pandemonium X:
     Beginner:
     3:
     0,0,0,0,0:
0000
0000
0000
0000
,
0000
0000
0000
0000
,
0000
0000
0000
0000
,
0000
0000
0000
0000
,
0000
0000
0000
0000
,
0001
0000
1000
0000
,
0001
0000
1000
0000
,
0010
0000
0100
0000
,
0010
0010
0000
1000
,
0000
0000
0000
0100
,
0000
0000
0000
0010
,
0000
0000
0000
0001
,
0000
1000
0000
0010
,
0000
0000
0000
0100
,
0000
0000
0000
0001
,
0000
0000
0000
1000
,
0000
0001
0000
0100
,
0000
0000
0000
0010
,
0000
0000
0000
1000
,
0000
0000
0000
0100
,
0000
1000
0000
0001
,
0000
0000
0000
0100
,
0000
0000
0000
0010
,
0000
0000
0000
1000
,
0000
0001
0000
0100
,
0000
0000
0000
0010
,
0000
0000
0000
0000
,
1000
0000
1000
0000
,
0001
0000
0001
1000
,
0100
0000
0010
0000
,
0001
0000
0010
0000
,
0100
0000
1000
0000
,
0001
0000
1000
0001
,
0000
1000
0000
0010
,
0000
0100
0000
0010
,
0000
0100
0000
0001
,
0001
0000
1000
0000
,
0100
0000
1000
0000
,
0001
0100
0001
0000
,
0010
0000
0100
0000
,
1000
0001
1000
0000
,
0010
0000
0100
0000
,
0010
1000
0010
0000
,
1000
0000
0001
0000
,
0010
0001
0100
0000
,
0000
0000
0010
0000
,
0000
0000
0100
0000
,
0000
0000
0001
0000
,
0000
0000
1000
0000
,
0001
0000
0100
0000
,
0000
0000
0010
0000
,
0000
0000
1000
0000
,
0000
0000
0100
0000
,
0010
0000
1001
0000
;

//--------------- dance-single - Pandemonium X ----------------
#NOTES:
     dance-single:
     Pandemonium X:
     Easy:
     8:
     0,0,0,0,0:
0000
0000
0000
0000
,
0000
0000
0000
0000
,
0000
0000
0000
0000
,
0000
0000
0000
0000
,
0000
0000
0000
0000
,
0001
0100
0001
0000
1000
0010
1000
0000
,
0001
0100
0001
0000
1000
0010
1000
0000
,
1000
0100
0010
0001
,
1000
0001
1000
0001
0000
0000
0201
0000
,
0310
0000
0100
0010
1000
0000
1002
0000
,
0013
0000
0100
1000
0010
0000
0120
0000
,
1030
0000
0001
1000
0001
0000
0201
0000
,
1300
0000
1200
0000
0301
0000
1000
0100
,
0020
0000
0001
0000
0130
0000
0010
0001
,
0200
0000
0010
0000
0301
0000
1000
0001
,
0020
0000
0100
0000
0031
0000
0010
0100
,
1000
0001
0010
0100
1000
0000
0001
1000
,
0010
0000
0102
0000
0013
0000
0100
0010
,
0001
0000
1200
0000
0310
0000
0100
1000
,
0010
0210
0301
0210
,
0301
0120
1030
0002
,
2003
0200
3300
2000
,
3002
0200
0303
0002
,
0023
0200
0330
0021
,
1030
0120
0031
2000
,
0000
0000
3000
0002
,
0000
0000
0003
0000
,
0100
0000
0010
0000
,
1000
0000
0001
1000
,
1000
1000
1000
0100
,
0100
0100
0100
0010
,
0010
0010
0010
0001
,
0001
0000
0001
0000
0001
0000
1000
0001
,
1000
0000
0001
0100
0001
0000
1000
0001
,
1000
0000
0001
0100
0020
0000
1030
0100
,
1000
0000
0001
0010
0001
0000
1000
0001
,
1000
0001
0000
0000
0201
0000
1000
0000
,
0001
1300
1200
0301
,
0110
1001
1020
0001
,
1000
0031
0021
1030
,
0110
0000
1001
0000
1000
0100
0020
0000
,
0001
1030
0201
1300
,
0110
1001
0201
1000
,
0301
0000
0100
0010
1020
0000
0031
0000
,
0110
0000
1001
0000
1001
1000
1000
0000
,
0001
0001
0001
0000
0100
0001
0020
0000
,
1000
0000
0031
0000
0001
0100
0020
0000
,
0001
0000
1030
0000
0001
1000
0200
0000
,
0001
1300
0201
0310
,
0120
0000
1030
0000
0001
1000
0200
0000
,
0001
0000
1300
0000
0001
1000
0020
0000
,
0001
0000
1030
0000
0010
0100
0002
0000
,
0010
0103
0201
0310
,
2100
0000
0000
0000
3010
0000
0000
0000
2002
0000
0000
3003
0000
0000
0000
0000
;

//--------------- dance-single - Pandemonium X ----------------
#NOTES:
     dance-single:
     Pandemonium X:
     Medium:
     12:
     0,0,0,0,0:
0000
0000
0000
0000
,
0000
0000
0000
0000
,
0000
0000
0000
0000
,
0000
0000
0000
0000
,
0000
0000
0000
0000
,
0001
0000
0000
0001
0000
0000
0000
0000
1000
0000
0000
1000
0000
0000
0000
0000
,
0010
0000
0000
0010
0000
0000
0000
0000
0100
0000
0000
0100
0000
0000
0000
0000
,
0001
1000
0010
0100
0001
0010
0100
1000
,
0010
0010
0010
0010
0000
0000
0100
0010
,
1000
0000
0001
1000
0000
0001
1000
0000
0001
0000
0000
0000
1000
0000
0100
0000
,
0010
0000
0001
0100
0000
0001
0100
0000
0001
0000
0100
0000
0010
0000
1000
0000
,
0001
0000
0010
0100
0000
0010
0100
0000
0010
0000
0001
0000
1000
0000
1000
0000
,
0001
0001
1000
1000
0010
0010
0110
0101
,
0011
0000
0001
0010
0000
0010
0000
0010
0100
0000
1000
0000
0010
0000
0100
0000
,
0010
0000
1000
0010
0000
0010
0100
0000
0010
0000
1000
0000
0001
0000
0010
0000
,
0100
0000
1000
0100
0000
0100
0010
0000
0100
0000
1000
0000
0001
0000
1000
0000
,
0010
0000
0100
0001
0010
0000
0100
0000
1000
0000
0001
0000
1000
0000
0010
0000
,
0100
0000
0001
0010
0000
0010
0100
0000
1000
0000
0000
0000
0100
0000
1000
0000
,
0010
0000
0100
0010
0000
0010
1000
0000
0001
0000
0010
0000
0100
0000
0010
0000
,
0001
0000
1000
0010
0000
0010
0100
0000
0010
0000
1000
0000
0001
0000
0001
0000
,
1000
1000
0010
0010
0100
0100
0110
0101
,
0011
0000
0001
0010
0000
0010
0000
0010
0100
0000
0000
0000
0010
0000
0001
0000
,
0100
0000
0010
0100
0000
0100
0010
0000
0100
0000
0010
0000
1000
0000
0001
0000
,
1000
0000
0100
1000
0000
1000
0100
0000
0010
0000
0001
0000
0100
0000
0000
0010
,
0000
0000
1000
0000
0001
0000
1000
0000
0010
0000
0100
0001
0020
0000
0000
0000
,
0000
0000
0030
0200
,
0000
0000
0300
2000
,
0010
0000
0001
0000
,
0010
0000
3001
2000
,
3200
0320
0032
0203
,
0320
2030
3002
2003
,
3200
0320
0032
0203
,
0320
0000
2030
0000
3002
0000
1003
0100
,
0010
0001
0000
0001
0010
0000
0001
0000
0100
0010
0000
0010
0100
0000
0010
0000
,
1000
0001
0000
0001
1000
0000
0001
0000
0020
0000
0000
0000
0130
0000
0100
0000
,
1000
0000
1000
0001
1000
0000
0001
0000
1000
0001
1000
0000
0001
0000
0001
0000
,
0001
0000
0001
0000
0000
0000
0000
0000
1000
0000
0000
0001
0000
0000
0010
0000
,
0000
0100
0000
0000
0010
0000
0001
0000
0100
0000
0000
0010
0000
0000
1000
0000
,
0001
1000
0000
1000
0001
0000
0100
0000
0010
0000
0000
1000
0000
0000
0100
0000
,
0000
0010
0000
0000
0100
0000
0010
0000
0001
0000
0000
0010
0000
0000
0001
0000
,
0100
0001
0000
0001
1000
0000
0100
0000
0110
0000
1100
0000
1001
0000
1000
0000
,
0000
0001
0000
0000
0010
0000
0001
0000
0100
0000
0000
0010
0000
0000
1000
0000
,
0001
1000
0000
1000
0001
0000
0100
0000
0010
0000
0000
1000
0000
0000
0100
0000
,
0000
0010
0000
0000
0100
0000
0010
0000
0001
0000
0000
0010
0000
0000
0001
0000
,
1000
0001
0000
0001
0100
0000
0010
0000
1000
0000
0100
0000
0010
0000
0001
0010
,
0100
0000
1000
0000
0100
0000
0010
0001
0100
0000
0010
0000
1000
0000
0001
1000
,
0000
1000
0010
0000
0100
0000
0000
0000
0010
0000
1000
0000
0100
0000
0100
0010
,
0000
0010
0001
0000
0010
0000
0100
0000
1000
0000
0001
0000
0100
0000
0010
1000
,
0000
1000
0010
0000
0100
0000
0010
0000
1000
0000
1000
0000
0001
0000
0001
0000
,
0010
0000
0010
0000
0100
0000
0100
0000
0110
0000
1100
0000
1001
0000
0001
1000
,
0000
1000
0000
0001
0000
0000
0000
0000
0100
0000
0001
0000
0010
0000
0100
0010
,
0000
0010
0001
0000
1000
0000
0100
0000
1000
0000
0010
0000
0100
0000
0010
0100
,
0000
0100
0010
0000
0100
0000
0001
0000
1000
0000
0000
0001
0000
0000
0010
0000
,
1100
0000
0000
0011
0000
0000
0100
0000
1001
0000
0000
1001
0000
0000
0000
0000
;

//--------------- dance-single - Pandemonium X ----------------
#NOTES:
     dance-single:
     Pandemonium X:
     Hard:
     13:
     0,0,0,0,0:
0000
0000
0000
0000
,
0000
0000
0000
0000
,
0000
0000
0000
0000
,
0000
0000
0000
0000
,
0000
0000
0000
0000
,
0001
0000
1000
0000
0010
0100
0000
0010
0100
0000
0001
0000
1000
0001
0000
1000
,
0001
0000
1000
0000
0100
1000
0000
0100
1000
0000
0100
0000
0010
0001
0000
0010
,
0001
0100
1000
0100
0001
0010
1000
0010
,
0001
0001
0001
0001
0000
0000
1000
0001
,
0100
0000
0010
1000
0000
1000
0010
0000
0100
0000
0010
0000
1000
0000
0001
0000
,
0010
0000
0100
0010
0000
0010
0100
0000
0010
0001
0100
0001
1000
0000
0001
0000
,
0010
0000
0001
0100
0000
0100
0001
0000
1000
0000
0001
0000
0010
0000
0010
0000
,
0100
0100
1000
0100
0001
0100
1000
0010
,
0100
0000
0010
1000
0000
1000
0000
1000
0001
0000
0001
0000
0010
0000
0100
0000
,
0010
0000
0001
0100
0000
0100
0001
0000
0010
0100
0010
0001
1000
0000
0001
0000
,
0100
0000
0010
0100
0000
0100
0010
0000
0100
0010
1000
0001
1000
0000
1000
0000
,
0001
0000
0001
1000
0002
0000
0000
0013
0000
0000
0000
0000
1000
0000
0100
0000
,
0010
0000
0100
1000
0000
0010
0100
0000
0001
0000
1000
0000
0001
0000
0100
0000
,
0001
0000
0010
0100
0000
0010
0001
0000
0100
0010
1000
0001
0010
0000
0100
0000
,
1000
0000
0100
1000
0000
1000
0010
0000
0100
0010
1000
0001
0010
0000
0010
0000
,
0100
0100
1000
0010
0001
0010
1010
0101
,
1001
0000
1000
0001
0000
0001
0000
0001
1000
0000
0000
0000
0101
0000
1010
0000
,
1001
0000
0001
1000
0000
1000
0001
0000
1000
0010
0100
0001
0010
0000
0110
0000
,
1001
0000
0001
1000
0000
1000
0001
0000
1000
0100
1000
0001
1000
0000
0000
0001
,
0000
0000
0010
0000
0100
0000
0100
0010
0002
0000
0103
0000
1020
0000
0000
0000
,
0100
1000
0130
0201
,
0010
0001
0310
0100
,
1001
0010
1001
0100
,
1001
0010
1001
2000
,
3020
0230
0301
0020
,
0230
2300
3100
0020
,
2030
3020
0031
0200
,
2300
0000
3200
0000
0310
0000
1000
0010
,
0100
0001
0000
0010
0100
0000
0010
0000
0001
0100
0000
0010
1000
0000
0100
0000
,
0010
0100
0000
1000
0010
0000
0100
0000
0002
0000
0000
0000
1003
0000
1000
0000
,
1100
0000
0100
0010
0001
0000
0001
0000
0001
0010
0100
1000
0001
0000
0001
0000
,
0001
0000
0001
0000
0000
0000
0000
0000
0001
1000
0000
1000
0001
0000
0001
1000
,
0000
1000
0010
0000
0100
0000
0001
0000
0010
0100
0000
0100
1000
0000
0100
0000
,
1000
0100
0000
0100
0010
0001
0000
0001
1000
0001
0000
0001
0100
0000
0100
0010
,
0000
0010
1000
0000
0010
0000
1000
0000
0100
0010
0000
0010
0001
0000
0010
0000
,
0100
1000
0000
0100
1000
0010
0000
0100
0002
0000
0023
0000
0130
0000
1000
0100
,
0000
0100
1000
0000
1000
0000
0010
0000
0100
0010
0000
0010
1000
0000
0010
0000
,
0100
0010
0000
0010
1000
0100
0000
0010
0001
0010
0000
0010
0100
0000
0100
1000
,
0000
1000
0001
0000
0010
0000
0100
0000
1000
0100
0000
0100
0010
0000
0001
0000
,
0010
0100
0000
0010
0001
0100
0000
0010
1000
0000
0001
0000
0100
0000
0010
1000
,
0001
0000
0010
0000
0100
0000
0010
0001
0200
0000
0320
0000
1030
0000
0001
1000
,
0000
1000
0001
0000
0010
0000
0200
0000
0320
0000
0032
0000
0013
0000
0100
1000
,
0000
1000
0100
0000
0100
0010
0001
1000
0020
0000
2030
0000
3001
0000
1000
0010
,
0000
0010
0100
0000
0010
1000
0001
0010
0100
0000
0100
0000
1000
0000
1000
0000
,
0001
0000
0100
0000
1000
0000
0100
0000
0101
0000
1010
0000
1001
0000
0001
0010
,
0000
0010
0000
0010
0100
0000
0020
0000
0032
0000
0203
0000
0310
0000
0100
0001
,
0000
1000
0010
0000
1000
0100
1000
0001
0020
0000
0230
0000
1300
0000
0100
1000
,
0000
0001
0010
0000
0001
0100
0010
1000
0100
0000
0100
0000
0010
0000
0010
0000
,
0001
0000
0010
0000
1000
0000
0010
0000
1001
0000
0000
1001
0000
0000
0000
0000
;

//--------------- dance-single - Pandemonium X ----------------
#NOTES:
     dance-single:
     Pandemonium X:
     Challenge:
     15:
     0,0,0,0,0:
0000
0000
0000
0000
,
0000
0000
0000
0000
,
0000
0000
0000
0000
,
0000
0000
0000
0000
,
0000
0000
0000
0000
,
0101
0000
0011
0000
0010
0110
0000
0100
1100
0000
0110
0000
0010
0011
0000
0001
,
0101
0000
0110
0000
0010
1010
0000
1000
1001
0000
0011
0000
0010
0110
0000
0100
,
1100
0100
0110
0010
0011
1000
1001
0001
,
1000
1000
1000
1000
0000
0000
2100
3020
,
0130
0000
0000
0000
0000
0000
0000
0000
0000
0000
0000
0000
0001
0000
0000
0000
0000
0000
0020
0030
0000
0000
0000
0000
0000
0000
0000
0000
0000
0000
0020
0030
0000
0000
0000
0000
1000
0000
0000
0000
0000
0000
0000
0000
0000
0000
0000
0000
0001
0000
0000
0000
0000
0000
0000
0000
0000
0000
0000
0000
1000
0000
0000
0000
0000
0000
0000
0000
0000
0000
0000
0000
0021
0000
0000
0000
0000
0000
0000
0000
0000
0000
0000
0000
0230
0000
0000
0000
0000
0000
0000
0000
0000
0000
0000
0000
,
0310
0000
0000
0000
0000
0000
0000
0000
0000
0000
0000
0000
0001
0000
0000
0000
0000
0000
0200
0300
0000
0000
0000
0000
0000
0000
0000
0000
0000
0000
0200
0300
0000
0000
0000
0000
1000
0000
0000
0000
0000
0000
0000
0000
0000
0000
0000
0000
0001
0000
0000
0000
0000
0000
1000
0000
0000
0000
0000
0000
0010
0000
0000
0000
0000
0000
1000
0000
0000
0000
0000
0000
2010
0000
0000
0000
0000
0000
0000
0000
0000
0000
0000
0000
3020
0000
0000
0000
0000
0000
0000
0000
0000
0000
0000
0000
,
0130
0000
0000
0000
0000
0000
0000
0000
0000
0000
0000
0000
0001
0000
0000
0000
0000
0000
0200
0300
0000
0000
0000
0000
0000
0000
0000
0000
0000
0000
0200
0300
0000
0000
0000
0000
1000
0000
0000
0000
0000
0000
0000
0000
0000
0000
0000
0000
0001
0000
0000
0000
0000
0000
1000
0000
0000
0000
0000
0000
0010
0000
0000
0000
0000
0000
1000
0000
0000
0000
0000
0000
0002
0000
0000
0000
0000
0000
0000
0000
0000
0000
0000
0000
0103
0000
0000
0000
0000
0000
0000
0000
0000
0000
0000
0000
,
0020
1030
0200
0310
0002
0103
1001
0110
,
1001
0000
0000
0000
0000
0000
0000
0000
0000
0000
0000
0000
0001
0000
0000
0000
0000
0000
0020
0030
0000
0000
0000
0000
0000
0000
0000
0000
0000
0000
0020
0030
0000
0000
0000
0000
0000
0000
0000
0000
0000
0000
1000
0000
0000
0000
0000
0000
0001
0000
0000
0000
0000
0000
0000
0000
0000
0000
0000
0000
0020
0000
0000
0000
0000
0000
0000
0000
0000
0000
0000
0000
0230
0000
0000
0000
0000
0000
0000
0000
0000
0000
0000
0000
0310
0000
0000
0000
0000
0000
0000
0000
0000
0000
0000
0000
,
0100
0000
0000
0000
0000
0000
0000
0000
0000
0000
0000
0000
1000
0000
0000
0000
0000
0000
0200
0300
0000
0000
0000
0000
0000
0000
0000
0000
0000
0000
0200
0300
0000
0000
0000
0000
0001
0000
0000
0000
0000
0000
0000
0000
0000
0000
0000
0000
1000
0000
0000
0000
0000
0000
0001
0000
0000
0000
0000
0000
0010
0000
0000
0000
0000
0000
0100
0000
0000
0000
0000
0000
0020
0000
0000
0000
0000
0000
0000
0000
0000
0000
0000
0000
0032
0000
0000
0000
0000
0000
0000
0000
0000
0000
0000
0000
,
1003
0000
0000
0000
0000
0000
0000
0000
0000
0000
0000
0000
0001
0000
0000
0000
0000
0000
0200
0300
0000
0000
0000
0000
0000
0000
0000
0000
0000
0000
0200
0300
0000
0000
0000
0000
1000
0000
0000
0000
0000
0000
0000
0000
0000
0000
0000
0000
0001
0000
0000
0000
0000
0000
0100
0000
0000
0000
0000
0000
0001
0000
0000
0000
0000
0000
1000
0000
0000
0000
0000
0000
1001
0000
0000
0000
0000
0000
0000
0000
0000
0000
0000
0000
0001
0000
0000
0000
0000
0000
0000
0000
0000
0000
0000
0000
,
1001
0000
1000
0010
1010
0000
0001
0000
0101
0000
2000
3200
0310
0000
0001
0000
,
2001
0000
0000
0000
0000
0000
0000
0000
0000
0000
0000
0000
3001
0000
0000
0000
0000
0000
0200
0300
0000
0000
0000
0000
0000
0000
0000
0000
0000
0000
0200
0300
0000
0000
0000
0000
1000
0000
0000
0000
0000
0000
0000
0000
0000
0000
0000
0000
0001
0000
0000
0000
0000
0000
0000
0000
0000
0000
0000
0000
1000
0000
0000
0000
0000
0000
0000
0000
0000
0000
0000
0000
1020
0000
0000
0000
0000
0000
0000
0000
0000
0000
0000
0000
0230
0000
0000
0000
0000
0000
0000
0000
0000
0000
0000
0000
,
0302
0000
0000
0000
0000
0000
0000
0000
0000
0000
0000
0000
1003
0000
0000
0000
0000
0000
0020
0030
0000
0000
0000
0000
0000
0000
0000
0000
0000
0000
0020
0030
0000
0000
0000
0000
0001
0000
0000
0000
0000
0000
0000
0000
0000
0000
0000
0000
0100
0000
0000
0000
0000
0000
0010
0000
0000
0000
0000
0000
1000
0000
0000
0000
0000
0000
0100
0000
0000
0000
0000
0000
0020
0000
0000
0000
0000
0000
0000
0000
0000
0000
0000
0000
0032
0000
0000
0000
0000
0000
0000
0000
0000
0000
0000
0000
,
2003
0000
0000
0000
0000
0000
0000
0000
0000
0000
0000
0000
3001
0000
0000
0000
0000
0000
0020
0030
0000
0000
0000
0000
0000
0000
0000
0000
0000
0000
0020
0030
0000
0000
0000
0000
1000
0000
0000
0000
0000
0000
0000
0000
0000
0000
0000
0000
0001
0000
0000
0000
0000
0000
0100
0000
0000
0000
0000
0000
0010
0000
0000
0000
0000
0000
1000
0000
0000
0000
0000
0000
0200
0000
0000
0000
0000
0000
0000
0000
0000
0000
0000
0000
0301
0000
0000
0000
0000
0000
0000
0000
0000
0000
0000
0000
,
0200
1300
0020
0031
0020
1030
0002
2003
,
3100
0000
0010
0001
0000
0001
0000
0001
1000
0000
0002
0000
0203
0000
0320
0000
,
1030
0000
0100
0010
0000
0010
0100
0000
0010
0100
1000
0001
0200
0000
0320
0000
,
1030
0000
0001
1000
0000
1000
0001
0000
1000
0100
0010
0001
1001
0000
0000
1010
,
0000
0000
0101
0000
0011
0000
0010
0100
1000
0000
0002
2003
3010
0000
0000
0000
,
1000
0000
0000
0100
0010
0000
0000
0000
0011
0000
0000
0000
0001
0000
0000
0000
,
0101
0000
0000
0100
0010
0000
0000
0000
1001
0000
0000
0000
1000
0000
0000
0000
,
1200
0310
0021
0130
,
2100
0000
3010
0000
0102
0000
1003
0001
,
0100
0001
1000
0001
0100
0001
1000
0010
,
1000
0001
1000
0010
1000
0001
1000
0100
,
0001
0100
1000
0010
0100
1000
0100
0001
,
0100
1000
0100
0010
1000
0001
0011
0110
,
0100
1100
0000
1000
1010
0000
0110
0000
0100
0101
0000
0001
0011
0000
0110
0000
,
0100
1100
0000
1000
1010
0000
0110
0000
0002
0000
0000
0000
0013
0000
0110
0000
,
1100
0000
0100
1000
0010
0000
0110
0000
0010
1000
0001
0000
1000
0000
1000
0000
,
1000
0000
0000
0000
0000
0000
0000
0000
0000
0000
0000
0000
1000
0000
0000
0000
0000
0000
0000
0000
0000
0000
0000
0000
0000
0000
0000
0000
0000
0000
0000
0000
0000
0000
0000
0000
0000
0000
0000
0000
0000
0000
0000
0000
0000
0000
0000
0000
0001
0000
0000
0000
0000
0000
0020
0030
0000
0000
0000
0000
0000
0000
0000
0000
0000
0000
0020
0030
0000
0000
0000
0000
1000
0000
0000
0000
0000
0000
0000
0000
0000
0000
0000
0000
1000
0000
0000
0000
0000
0000
0020
0030
0000
0000
0000
0000
,
0000
0000
0000
0000
0000
0000
0020
0030
0000
0000
0000
0000
0001
0000
0000
0000
0000
0000
0000
0000
0000
0000
0000
0000
1000
0000
0000
0000
0000
0000
0001
0000
0000
0000
0000
0000
0100
0000
0000
0000
0000
0000
0001
0000
0000
0000
0000
0000
1000
0000
0000
0000
0000
0000
0200
0300
0000
0000
0000
0000
0000
0000
0000
0000
0000
0000
0200
0300
0000
0000
0000
0000
0001
0000
0000
0000
0000
0000
0000
0000
0000
0000
0000
0000
1000
0000
0000
0000
0000
0000
0000
0000
0000
0000
0000
0000
,
0001
0000
0000
0000
0000
0000
0010
0000
0000
0000
0000
0000
0000
0000
0000
0000
0000
0000
0100
0000
0000
0000
0000
0000
1000
0000
0000
0000
0000
0000
0000
0000
0000
0010
0000
0000
0000
0000
0000
0000
0000
0000
1000
0000
0000
0000
0000
0000
0001
0000
0000
0000
0000
0000
0200
0300
0000
0000
0000
0000
0000
0000
0000
0000
0000
0000
0200
0300
0000
0000
0000
0000
1000
0000
0000
0000
0000
0000
0000
0000
0000
0000
0000
0000
1000
0000
0000
0000
0000
0000
0200
0300
0000
0000
0000
0000
,
0000
0000
0000
0000
0000
0000
0200
0300
0000
0000
0000
0000
0001
0000
0000
0000
0000
0000
0000
0000
0000
0000
0000
0000
1000
0000
0000
0000
0000
0000
0010
0000
0000
0000
0000
0000
0100
0000
0000
0000
0000
0000
0001
0000
0000
0000
0000
0000
1000
0000
0000
0000
0000
0000
0020
0030
0000
0000
0000
0000
0000
0000
0000
0000
0000
0000
0020
0030
0000
0000
0000
0000
0001
0000
0000
0000
0000
0000
0000
0000
0000
0000
0000
0000
1000
0000
0000
0000
0000
0000
0000
0000
0000
0000
0000
0000
,
0010
0000
0000
0000
0000
0000
0100
0000
0000
0000
0000
0000
0000
0000
0000
0000
0000
0000
0010
0000
0000
0000
0000
0000
1000
0000
0000
0000
0000
0000
0000
0000
0000
0100
0000
0000
0000
0000
0000
0000
0000
0000
0010
0000
0000
0000
0000
0000
0011
0000
0000
0000
0000
0000
0000
0000
0000
0000
0000
0000
1100
0000
0000
0000
0000
0000
0000
0000
0000
0000
0000
0000
1001
0000
0000
0000
0000
0000
0000
0000
0000
0000
0000
0000
1000
0000
0000
0000
0000
0000
0020
0030
0000
0000
0000
0000
,
0000
0000
0000
0000
0000
0000
0020
0030
0000
0000
0000
0000
0001
0000
0000
0000
0000
0000
0000
0000
0000
0000
0000
0000
1000
0000
0000
0000
0000
0000
0100
0000
0000
0000
0000
0000
0010
0000
0000
0000
0000
0000
0001
0000
0000
0000
0000
0000
1000
0000
0000
0000
0000
0000
0200
0300
0000
0000
0000
0000
0000
0000
0000
0000
0000
0000
0200
0300
0000
0000
0000
0000
0001
0000
0000
0000
0000
0000
0000
0000
0000
0000
0000
0000
1000
0000
0000
0000
0000
0000
0000
0000
0000
0000
0000
0000
,
0001
0000
0000
0000
0000
0000
0010
0000
0000
0000
0000
0000
0000
0000
0000
0000
0000
0000
0100
0000
0000
0000
0000
0000
0010
0000
0000
0000
0000
0000
0000
0000
0000
0001
0000
0000
0000
0000
0000
0000
0000
0000
1000
0000
0000
0000
0000
0000
0001
0000
0000
0000
0000
0000
0200
0300
0000
0000
0000
0000
0000
0000
0000
0000
0000
0000
0200
0300
0000
0000
0000
0000
1000
0000
0000
0000
0000
0000
0000
0000
0000
0000
0000
0000
0001
0000
0000
0000
0000
0000
0200
0300
0000
0000
0000
0000
,
0000
0000
0000
0000
0000
0000
0200
0300
0000
0000
0000
0000
1000
0000
0000
0000
0000
0000
0000
0000
0000
0000
0000
0000
0001
0000
0000
0000
0000
0000
0000
0000
0000
0000
0000
0000
1000
0000
0000
0000
0000
0000
0000
0000
0000
0000
0000
0000
0001
0000
0000
0000
0000
0000
0020
0030
0000
0000
0000
0000
0000
0000
0000
0000
0000
0000
0020
0030
0000
0000
0000
0000
1000
0000
0000
0000
0000
0000
0000
0000
0000
0000
0000
0000
0001
0000
0000
0000
0000
0000
0000
0000
0000
0000
0000
0000
,
0001
0000
0100
0000
0000
0000
0010
0000
1000
0000
0000
0100
0000
0000
0010
0000
0200
0000
0000
0000
1000
0000
0000
0000
0310
0000
0000
0000
0010
0000
0001
0000
,
0200
0000
0000
0000
0000
0000
0000
0000
0000
0000
0000
0000
0010
0000
0000
0000
0000
0000
0000
0000
0000
0000
0000
0000
0301
0000
0000
0000
0000
0000
0000
0000
0000
0000
0000
0000
2000
0000
0000
0000
0000
0000
3002
0000
0000
0000
0000
0000
0023
0000
0000
0000
0000
0000
0000
0000
0000
0000
0000
0000
0230
0000
0000
0000
0000
0000
0000
0000
0000
0000
0000
0000
1300
0000
0000
0000
0000
0000
0000
0000
0000
0000
0000
0000
0001
0000
0000
0000
0000
0000
0200
0300
0000
0000
0000
0000
,
0000
0000
0000
0000
0000
0000
0200
0300
0000
0000
0000
0000
1000
0000
0000
0000
0000
0000
0000
0000
0000
0000
0000
0000
0001
0000
0000
0000
0000
0000
0000
0000
0000
0000
0000
0000
2000
0000
0000
0000
0000
0000
0000
0000
0000
0000
0000
0000
3020
0000
0000
0000
0000
0000
0000
0000
0000
0000
0000
0000
0130
0000
0000
0000
0000
0000
0000
0000
0000
0000
0000
0000
0001
0000
0000
0000
0000
0000
0000
0000
0000
0000
0000
0000
1000
0000
0000
0000
0000
0000
0020
0030
0000
0000
0000
0000
,
0000
0000
0000
0000
0000
0000
0020
0030
0000
0000
0000
0000
0001
0000
0000
0000
0000
0000
0000
0000
0000
0000
0000
0000
1000
0000
0000
0000
0000
0000
0001
0000
0000
0000
0000
0000
0100
0000
0000
0000
0000
0000
0001
0000
0000
0000
0000
0000
0020
0000
0000
0000
0000
0000
0000
0000
0000
0000
0000
0000
0230
0000
0000
0000
0000
0000
0000
0000
0000
0000
0000
0000
1300
0000
0000
0000
0000
0000
0000
0000
0000
0000
0000
0000
0001
0000
0000
0000
0000
0000
0200
0300
0000
0000
0000
0000
,
0000
0000
0000
0000
0000
0000
0200
0300
0000
0000
0000
0000
1000
0000
0000
0000
0000
0000
0000
0000
0000
0000
0000
0000
0100
0000
0000
0000
0000
0000
1000
0000
0000
0000
0000
0000
0010
0000
0000
0000
0000
0000
0100
0000
0000
0000
0000
0000
0020
0000
0000
0000
0000
0000
0000
0000
0000
0000
0000
0000
1030
0000
0000
0000
0000
0000
0000
0000
0000
0000
0000
0000
0020
0000
0000
0000
0000
0000
0000
0000
0000
0000
0000
0000
0130
0000
0000
0000
0000
0000
0000
0000
0000
0000
0000
0000
,
0200
0000
0000
0000
0000
0000
0000
0000
0000
0000
0000
0000
0301
0000
0000
0000
0000
0000
0000
0000
0000
0000
0000
0000
0002
0000
0000
0000
0000
0000
0000
0000
0000
0000
0000
0000
0013
0000
0000
0000
0000
0000
0000
0000
0000
0000
0000
0000
0110
0000
0000
0000
0000
0000
0000
0000
0000
0000
0000
0000
1100
0000
0000
0000
0000
0000
0000
0000
0000
0000
0000
0000
1000
0000
0000
0000
0000
0000
0000
0000
0000
0000
0000
0000
0001
0000
0000
0000
0000
0000
0020
0030
0000
0000
0000
0000
,
0000
0000
0000
0000
0000
0000
0020
0030
0000
0000
0000
0000
0000
0000
0000
0000
0000
0000
1000
0000
0000
0000
0000
0000
0001
0000
0000
0000
0000
0000
0000
0000
0000
0000
0000
0000
2000
0000
0000
0000
0000
0000
0000
0000
0000
0000
0000
0000
3002
0000
0000
0000
0000
0000
0000
0000
0000
0000
0000
0000
0013
0000
0000
0000
0000
0000
0000
0000
0000
0000
0000
0000
0100
0000
0000
0000
0000
0000
0000
0000
0000
0000
0000
0000
1000
0000
0000
0000
0000
0000
0200
0300
0000
0000
0000
0000
,
0000
0000
0000
0000
0000
0000
0200
0300
0000
0000
0000
0000
0001
0000
0000
0000
0000
0000
0000
0000
0000
0000
0000
0000
1000
0000
0000
0000
0000
0000
0001
0000
0000
0000
0000
0000
0100
0000
0000
0000
0000
0000
0001
0000
0000
0000
0000
0000
0020
0000
0000
0000
0000
0000
0000
0000
0000
0000
0000
0000
0230
0000
0000
0000
0000
0000
0000
0000
0000
0000
0000
0000
1300
0000
0000
0000
0000
0000
0000
0000
0000
0000
0000
0000
0001
0000
0000
0000
0000
0000
0020
0030
0000
0000
0000
0000
,
0000
0000
0000
0000
0000
0000
0020
0030
0000
0000
0000
0000
1000
0000
0000
0000
0000
0000
0000
0000
0000
0000
0000
0000
0001
0000
0000
0000
0000
0000
1000
0000
0000
0000
0000
0000
0010
0000
0000
0000
0000
0000
1000
0000
0000
0000
0000
0000
1100
0000
0000
0000
0000
0000
0000
0000
0000
0000
0000
0000
0000
0000
0000
0000
0000
0000
0011
0000
0000
0000
0000
0000
0000
0000
0000
0000
0000
0000
0000
0000
0000
0000
0000
0000
0101
0000
0000
0000
0000
0000
0000
0000
0000
0000
0000
0000
,
2010
0000
0000
3100
0000
0000
0020
0030
1001
0000
0000
1001
0000
0000
0000
0000
;
