#TITLE:大見解;
#SUBTITLE:;
#ARTIST:Des-ROW・組;
#TITLETRANSLIT:DAIKENKAI;
#SUBTITLETRANSLIT:;
#ARTISTTRANSLIT:;
#GENRE:;
#CREDIT:;
#MUSIC:DAIKENKAI.ogg;
#BANNER:DAIKENKAI.png;
#BACKGROUND:DAIKENKAI-bg.png;
#CDTITLE:./CDTITLES/pop'n music.PNG;
#SAMPLESTART:66.715;
#SAMPLELENGTH:11.028;
#SELECTABLE:YES;
#OFFSET:1.349;
#BPMS:0.000=144.426
,2.667=143.426
,4.000=142.977
,134.000=178.060
,135.000=172.060
;
#STOPS:;
#DISPLAYBPM:143.000:172.000;
#BGCHANGES:;
#FGCHANGES:;

//--------------- dance-single - Pandemonium X ----------------
#NOTES:
     dance-single:
     Pandemonium X:
     Beginner:
     4:
     0,0,0,0,0:
0000
0000
0000
0000
,
0000
0000
0000
0000
,
0000
0000
0000
0000
,
0000
0000
0000
0000
,
0000
0000
0000
0000
,
0000
0000
0000
0000
,
0001
0000
0000
0000
,
1000
0000
0000
0000
,
0010
0000
0100
0000
,
0010
0000
0000
0000
,
0010
0000
0000
0000
,
0100
0000
0000
0000
,
0001
0000
0000
0000
,
1000
1000
1000
0000
,
0001
0000
0000
0000
,
0100
0000
0000
0000
,
0010
0000
0000
0000
,
1000
1000
1000
0000
,
0001
0000
0010
0000
,
0100
0000
1000
0000
,
0001
0000
1000
0000
,
0010
0000
0000
0110
,
0100
0000
0000
0000
,
0010
0000
0000
0000
,
1000
0000
0001
0000
,
1000
0001
1000
0000
,
0110
0000
0010
0000
,
0000
0000
0100
0100
,
0010
0000
1000
0000
,
0000
0000
0001
0001
,
1000
0000
0000
0001
,
0100
0000
0000
0010
,
1000
0000
0000
0100
,
0100
0000
0000
0000
,
1001
0000
0000
0000
,
0000
0000
0000
0000
,
0000
0000
0000
0000
,
0000
0000
0000
0000
,
0001
0000
1000
0000
,
0010
0000
0100
0000
,
0001
0000
0100
0000
,
0000
1001
0000
0000
,
1001
0000
0000
0000
,
0110
0000
0000
0000
,
1001
0000
0000
0000
,
0010
0010
0010
0000
,
1001
0000
0000
0000
,
0110
0000
0000
0000
,
1001
0000
0000
0000
,
0100
0100
0100
0000
,
0001
0000
0001
0000
,
1000
0000
1000
0000
,
0010
0000
0010
0000
,
0100
0100
0100
0000
,
0010
0000
0010
0000
,
1000
0000
1000
0000
,
0001
0000
1000
0000
,
0010
0000
1000
1000
,
0001
0000
0010
0000
,
0001
0000
1000
0000
,
0010
0000
1000
0000
,
0001
0001
0001
0000
,
1000
0000
0100
0000
,
1000
0000
0001
0000
,
0100
0000
0010
0000
,
1000
0000
0001
0000
,
0010
0000
0100
0000
,
1000
0000
0100
0000
,
1000
0000
0010
0000
,
0100
0000
0001
0000
,
1000
0000
0001
0000
,
0100
0000
0010
0010
,
1001
0000
0000
0000
;

//--------------- dance-single - Pandemonium X ----------------
#NOTES:
     dance-single:
     Pandemonium X:
     Easy:
     7:
     0,0,0,0,0:
0000
0000
0000
0000
,
0000
0000
0000
0000
,
0001
0000
1000
0000
,
0010
1000
0010
0000
,
0100
0000
0001
0000
,
1000
0001
1000
0000
,
0010
0000
0100
0000
,
0001
0100
0001
0000
,
1000
0000
2002
0000
,
3003
0101
1100
0101
,
0001
1000
0010
1000
,
0001
0010
0100
0100
,
1000
0100
0010
0001
,
1001
0110
1001
0000
,
1000
0001
0100
0100
,
0001
1000
0010
0010
,
1000
0100
0010
0001
,
1001
0110
1001
0000
,
1000
0010
0100
0001
,
0010
0100
0010
0100
,
1000
0100
0010
0001
,
0100
0010
1000
0101
,
0001
1000
1100
0100
,
1000
0010
0100
0101
,
0001
1000
0010
0100
,
0101
1100
1001
0000
,
0001
1000
0010
1000
,
0100
0010
0001
0100
,
0001
1000
0010
0100
,
0001
0000
1000
0000
0010
1000
0010
0000
,
1000
0001
0011
0000
,
0001
1000
1010
0000
,
1000
0001
1001
0000
,
0001
0100
0010
0000
,
1000
0000
0001
0000
,
0010
0000
0100
0100
,
0000
0010
0000
0001
,
0000
1000
0000
0010
,
0100
0100
0100
0100
,
0010
0010
0010
0010
,
1000
1000
1000
1000
,
0001
2002
0000
3003
,
1000
0010
0100
0001
,
0010
0100
0010
0001
,
1000
0010
0100
0001
,
1001
0110
1001
0000
,
1000
0001
0100
0010
,
0100
0001
0010
0100
,
1000
0100
1000
0010
,
1001
0110
1001
0000
,
0001
1000
0010
0010
,
1000
0001
0100
0100
,
0001
1000
0010
0010
,
1000
0100
0010
0000
,
0001
0010
0100
0100
,
1000
0010
0100
0100
,
0010
0010
1000
1000
,
0001
0000
0001
0000
1000
0001
1000
0000
,
0001
1000
0010
0010
,
1000
0001
0100
0100
,
0001
0010
0100
0100
,
1000
0100
0010
0000
,
0100
1000
0001
0100
,
0010
1000
0001
0010
,
0110
0000
0000
1000
0000
0000
0001
0000
,
0000
0100
0000
0000
0010
0000
1000
0000
,
1001
0000
0000
0001
0000
0000
1000
0000
,
0000
0100
0000
0000
0010
0000
0001
0000
,
1001
0000
0000
0001
0000
0000
1000
0000
,
0000
0010
0000
0000
0100
0000
1001
0000
,
0001
1000
0010
0100
,
0001
0000
0010
0000
0001
1000
0001
1000
,
0002
0000
0000
0003
;

//--------------- dance-single - Pandemonium X ----------------
#NOTES:
     dance-single:
     Pandemonium X:
     Medium:
     10:
     0,0,0,0,0:
0000
0000
0000
0000
,
0000
0000
0000
0000
,
0001
0000
0001
0000
1000
0000
0000
0010
,
0000
0010
0000
0010
0000
0000
0100
0000
,
0010
1000
0100
0000
,
0010
0100
0000
1000
0000
0000
0000
0000
,
0100
0000
1000
0000
0010
0000
0000
0100
,
0000
0010
0000
1000
0001
0000
0001
0000
,
0010
0001
0202
0000
,
0303
0000
0001
0001
1000
0010
1001
0000
,
1000
0000
0100
0000
0010
0001
0010
0000
,
0001
0000
0100
0000
0010
1000
0010
0000
,
1000
0001
0010
0100
,
0010
0001
1000
0010
0100
0000
0000
0000
,
0010
0000
1000
0000
0001
1000
0001
0000
,
0010
0000
0100
0000
1000
0010
0100
0000
,
0010
1000
0001
0010
,
0100
0010
0001
1000
0100
0000
0000
0000
,
1000
0010
0100
0001
,
0010
0000
0100
0000
1000
0000
0100
1000
,
0010
0100
0001
0010
,
0100
0000
0010
0001
0100
0000
1010
0000
,
0100
0000
0001
1000
0010
0000
1000
0000
,
0001
0000
0010
0000
0100
0010
0001
0000
,
0010
0000
0001
0000
0100
0010
1000
0000
,
0001
0000
0000
1000
0000
0000
0010
0000
1001
0000
0000
0000
0000
0000
0000
0000
,
1000
0100
1000
0000
0001
0100
0001
0000
,
1000
0010
1000
0000
0001
0010
0001
0001
,
0010
0001
0100
0000
0110
0000
0100
0000
,
0010
0000
1000
0000
0001
1000
1001
0000
,
1000
0000
0001
0100
0101
0000
0001
0000
,
0100
0000
0010
1000
1010
0000
1000
0000
,
0010
0000
0100
0010
0110
0000
0010
0000
,
0100
0000
0001
0000
1000
0000
0001
0001
,
0001
1000
0001
0100
,
0001
1000
0100
0010
,
0000
0100
1000
0000
0100
0000
1000
0000
,
0010
0100
0001
0010
,
1001
1001
1001
1001
,
0110
0110
0110
0110
,
1001
0110
1001
0110
,
1001
0220
0000
0330
,
1000
0000
0010
0000
0100
0001
0100
0000
,
0001
0000
0010
0000
0100
1000
0100
0000
,
1000
0000
0001
0000
1000
0010
1000
0000
,
0001
0010
0100
1000
0001
0000
0000
0000
,
1000
0000
0100
0000
0010
0001
0010
0000
,
0001
0000
0100
0000
0010
0100
0010
0000
,
0100
0001
1000
0100
,
0010
0100
0010
0100
0010
0000
0000
0000
,
0100
0000
1000
0000
0100
1000
0100
0000
,
1000
0000
0010
0000
0100
0010
0100
0000
,
0010
0000
0100
0000
0001
0100
0001
0000
,
0100
0001
0010
0001
1000
0000
0000
0000
,
0001
0000
1000
0000
0100
0010
0001
0000
,
0010
0000
0001
0000
0010
0100
1000
0000
,
0001
1000
0010
1000
,
0001
0000
0100
0000
0001
1000
0010
0000
,
1000
0000
0100
0000
0001
0100
1000
0000
,
0100
0000
0010
0000
0001
0010
0100
0000
,
0001
0000
0010
0000
1000
0010
0001
0000
,
0100
0010
1000
0001
0010
0000
0000
0000
,
0100
0000
0010
0000
0001
0100
1000
0000
,
0100
0000
0010
0000
1000
0010
0100
0000
,
0001
0000
0100
0001
0000
0001
0010
0000
,
0010
0100
0000
0100
1000
0000
1100
0000
,
0100
0000
0100
1000
0000
1000
0010
0000
,
0010
0100
0000
0100
0001
0000
0101
0000
,
0001
0000
0001
1000
0000
1000
0010
0000
,
0010
0100
0000
0100
0001
0000
0101
0000
,
0001
0100
0010
1000
0001
0100
0010
0100
,
0001
1000
0010
0100
0001
0100
0010
1000
,
2002
0000
3003
0000
;

//--------------- dance-single - Pandemonium X ----------------
#NOTES:
     dance-single:
     Pandemonium X:
     Hard:
     12:
     0,0,0,0,0:
0000
0000
0000
0000
,
0000
0000
0000
0000
,
1001
0000
0001
0000
1000
0000
0000
0010
,
0000
0010
0000
0010
0000
0000
0100
0000
,
0010
0100
0001
1000
,
0001
0100
0000
1010
0000
0000
0000
0000
,
1000
0000
0100
0000
0010
0000
0100
1000
,
0000
0100
1000
0010
0100
0001
0010
0100
,
1000
0001
2020
0000
,
3030
0000
0001
1000
0010
1000
1001
0000
,
1000
1000
0001
0010
0100
0100
1000
0000
,
0100
1000
0010
0001
0010
1000
0001
0000
,
1000
0001
0001
0010
0100
0010
0010
0001
,
0100
1000
0100
0001
0101
0000
0000
0000
,
1000
1000
0010
0100
0001
0001
0010
0000
,
0100
0010
0001
0100
1000
0100
0001
0000
,
0100
0100
0010
1000
0001
0001
0010
1000
,
0010
0001
0100
0010
1001
0000
0000
0000
,
0001
0100
0001
0100
0010
1000
0010
1000
,
0100
0010
0100
1000
0010
0000
0100
0010
,
1000
0001
0010
1000
0010
0000
0010
0001
,
0010
0100
1000
0001
0100
0000
1010
0000
,
1000
0001
0010
0100
1100
0000
0100
1000
,
0010
0100
0001
0010
0100
0100
0110
0000
,
0010
0001
0100
0010
1000
0001
1000
0000
,
0001
0100
1000
0100
0001
0000
0000
0000
,
1000
1000
0001
0001
0100
0100
0010
0010
,
1000
0010
0100
0001
0010
0100
1100
0100
,
1000
0100
0100
1000
0010
0010
0100
0001
,
0010
0100
0010
0001
1001
0110
1001
0000
,
1000
0001
0100
0010
1010
0000
1000
0010
,
0100
0001
0010
0100
1100
0000
1000
0100
,
1000
0010
0100
0001
0011
0000
0001
0010
,
0100
0010
0001
1000
0010
0000
0100
0100
,
0200
0000
0310
1000
0002
0000
0013
0200
,
0000
0310
0001
0001
0100
0010
2000
0000
,
3000
0001
1000
0010
1000
0001
0100
0001
,
0000
0010
0001
0001
1000
0010
0200
0000
,
0301
0101
0101
0101
,
1010
1010
1010
1010
,
1001
0110
1001
0110
,
0001
0100
0020
0000
1000
0000
0130
0000
,
1001
0001
0010
0100
0010
0010
0001
0000
,
1000
1000
0001
0100
0010
0010
1000
0000
,
0010
0010
0100
0001
1000
1000
0100
0010
,
0001
0010
1000
0010
0001
0000
0000
0000
,
0010
0010
0001
0100
0010
0010
0100
0000
,
0010
0010
0100
0010
1000
1000
0001
0000
,
1000
1000
0001
0100
0010
0010
1000
0001
,
0100
1000
0100
0001
1000
0000
0000
0000
,
0001
0100
1000
0100
0001
1000
0001
0000
,
1000
0100
0001
0100
1000
0001
1000
0000
,
0001
0010
1000
0010
0001
1000
0001
0000
,
0001
0100
0010
1000
0001
0000
0000
0000
,
1000
0010
0001
0010
1000
0001
1000
0000
,
0001
0010
1000
0010
0001
1000
0001
0000
,
0001
0001
0100
0010
0010
0100
0010
1000
,
0001
0010
0100
0010
0001
1000
1001
0000
,
1000
0100
1000
0010
0100
0100
0101
0000
,
0001
0010
0100
0010
0001
0001
1001
0000
,
0001
0100
0010
1000
0100
0100
1100
0000
,
1000
0100
0001
0100
1000
0000
0000
0000
,
0100
0100
1000
0010
0100
0100
0110
0000
,
0100
0001
0010
0100
0010
0010
0110
0000
,
1001
0001
0100
0010
1000
0001
0100
0010
,
1000
0001
0100
0010
1000
1000
1000
0000
,
0001
0010
0100
1000
0001
0010
0100
1000
,
0001
0010
0100
1000
0001
0001
0001
0000
,
1000
0100
0010
0001
1000
0100
0010
0001
,
1000
0100
0010
0001
1000
1000
1000
0000
,
0001
0001
0100
0010
1000
1000
0010
0100
,
0001
0000
0001
0000
0100
0000
0010
0000
1000
0001
1000
0001
1000
0001
1000
0001
,
0020
0000
0000
0030
;

//--------------- dance-single - Pandemonium X ----------------
#NOTES:
     dance-single:
     Pandemonium X:
     Challenge:
     15:
     0,0,0,0,0:
0000
0000
0000
0000
,
0000
0000
0000
0000
,
0201
0000
0000
0000
0320
0000
0000
0130
,
0000
0001
0000
1000
0200
0000
0310
0100
,
1000
0000
0100
0010
0002
0000
0100
0103
,
0001
1000
0000
1000
0000
0100
0010
0010
,
0001
0000
0001
0010
0200
0000
0010
0320
,
0000
0130
0010
0001
1000
0001
0010
0100
,
1000
0000
0100
0010
0001
0000
1000
0100
,
0000
0000
1010
0000
0011
0010
1002
0000
,
1003
1000
0001
0010
0100
0100
0010
0000
,
0001
0000
0001
0000
0100
0000
0010
1000
0100
0000
0001
0000
0100
0000
0000
0000
,
1000
0000
0100
0000
1000
0000
0010
0100
0001
0000
0010
0000
1000
0000
0010
0000
,
0001
0001
1000
0001
0110
0000
0000
0000
,
0100
0100
0010
1000
0001
0001
0010
0000
,
0100
0000
0100
0000
0010
0000
0001
0010
0100
0000
1000
0000
0010
0000
0000
0000
,
0100
0000
1000
0000
0100
0000
0001
0100
0010
0000
1000
0000
0001
0000
0010
0000
,
0100
0100
1000
0010
1001
0000
0000
0000
,
0001
0000
0100
0000
0010
0000
1000
0001
0010
0000
0100
1000
0001
0000
1000
0001
,
0100
0000
0010
0000
1000
0000
0100
0000
0010
0000
0000
0000
0100
1000
0010
0000
,
0100
0000
0001
0100
0010
0000
0100
0001
1000
0000
0000
0000
0001
0000
1000
0000
,
0001
1000
0010
1000
0001
0000
1000
0000
0010
0000
0000
0000
0101
0000
0000
0000
,
1000
0000
1000
0000
0001
0010
0100
1000
0010
0000
0000
0000
0100
0010
1000
0001
,
0010
0100
0010
0001
1000
0010
0100
0001
1000
0000
1000
0001
0010
0000
0000
0000
,
0100
0000
1000
0000
0010
0000
0100
0000
0001
0100
0001
1000
0001
0000
0000
0000
,
1000
0010
0000
0100
0000
0100
0010
1000
0001
0000
0000
0000
0000
0000
0000
0000
,
1000
0000
1000
0000
0001
0000
0001
0000
0100
0010
0100
0000
0010
0000
0010
1000
,
0100
0000
0100
0000
0010
0000
0010
0100
0010
0001
0100
0010
1000
0000
0001
0000
,
0100
0000
0010
0000
1000
0001
0010
0000
0100
0000
1000
0000
0100
0010
0100
1000
,
0001
0100
0001
0100
0010
1000
0010
1000
0001
0000
1000
0000
0110
0000
0000
0000
,
0100
0000
0001
0000
0010
0001
0100
0010
0100
0000
0000
0000
0100
0000
0010
0000
,
1000
0000
0001
0000
1000
0100
0000
0100
0010
0000
0000
0000
0100
0000
1000
0000
,
0001
0000
0100
0000
0010
1000
0000
0001
0010
0000
0000
0000
0100
1000
0010
0100
,
0010
1000
0001
0010
0100
1000
0001
0100
0010
0000
0000
0000
0100
0000
0100
0000
,
2001
0000
0001
0001
0001
0000
0001
0001
,
0000
3001
0100
0010
0100
0010
0200
0000
,
0000
0310
0100
0100
0010
0010
0100
0100
,
0000
0010
1000
1000
0001
0001
1000
0000
,
1100
1100
0101
0101
,
0011
0011
1010
1010
,
1001
1010
0101
0011
,
0010
0100
2000
0000
0100
0000
3010
0000
,
1001
0001
1000
0010
0100
0100
0101
0000
,
0001
0000
0001
0000
0100
0000
0010
1000
0100
0000
0010
0000
0011
0000
0000
0000
,
0010
0000
0010
0000
0100
0000
1000
0100
0010
0000
0100
0000
1000
0000
0001
0000
,
0100
0100
0001
1000
0110
0000
0000
0000
,
1000
1000
0001
0010
0100
0100
1001
0000
,
1000
0000
0100
0000
1000
0000
0100
0010
0001
0000
1000
0000
0101
0000
0000
0000
,
0001
0100
1000
0100
0001
0100
0010
1000
,
0001
0001
1000
0001
0110
0000
0000
0000
,
1000
0000
0010
0000
0100
0000
0001
0010
0100
0000
0100
0000
1100
0000
0000
0000
,
1000
0000
0100
0000
0010
0000
0001
0010
0001
0000
0001
0000
0011
0000
0000
0000
,
0001
0100
0010
0000
0100
0001
1000
0000
0001
0000
1000
0000
0110
0000
0000
0000
,
0010
0010
0100
0001
0010
0000
0000
0000
,
0100
0000
0100
0000
1000
0000
0100
0010
0001
0000
0100
0000
0001
0000
0000
0000
,
0100
0010
1000
0000
0001
0010
0100
0000
1000
0000
1000
0000
0001
0000
0000
0000
,
1100
0000
0100
0000
1000
0000
1010
0000
0010
0000
0100
0000
0101
0000
0001
0010
,
0100
0000
1000
0000
0100
0000
1000
0100
0010
0000
0001
0000
1001
0000
0000
0000
,
1000
0000
0001
0000
0010
0000
0100
1000
0010
0000
0100
0000
0101
0000
0000
0000
,
0001
0000
0100
0000
0010
0000
1000
0001
0010
0000
0100
0000
1100
0000
0000
0000
,
1000
0010
1000
0000
0001
0100
0001
0000
0100
0000
0010
0000
1001
0000
0000
0000
,
0001
0100
1000
0100
0001
0000
0000
0000
,
1000
0000
0001
0000
0010
0000
0100
1000
0010
0000
0100
0000
1001
0000
0000
0000
,
0001
1000
0010
0000
0100
0001
0010
0000
0100
0000
1000
0000
1001
0000
0000
0000
,
1100
0100
0100
0110
0010
0010
0011
0001
,
0001
0101
0100
0100
0110
0010
1001
0000
,
0011
0010
0010
0110
0100
0100
1100
1000
,
1000
1010
0010
0010
0110
0100
1001
0000
,
0101
0100
0010
1010
1000
0100
0110
0010
,
0001
0101
0100
0010
0110
0100
1001
0000
,
1001
0001
0100
0110
0010
1000
1010
1000
,
0001
1000
0001
1000
0001
1000
0001
1000
0001
0100
0010
1000
0001
0100
0010
1000
,
0002
0000
0000
0003
;
