#TITLE:Binary Black Hole;
#SUBTITLE:;
#ARTIST:BEMANI Sound Team "D.J.Amuro";
#TITLETRANSLIT:;
#SUBTITLETRANSLIT:;
#ARTISTTRANSLIT:;
#GENRE:;
#CREDIT:;
#MUSIC:Binary Black Hole.ogg;
#BANNER:;
#BACKGROUND:;
#CDTITLE:;
#SAMPLESTART:5.091;
#SAMPLELENGTH:10.112;
#SELECTABLE:YES;
#OFFSET:-0.038;
#BPMS:0.000=190.000
,208.000=47.500
,210.000=95.000
,226.000=190.000
;
#STOPS:324.500=0.316
,327.500=0.316
,330.500=0.316
;
#DISPLAYBPM:*;
#BGCHANGES:0.000=Binary Black Hole.mp4=1.000=0=0=0=StretchNoLoop====,
99999.000=-nosongbg-=1.000=0=0=0=StretchNoLoop====
;
#FGCHANGES:;

//--------------- dance-single - Pandemonium X ----------------
#NOTES:
     dance-single:
     Pandemonium X:
     Beginner:
     6:
     0.202677,0.484146,0.204929,0.118228,0,180,154,26,15,0,0,0.202677,0.484146,0.204929,0.118228,0,180,154,26,15,0,0:
0000
0000
0000
0000
,
0000
0000
0000
0000
,
0000
0000
0000
0000
,
0000
0000
0000
0000
,
0001
0000
0000
0000
,
1000
0000
0000
0000
,
0001
0000
0000
0000
,
1000
0000
0000
0000
,
0010
0000
0000
0000
,
0100
0000
0000
0000
,
0010
0000
0000
0000
,
0100
0000
0000
0000
,
1001
0000
0000
0000
,
0110
0000
0000
0000
,
1001
0000
0000
0000
,
0110
0000
0000
0000
,
0101
0000
0000
0000
,
1010
0000
0000
0000
,
0101
0000
0000
0000
,
0000
0000
0000
1000
0000
1000
0000
0000
,
0001
0000
1000
0000
,
0010
0010
0010
0000
,
1000
0000
0001
0000
,
0100
0100
0100
0000
,
0010
0000
0100
0000
,
0001
0001
0001
0000
,
0100
0000
0010
0000
,
1000
1000
1000
0000
,
0000
0000
0001
0000
1000
0000
0000
1000
,
0000
0000
1000
0000
0001
0000
0000
0001
,
0000
0000
0001
0000
1000
0000
0000
1000
,
0000
0000
1000
0000
0001
0000
0000
0001
,
0000
0000
0001
0000
1000
0000
0000
1000
,
0000
0000
1000
0000
0001
0000
0000
0001
,
0000
0000
0001
0000
1000
0000
0000
1000
,
0000
0000
0000
0000
,
0020
0000
0000
0000
,
0230
0000
0000
0000
,
0302
0000
0000
0000
,
2003
0000
0000
0000
,
3002
0000
0000
0000
,
2003
0000
0000
0000
,
3020
0000
0000
0000
,
0230
0000
0000
0300
,
1001
0000
0001
0000
,
1000
0000
0010
0000
,
1001
0000
0100
0000
,
0010
0000
1000
0000
,
1001
0000
1000
0000
,
1001
0000
0001
0000
,
1001
0000
0110
0000
,
1001
1001
0110
0110
,
1001
0000
1000
0000
,
0001
0000
0100
0000
,
0010
1000
0100
0000
,
0010
0000
0010
0000
,
0100
1000
0001
0000
,
0000
0000
1000
0000
,
0000
0000
0010
0000
,
0000
0000
0100
0000
,
0000
0000
0010
0000
,
1000
0000
0001
0000
,
0000
1000
0001
0000
,
0200
0000
0000
0000
,
0300
0000
0010
0000
,
0100
0000
0001
0000
,
1000
0000
0100
0000
,
0010
0000
0100
0000
,
1000
0000
0001
0000
,
0100
0000
0001
0000
,
0010
0000
0100
0000
,
1000
0000
0100
0000
,
1000
0000
0000
0000
0001
0000
0000
0202
,
0000
0000
0000
0303
0001
0000
0000
0000
,
0010
0000
0000
0000
0100
0000
0000
2200
,
0000
0000
0000
3300
0100
0000
0000
0000
,
0010
0000
0000
0000
0001
0000
0000
2002
,
0000
0000
0000
3003
0001
0000
0000
0000
,
1000
0000
0000
0000
0010
0000
0000
0010
,
0000
0000
0010
0000
0100
0000
0000
0100
,
0000
0100
1001
0000
,
0000
0110
0000
0000
,
1001
0000
0000
0110
,
0000
0000
0000
1000
,
0000
1000
0000
0001
,
0000
0001
0000
1000
,
0000
0001
0000
1000
,
0001
1000
0001
0110
;

//--------------- dance-single - Pandemonium X ----------------
#NOTES:
     dance-single:
     Pandemonium X:
     Easy:
     11:
     0.45715,0.587891,0.267985,0.16552,0.051232,406,372,34,21,0,0,0.45715,0.587891,0.267985,0.16552,0.051232,406,372,34,21,0,0:
0000
0000
0000
0000
,
0000
0000
0000
0000
,
0000
0000
0000
0000
,
0000
0000
0000
0000
,
0001
0000
0100
0000
0010
1000
0010
0000
,
1000
0000
0001
0000
0010
0001
0010
0000
,
0001
0000
1000
0000
0100
1000
0100
0000
,
1000
0000
0010
0000
0100
0001
0010
0000
,
0100
0000
0010
0000
0001
0100
0001
0000
,
0100
0000
0010
0000
1000
0001
1000
0000
,
0001
0000
0010
0000
0100
1000
0100
0000
,
1000
0000
0010
0100
0000
0100
0000
0000
,
0010
1000
0000
1100
0000
1100
0000
0000
,
0100
0010
0000
0011
0000
0011
0000
0000
,
0001
1000
0000
1001
0000
1001
0000
0000
,
1000
0010
0000
0110
0000
0110
0000
0000
,
0100
0001
0000
0011
0000
0011
0000
0000
,
0100
1000
0000
1010
0000
1010
0000
0000
,
0010
0100
0000
1001
0000
2002
0000
0000
,
0000
0000
0000
3000
0000
0003
0000
0000
,
1000
0010
1000
0010
0100
0000
0010
0000
,
1000
0001
1000
0001
0010
0000
0100
0000
,
1000
0100
1000
0100
0010
0000
0001
0000
,
1000
0010
1000
0010
0100
0000
0010
0000
,
1000
1000
0001
1000
0001
0000
0010
0000
,
0010
0010
0100
0010
0001
0000
1000
0000
,
0100
0010
0010
0100
1000
0000
0001
0000
,
1000
1000
0010
0100
0001
0000
0010
0000
,
0100
0000
1000
0000
0100
0000
0000
0011
,
0000
0000
0001
0000
0100
0000
0000
1010
,
0000
0000
1000
0000
0001
0000
0000
0110
,
0000
0000
0010
0000
1000
0000
0000
0101
,
0000
0000
0001
0000
1000
0000
0000
0011
,
0000
0000
0010
0000
0001
0000
0000
1100
,
0000
0000
0100
0000
1000
0000
0000
1010
,
0000
0000
0000
0000
,
1000
0000
0001
0000
0010
0001
0010
0000
,
0001
0000
1000
0000
0010
1000
0010
0000
,
1000
0000
0001
0000
0010
0100
0010
0000
,
0100
0000
1000
0000
0001
0100
0001
0000
,
0100
0000
0010
0000
1000
0100
1000
0000
,
0100
0000
1000
0000
0010
0100
0010
0000
,
0100
0000
0001
0000
0010
0001
0010
0000
,
0001
0000
1000
0000
0100
0010
0001
1000
,
0001
0000
1000
0100
0010
0001
1000
0000
,
0000
0000
0001
0010
0100
1000
0001
0000
,
1001
0000
1000
0100
0010
0001
1000
0000
,
0000
0000
0001
0010
0100
1000
0001
0000
,
1001
0000
1000
0100
0010
0001
0010
0000
,
1001
0000
0001
0010
0100
1000
0001
0000
,
1001
0000
0000
1000
1001
0000
0000
0001
,
1001
0110
1001
0110
,
1001
0000
0000
0000
0000
0000
0000
0000
0001
0000
0000
0001
0000
0000
0001
0000
,
1000
0000
0000
1000
0000
0000
0000
0010
0020
0000
0000
0000
0000
0000
0030
0000
,
0100
0000
0000
0010
0000
0000
1000
0000
1001
0000
0000
0000
0000
0010
0100
1000
,
0002
0000
0000
0103
0000
0000
0010
0000
2000
0000
0000
3100
0000
0010
0002
0000
,
2003
3020
0230
0302
0013
0000
0000
0100
,
0000
0000
2000
0000
3010
0000
0000
0100
,
0000
0002
2003
0000
,
0000
0000
3001
0010
0200
0000
0000
0000
,
0000
0000
0320
0000
0031
0000
0000
0100
,
0000
0010
0020
0000
,
0000
0130
0010
1000
0002
0000
0000
0000
,
2000
0000
0000
0000
,
0000
3003
0001
0100
,
0010
1000
1000
0000
0100
0000
0010
0000
,
0100
1000
1000
0000
0100
0000
0010
0000
,
0001
0100
0100
0000
0001
0000
1000
0000
,
0100
0010
0010
0000
0001
0000
0100
0000
,
0001
1000
1000
0000
0100
0000
0010
0000
,
0001
0100
0100
0000
0010
0000
0000
1000
,
0000
0000
0001
0000
1000
0000
0000
0100
,
0000
0000
0010
0000
0100
0010
0001
2000
,
0000
0000
3000
0001
,
1000
0000
0010
0000
0100
0010
1000
0200
,
0000
0000
0300
0010
,
0001
0000
1000
0000
0001
0100
0010
0200
,
0000
0000
0300
0010
,
0100
0000
0001
0000
1000
0000
0001
1000
,
0000
0001
1000
0000
0110
0000
0100
0010
,
0000
0000
0100
0000
0010
0000
0000
0000
1000
0000
0000
1000
0000
0000
1000
0000
,
0000
0000
0001
0000
0001
0000
0000
0001
0000
0000
0001
0000
0000
0000
1000
0000
,
1000
0000
0000
1000
0000
0000
1000
0000
0000
0000
0001
0000
0001
0000
0000
0001
,
0000
0001
0000
0001
1000
0010
1000
0000
,
1000
0001
0001
0100
,
0100
0010
0010
0100
,
0010
0000
1000
0000
0001
0000
1000
0100
,
0010
0001
1000
0100
0010
0001
1001
0000
;

//--------------- dance-single - Pandemonium X ----------------
#NOTES:
     dance-single:
     Pandemonium X:
     Medium:
     15:
     0.707119,0.876861,0.520205,0.354685,0.327099,628,562,66,45,0,0,0.707119,0.876861,0.520205,0.354685,0.327099,628,562,66,45,0,0:
0000
0000
0000
0000
,
0000
0000
0000
0000
,
0000
0000
0000
0000
,
0000
0000
0000
0000
,
0001
0000
1000
0000
0100
0000
0010
0001
0000
0010
0001
0000
1000
0000
0000
0000
,
0001
0000
1000
0000
0010
0000
0100
0001
0000
0100
0001
0000
1000
0000
0000
0000
,
0100
0000
1000
0000
0010
0000
0100
0010
0000
0100
0010
0000
1000
0000
0000
0000
,
0001
0000
0010
0000
0100
0000
0010
0001
0000
0010
0001
0000
1000
0000
0000
0000
,
0001
0000
1000
0000
0100
0000
0010
0100
0000
0100
0010
0000
0001
0000
0000
0000
,
1000
0000
0010
0000
0100
0000
0001
0100
0000
0100
0010
0000
1000
0000
0000
0000
,
0100
0000
0010
0000
0001
0000
1000
0001
0000
0001
0100
0000
0010
0000
0000
0000
,
0100
0000
0010
0000
1000
0000
0100
1000
0000
1000
0001
0000
0100
0000
0000
0000
,
0010
2010
0000
0001
0000
3001
0000
0000
,
0001
0102
0000
1000
0000
1003
0000
0000
,
1000
1020
0000
0100
0000
0130
0000
0000
,
0001
0102
0000
0010
0000
0013
0000
0000
,
0100
2100
0000
0010
0000
3001
0000
0000
,
1000
1002
0000
0100
0000
1003
0000
0000
,
0001
0201
0000
0010
0000
0301
0000
0000
,
2002
0000
0000
0003
0000
3000
0000
0000
,
0001
0100
0010
1000
0100
0010
0100
1000
,
0001
0100
1000
0100
0001
1000
0100
0010
,
0001
1000
0001
0100
0001
1000
0100
1000
,
0010
0001
0010
1000
0001
1000
0100
0010
,
0001
0010
0001
0100
0010
1000
0001
0010
,
0001
0100
1000
0100
0001
1000
0010
1000
,
0001
0010
0100
1000
0100
0010
0100
1000
,
0100
0001
0100
1000
0010
0100
0001
1000
,
0100
0000
1100
0000
1010
0000
0000
0101
,
0000
0000
0001
0000
0011
0000
0000
1100
,
0000
0000
1000
0000
1010
0000
0000
0101
,
0000
0000
1000
0000
1001
0000
0000
0011
,
0000
0000
0010
0000
0110
0000
0000
1100
,
0000
0000
1000
0000
1010
0000
0000
0101
,
0000
0000
0001
0000
1001
0000
0000
0110
,
0001
0100
0000
0010
1000
0000
0001
0000
0010
0000
1000
0000
0010
0000
0001
0000
,
1000
0010
1000
0010
0110
0000
0101
0000
,
0001
0010
0100
0010
0011
0000
1100
0000
,
1000
0100
0001
0100
1000
0000
1010
0000
,
0010
1000
0010
0001
0010
0100
0001
0010
,
0100
0000
0010
0000
0001
0000
1000
0000
0010
0000
0000
0010
0000
0000
0010
0000
,
0100
0000
0001
0000
1000
0000
0100
0000
1000
0000
0000
1000
0000
0000
1000
0000
,
0001
0000
0100
0000
0001
0000
1000
0000
0100
0000
0000
0100
0000
0000
0100
0000
,
0010
0000
0100
0000
1000
0000
0010
0000
0100
0000
0000
0100
0000
0000
0100
0000
,
1001
0000
0001
0100
0001
1000
0100
0000
,
0000
0000
0000
0000
0010
0001
0010
0001
0010
0000
0001
0000
1000
0000
0000
0000
,
1001
0000
1000
0010
1000
0001
1000
0000
,
0001
0000
1000
0000
0100
1000
0100
1000
0100
0000
0010
0000
0001
0000
0000
0000
,
1001
0000
1000
0010
0100
0001
0011
0000
,
1001
0000
1000
0001
0010
0100
1100
0000
,
1001
0000
0001
0100
1010
0000
1000
0100
,
0011
0000
0000
0000
1100
0000
1000
0010
0100
0010
1000
0001
1000
0000
0001
1000
,
0001
0000
0000
0000
2000
3200
0320
0032
1003
0000
0001
0100
0000
0001
0100
0000
,
1010
0000
0010
0020
0000
0000
0000
0130
0002
0000
0000
0000
0000
0000
0003
0000
,
0022
0000
0033
2200
0000
3300
2002
3003
2020
0000
0000
0000
3000
1030
0001
0001
,
2000
0000
0000
0000
0000
0000
0000
0000
0000
3002
0000
0000
0000
0000
0000
0013
0000
0000
0100
0000
0000
0100
0000
0000
0020
0000
0000
0000
0000
0000
0000
0000
0000
0032
0000
0000
0000
0000
0000
0013
0000
0000
0100
0000
1000
0000
0010
0000
,
0200
0301
0200
0310
1001
0000
1000
0200
,
0000
0310
0002
0000
0103
0000
0010
2000
,
0000
3001
0020
0000
0230
0000
0000
0000
,
0000
0000
0000
0000
0310
0000
0010
0001
2000
0000
0000
0000
0000
0000
0000
0000
,
0000
0000
3001
1000
2010
0000
3100
1200
,
0000
0310
0120
0000
0002
0000
0000
0030
,
0000
0103
0010
1000
0002
0000
0000
0000
,
1003
0100
1000
0000
0001
0100
0001
0000
1000
0100
1000
0000
0001
0100
0001
0000
,
1000
0000
0010
1000
0001
0000
0010
0000
0100
0000
1000
0100
1000
0000
0010
0000
,
0100
0000
0001
0000
0001
0000
1000
0000
0001
0000
0010
0100
0010
0000
0100
0000
,
1000
0000
0010
0000
0010
0000
0100
0000
0001
0000
1000
0010
1000
0000
0001
0000
,
0010
0000
0100
0000
0100
0000
0010
0000
0001
0000
1000
0100
1000
0000
0100
0000
,
1000
0000
0001
0000
0001
0000
0100
0000
0010
0000
1000
0010
1000
0000
0010
0000
,
1000
0000
0100
0000
0100
0000
0010
0000
0001
0000
1000
0010
1000
0000
0010
0000
,
0100
0000
0001
0000
0001
0000
1000
0000
0100
0000
0100
0010
0001
0000
0001
0000
,
0001
0010
0100
0000
0010
0000
0100
0000
0100
0000
0100
1000
0010
0000
0010
0000
,
0010
0100
0001
0000
1000
0000
0001
0000
0100
0000
0010
0000
1000
0000
2020
0000
,
0000
0000
0000
0000
3030
1000
0100
0001
,
0100
1000
0010
0100
0001
0010
0100
2200
,
0000
0000
0000
0000
3300
0100
0001
0100
,
0010
0001
1000
0010
0100
0001
0010
0022
,
0000
0000
0000
0033
0000
0010
0001
0100
,
0010
0000
1000
0000
0001
0000
0010
0000
0100
0000
1000
0100
1000
0000
0010
0000
,
0100
0001
0100
0000
0001
0000
1000
0000
0010
0000
0100
0001
0100
0000
0010
0000
,
1000
0001
1000
0000
0001
0000
0010
0000
1100
0000
0000
0011
0000
0000
1001
0000
,
0000
0000
1010
0000
1100
0000
0000
0011
0000
0000
0101
0000
0000
0000
1010
0000
,
1010
0000
0000
0101
0000
0000
0011
0000
0000
0000
1001
0000
0011
0000
0000
1100
,
0000
0000
1010
0000
0000
0000
1000
0000
0100
0000
0010
0000
0011
0000
0000
0010
,
0100
0000
0000
0100
1000
0000
0000
1000
0010
0000
0000
0010
0100
0000
0000
0100
,
0001
0000
0000
0001
1000
0000
0000
1000
0100
0000
0000
0100
0010
0000
0010
0000
,
0001
0000
0001
0000
1000
0000
1000
0000
0100
0000
0100
0000
0010
0000
0100
1000
,
0010
0000
0100
0001
0010
0000
0100
1000
0010
0000
0100
0001
2000
0000
0000
0000
,
0000
0000
0000
0000
,
3000
0000
0000
0000
;

//--------------- dance-single - Pandemonium X ----------------
#NOTES:
     dance-single:
     Pandemonium X:
     Hard:
     17:
     0.811835,0.968291,0.338922,0.45715,0.524146,721,678,43,58,0,0,0.811835,0.968291,0.338922,0.45715,0.524146,721,678,43,58,0,0:
0000
0000
0000
0000
,
0000
0000
0000
0000
,
0000
0000
0000
0000
,
0000
0000
0000
0000
,
0001
0000
0100
0000
0010
0000
1000
0010
0000
1000
0010
0000
0110
0000
0000
0000
,
0001
0000
1000
0000
0100
0000
0010
0001
0000
0010
0001
0000
0011
0000
0000
0000
,
0010
0000
0100
0000
1000
0000
0001
1000
0000
0001
1000
0000
1001
0000
0000
0000
,
0001
0000
0100
0000
0010
0000
0100
0010
0000
0100
0010
0000
0110
0000
0000
0000
,
1000
0000
0010
0000
0100
0000
0001
0010
0000
0010
0100
0000
1100
0000
0000
0000
,
0100
0000
1000
0000
0010
0000
0100
0010
0000
0010
1000
0000
1001
0000
0000
0000
,
1000
0000
0001
0000
0010
0000
0100
0010
0000
0010
0001
0000
0011
0000
0000
0000
,
0010
0000
0100
0000
1000
0000
0010
1000
0000
1000
0100
0000
1100
0000
0000
0000
,
1000
0100
0001
0100
1000
0010
0100
0000
,
1000
0100
0001
0100
0010
1000
0001
0000
,
0001
0010
1000
0010
0001
0100
0010
0000
,
1000
0100
0001
0100
0010
1000
0001
0000
,
1000
1000
0100
0001
0100
1000
0001
0000
,
1000
1000
0010
0001
0010
1000
0001
0000
,
1000
0000
0001
0000
0100
0010
0100
0010
0100
0010
0100
0010
0100
0010
0100
0010
,
0100
0000
0000
0001
0000
0001
0000
0000
,
1000
0000
0100
0000
0010
0000
0001
0000
0010
0100
1000
0000
0100
0010
0001
0000
,
1000
0000
0001
0000
0100
0000
0010
0000
1000
0010
1000
0010
1000
0000
0010
0000
,
0100
0000
0001
0000
0010
0000
0100
0000
0010
0001
0100
0000
0010
1000
0001
0000
,
1000
0000
1000
0000
0001
0000
0010
0000
0100
0010
0100
0010
0001
0000
1000
0000
,
0010
0000
0001
0000
0010
0000
1000
0000
0100
0010
0100
0000
0010
0001
0010
0000
,
0001
0000
0010
0000
1000
0000
0010
0000
0001
1000
0001
1000
0001
0000
0100
0000
,
0010
0000
0001
0000
0010
0000
0100
0000
0001
0100
0001
0000
1000
0010
1000
0000
,
0010
0000
0100
0000
1000
0000
0100
0000
0010
1000
0010
1000
0010
0000
1000
0000
,
0100
0000
0000
0100
0010
0000
0000
0010
0002
0000
0103
0000
0200
0000
0310
0000
,
1000
0000
0000
0001
1000
0000
0000
1000
0200
0000
0310
0000
0002
0000
0103
0000
,
0010
0000
0000
1000
0001
0000
0000
1000
0020
0000
0130
0000
0002
0000
1003
0000
,
0100
0000
0000
0010
0100
0000
0000
0100
2000
0000
3010
0000
0200
0000
0310
0000
,
1000
0000
0100
0010
0001
0000
0100
0000
0020
0000
1030
0000
0200
0000
0310
0000
,
0100
0000
0001
1000
0100
0000
0010
0000
0200
0000
0310
0000
0002
0000
1003
0000
,
0001
0000
0100
0001
0010
0000
0100
0000
0020
0000
0130
0000
2000
0000
3010
0000
,
0100
0001
0000
1000
0010
0000
0100
0000
1001
0000
0101
0000
1001
0000
1100
0000
,
1000
0000
0001
0100
0020
0000
0000
0000
1000
0000
0000
0000
0130
0000
0000
0000
,
0010
0000
1000
0100
0020
0000
0000
0000
0001
0000
0000
0000
0130
0000
0000
0000
,
0010
0000
0001
1000
0020
0000
0000
0000
0100
0000
0000
0000
1030
0000
0000
0000
,
0100
0000
0010
0001
0200
0000
0000
0000
0010
0000
0000
0000
0301
0000
0000
0000
,
1000
0000
0001
0000
0100
0000
0010
0000
1000
0010
0000
1000
0010
0000
1000
0000
,
0100
0000
0010
0000
0100
0000
1000
0000
0001
1000
0000
0001
1000
0000
0001
0000
,
1000
0000
0100
0000
0010
0000
0001
0000
0100
0001
0000
0100
0001
0000
0100
0000
,
0010
0000
1000
0000
0001
0000
0010
0000
0100
1000
0000
0100
1000
0000
0100
0000
,
1001
0000
0001
0100
0001
1000
0100
0000
,
0000
0000
0000
0000
0010
0100
0010
0001
1000
0000
0010
0000
0110
0000
0000
0000
,
1001
0000
0001
0100
0001
1000
0100
0000
,
0010
0000
0000
0000
0100
1000
0010
0100
0001
0000
0100
0000
0110
0000
0000
0000
,
1001
0000
1000
0010
0100
0001
0011
0000
,
1100
0000
0000
0000
0100
0010
0100
1000
0001
0000
0100
0000
0110
0000
0000
0000
,
1001
0000
0001
1000
1010
0000
1000
0100
,
0011
0010
0110
0100
1100
1010
0101
1001
,
0011
0000
0000
0000
0002
0203
0320
2030
3001
0000
1000
1000
0000
0001
0001
0000
,
0010
0000
0000
0000
0100
0000
0020
0000
0000
0000
0000
0000
0000
0000
0130
1000
0020
0000
0000
0000
0000
0000
0000
0000
0000
0000
0000
0000
0030
0000
0000
0000
,
2001
0000
3001
0012
0000
0013
0120
0000
0032
0000
0000
0000
0000
1003
0010
0010
,
0200
0000
0000
0000
0000
0000
0000
0000
0000
0301
0000
0000
0000
0000
0000
0001
0000
0000
0010
0000
0000
0010
0000
0000
0200
0000
0000
0000
0000
0000
0000
0000
0000
0310
0000
0000
0000
0000
0000
0001
0000
0000
0010
0000
0100
0000
1000
0000
,
0001
0100
0010
1000
1002
0000
0103
0020
,
0000
1030
0200
0000
0320
0000
0130
2000
,
0000
3010
0200
0000
0002
0000
0000
0000
,
0300
0000
0000
0000
1003
0100
0010
0001
2000
0000
0000
0000
0000
0000
0000
0000
,
0000
0000
0000
0000
3001
0000
0100
0000
1020
0000
0000
0030
0100
0000
0102
0000
,
0000
0013
0021
0000
0200
0000
0000
0000
,
0330
0000
0000
0100
0000
0000
1000
0000
0010
0000
0100
0000
0002
0000
0000
0000
0000
0000
0000
0000
0000
0000
0000
0000
,
1000
1000
1000
1000
1000
1000
1000
1000
,
1003
0000
0100
0010
0001
0000
0010
0000
0001
0000
0100
0010
1000
0000
0001
0000
,
0010
0000
0200
0000
2300
0000
3010
0000
0100
0000
0010
1000
0001
0000
0010
0000
,
0001
0000
0200
0000
0302
0000
0013
0000
0100
0000
0010
0001
1000
0000
0010
0000
,
1000
0000
0002
0000
2003
0000
3100
0000
0010
0000
0100
1000
0001
0000
0100
0000
,
0010
0000
2000
0000
3200
0000
0310
0000
0100
0000
0010
0001
0100
0000
1000
0000
,
0100
0000
0002
0000
2003
0000
3100
0000
0001
0000
0100
0010
0001
0000
0010
0000
,
1000
0000
0020
0000
0230
0000
1300
0000
0010
0000
0100
0001
0010
0000
0110
0000
,
0100
1000
0010
0000
0110
0000
0100
0001
0010
0000
0100
1000
0010
0000
0110
0000
,
0100
0001
0010
0000
1001
0000
0110
0000
1001
0000
0100
0000
0001
0000
0020
0000
,
0000
0000
0000
0000
0030
0100
0001
0100
,
1000
0010
0100
0001
1000
0001
1000
0020
,
0000
0000
0000
0030
0000
1000
0100
0001
,
0100
0010
1000
0100
0001
0100
1000
0002
,
0000
0000
0000
0003
0000
0100
1000
0100
,
0001
0000
0100
0000
0010
0000
1000
0000
0001
0000
0001
0010
0100
0000
0100
0000
,
0100
1000
0010
0000
0100
0000
0001
0000
1000
0000
1000
0100
0010
0000
0010
0000
,
0010
0001
0100
0000
0010
0000
0100
0000
0001
0100
0001
0100
0001
0000
1000
0010
,
1000
0010
0100
0000
0010
0100
0010
0100
0010
0000
1000
0001
1000
0001
0010
0000
,
0100
1000
0100
1000
0100
0000
0010
0001
0010
0001
1000
0000
0001
0100
0001
0100
,
0001
0000
1000
0010
1000
0010
0100
0000
0001
0000
1000
0000
0100
0000
0010
0000
,
0001
0100
0010
1000
0100
0000
1001
0001
,
0001
0100
0010
1000
0010
0100
0010
1000
0001
0000
0000
0000
1000
0000
1000
0000
,
0001
0001
0100
0100
0010
0010
1000
0010
,
0100
0000
0001
0100
0010
1000
0001
0010
0100
0010
0001
1000
0001
0000
0000
0000
;

//--------------- dance-single - Pandemonium X ----------------
#NOTES:
     dance-single:
     Pandemonium X:
     Challenge:
     18:
     0.982985,1.20593,0.709371,1.339923,1.138934,873,783,90,170,0,0,0.982985,1.20593,0.709371,1.339923,1.138934,873,783,90,170,0,0:
0000
0000
0000
0000
,
0000
0000
0000
0000
,
0000
0000
0000
0000
,
0000
0000
0000
0000
,
1000
0000
0001
0000
1000
0000
0001
0010
0000
0100
1000
0000
1010
0000
0000
0000
,
1000
0000
0010
0000
0100
0000
0010
1000
0000
0001
1000
0000
1100
0000
0000
0000
,
1000
0000
0001
0000
0100
0000
0010
1000
0000
0100
0010
0000
0011
0000
0000
0000
,
0010
0000
0100
0000
0010
0000
0001
0010
0000
0100
1000
0000
1001
0000
0001
0100
,
0001
0000
0010
0000
0100
0000
1000
0001
0000
0010
0100
0000
1100
0000
0000
0000
,
0100
0000
0010
0000
0100
0000
0010
0001
0000
0010
0100
0000
1001
0000
0000
0000
,
0001
0000
1000
0000
0010
0000
0100
0001
0000
0010
0100
0000
0110
0000
0000
0000
,
0100
0000
0010
0000
0001
0000
0010
0100
1000
0100
1000
0100
1000
0100
1000
0100
,
1000
2000
0001
0001
3020
0130
1001
0000
,
0001
0002
1000
1000
0203
0310
1001
0000
,
0001
0002
0010
0010
0203
0310
1001
0000
,
1000
2000
0100
0100
3020
0130
1001
0000
,
2000
0010
3010
0001
0020
0130
1001
0000
,
0002
0100
0103
1000
0200
0310
1001
0000
,
0001
0000
0100
0000
0010
1000
0010
1000
0001
0100
0001
0100
0001
0010
0001
0010
,
0100
0000
0000
0000
0000
0000
0020
0030
0000
0000
0020
0030
0000
0000
0000
0000
,
0100
0000
0010
0000
0011
0000
1100
0000
0020
0000
0130
0001
0010
0000
0100
1000
,
0002
0000
0013
0000
0200
0000
1300
0000
1001
0000
0001
1000
0010
0100
0010
0100
,
0001
0000
1000
0000
1010
0000
1100
0000
0200
0000
0310
0001
0010
0000
0100
1000
,
0020
0000
0130
0000
0002
0000
1003
0000
0100
0010
0001
0010
0001
0010
0100
1000
,
0002
0000
0103
0000
0200
0000
0301
0000
1100
0000
0100
0010
0001
0000
0010
0100
,
2000
0000
3010
0000
0020
0000
0130
0000
1001
0000
0001
0010
0100
0010
0001
1000
,
0020
0000
1030
0000
0020
0000
0130
0000
0110
0000
0010
1000
0001
1000
0100
0010
,
0002
0000
0013
0000
0200
0000
1300
0000
0001
0100
1000
0100
0010
1000
0100
0010
,
0001
0000
1000
0000
1100
0000
0100
1000
0020
0000
0130
0001
1000
0000
0000
0000
,
0001
1000
1200
1000
2300
0000
3010
0000
,
0100
0000
0001
0000
0011
0000
0010
0001
0200
0000
0310
1000
0001
0000
0000
0000
,
0010
0100
1002
0100
0203
0000
0310
0000
,
1000
0000
0100
0000
0110
0000
0100
1000
0010
0000
0010
0100
0001
0000
0001
0010
,
0100
0000
0010
0000
0011
0000
0001
0010
0100
0000
0100
1000
0010
0000
0010
1000
,
0001
0000
1000
0000
1010
0000
1000
0010
0100
0001
0100
0001
0100
0001
0100
0001
,
1000
0000
0000
0000
0000
0000
0020
0030
0000
0000
0000
0000
0000
0000
0000
0000
0000
0000
0020
0030
0000
0000
0000
0000
0001
0000
0000
0000
0000
0000
0000
0000
0000
0000
0000
0000
1000
0000
0000
0000
0000
0000
0000
0000
0000
0000
0000
0000
1010
0000
0000
0000
0000
0000
0000
0000
0000
0000
0000
0000
0110
0000
0000
0000
0000
0000
0000
0000
0000
0000
0000
0000
0101
0000
0000
0000
0000
0000
0000
0000
0000
0000
0000
0000
1001
0000
0000
0000
0000
0000
0000
0000
0000
0000
0000
0000
,
1000
0100
0010
0000
0100
1000
0010
0000
0100
0001
0010
0000
0100
0010
0001
0100
,
0010
1000
0001
0000
0010
0100
1000
0000
0100
1000
0010
0000
0100
1000
0100
0001
,
1000
0001
0010
0000
0100
0010
0001
0000
0010
0100
0010
0000
0100
0010
0001
0100
,
0010
1000
0001
0000
1000
0001
0100
0000
0010
1000
0001
1000
0100
0010
0001
0010
,
0100
0000
0011
0000
0001
0000
1100
0000
0100
1000
0000
0100
1000
0000
1100
0000
,
1000
0000
0110
0000
0100
0000
1001
0000
1000
0001
0000
0010
0001
0000
1001
0000
,
0001
0000
1001
0000
0010
0000
0110
0000
0001
0100
0000
0010
1000
0000
1001
0000
,
0001
0000
0011
0000
0001
0000
1100
0000
1000
0100
0000
0010
0001
0000
1100
0000
,
1001
0000
0000
0000
0000
0000
0000
0000
0000
0000
0000
0000
0000
0000
0000
0000
0000
0000
0000
0000
0000
0000
0000
0000
0000
0000
0000
0000
0000
0000
0000
0000
0000
0000
0000
0000
0000
0000
0000
0000
0000
0000
0000
0000
0000
0000
0000
0000
0002
0003
0000
0000
0000
0000
0000
0000
0000
0000
0000
0000
0000
0000
0000
0000
0000
0000
0000
0000
0000
0000
0000
0000
2000
3000
0000
0000
0000
0000
0000
0000
0000
0000
0000
0000
0000
0000
0000
0000
0000
0000
0000
0000
0000
0000
0000
0000
0200
0300
0000
0000
0000
0000
0000
0000
0000
0000
0000
0000
0020
0030
0000
0000
0000
0000
0000
0000
0000
0000
0000
0000
0002
0003
0000
0000
0000
0000
0000
0000
0000
0000
0000
0000
0000
0000
0000
0000
0000
0000
0000
0000
0000
0000
0000
0000
2020
3030
0000
0000
0000
0000
0000
0000
0000
0000
0000
0000
0000
0000
0000
0000
0000
0000
0000
0000
0000
0000
0000
0000
0000
0000
0000
0000
0000
0000
0000
0000
0000
0000
0000
0000
0000
0000
0000
0000
0000
0000
0000
0000
0000
0000
0000
0000
,
0002
0003
0000
0000
0000
0000
0000
0000
0000
0000
0000
0000
0000
0000
0000
0000
0000
0000
0000
0000
0000
0000
0000
0000
2000
3000
0000
0000
0000
0000
0000
0000
0000
0000
0000
0000
0000
0000
0000
0000
0000
0000
0000
0000
0000
0000
0000
0000
0200
0300
0000
0000
0000
0000
0000
0000
0000
0000
0000
0000
0020
0030
0000
0000
0000
0000
0000
0000
0000
0000
0000
0000
0002
0003
0000
0000
0000
0000
0000
0000
0000
0000
0000
0000
0200
0300
0000
0000
0000
0000
0000
0000
0000
0000
0000
0000
0020
0030
0000
0000
0000
0000
0000
0000
0000
0000
0000
0000
2000
3000
0000
0000
0000
0000
0000
0000
0000
0000
0000
0000
1020
0030
0000
0000
0000
0000
0000
0000
0000
0000
0000
0000
0000
0000
0000
0000
0000
0000
0000
0000
0000
0000
0000
0000
1200
0300
0000
0000
0000
0000
0000
0000
0000
0000
0000
0000
0000
0000
0000
0000
0000
0000
0000
0000
0000
0000
0000
0000
0000
0000
0000
0000
0000
0000
0000
0000
0000
0000
0000
0000
0000
0000
0000
0000
0000
0000
0000
0000
0000
0000
0000
0000
,
1001
0000
0000
0000
0000
0000
0000
0000
0000
0000
0000
0000
0000
0000
0000
0000
0000
0000
0000
0000
0000
0000
0000
0000
0000
0000
0000
0000
0000
0000
0000
0000
0000
0000
0000
0000
0000
0000
0000
0000
0000
0000
0000
0000
0000
0000
0000
0000
0002
0003
0000
0000
0000
0000
0000
0000
0000
0000
0000
0000
0000
0000
0000
0000
0000
0000
0000
0000
0000
0000
0000
0000
0020
0030
0000
0000
0000
0000
0000
0000
0000
0000
0000
0000
0200
0300
0000
0000
0000
0000
0000
0000
0000
0000
0000
0000
2000
3000
0000
0000
0000
0000
0000
0000
0000
0000
0000
0000
0000
0000
0000
0000
0000
0000
0000
0000
0000
0000
0000
0000
0020
0030
0000
0000
0000
0000
0000
0000
0000
0000
0000
0000
0000
0000
0000
0000
0000
0000
0000
0000
0000
0000
0000
0000
0210
0300
0000
0000
0000
0000
0000
0000
0000
0000
0000
0000
0000
0000
0000
0000
0000
0000
0000
0000
0000
0000
0000
0000
0000
0000
0000
0000
0000
0000
0000
0000
0000
0000
0000
0000
0000
0000
0000
0000
0000
0000
0000
0000
0000
0000
0000
0000
,
1020
0030
0000
0000
0000
0000
0000
0000
0000
0000
0000
0000
0000
0000
0000
0000
0000
0000
0000
0000
0000
0000
0000
0000
2000
3000
0000
0000
0000
0000
0000
0000
0000
0000
0000
0000
0000
0000
0000
0000
0000
0000
0000
0000
0000
0000
0000
0000
0002
0003
0000
0000
0000
0000
0000
0000
0000
0000
0000
0000
0200
0300
0000
0000
0000
0000
0000
0000
0000
0000
0000
0000
0002
0003
0000
0000
0000
0000
0000
0000
0000
0000
0000
0000
0020
0030
0000
0000
0000
0000
0000
0000
0000
0000
0000
0000
0200
0300
0000
0000
0000
0000
0000
0000
0000
0000
0000
0000
2000
3000
0000
0000
0000
0000
0000
0000
0000
0000
0000
0000
0200
0300
0000
0000
0000
0000
0000
0000
0000
0000
0000
0000
2000
3000
0000
0000
0000
0000
0000
0000
0000
0000
0000
0000
0002
0003
0000
0000
0000
0000
0000
0000
0000
0000
0000
0000
0000
0000
0000
0000
0000
0000
0000
0000
0000
0000
0000
0000
2000
3000
0000
0000
0000
0000
0000
0000
0000
0000
0000
0000
0000
0000
0000
0000
0000
0000
0000
0000
0000
0000
0000
0000
,
0011
0000
0000
0000
0000
0000
0000
0000
0000
0000
0000
0000
0000
0000
0000
0000
0000
0000
0000
0000
0000
0000
0000
0000
0000
0000
0000
0000
0000
0000
0000
0000
0000
0000
0000
0000
0000
0000
0000
0000
0000
0000
0000
0000
0000
0000
0000
0000
2000
3000
0000
0000
0000
0000
0000
0000
0000
0000
0000
0000
0000
0000
0000
0000
0000
0000
0000
0000
0000
0000
0000
0000
0200
0300
0000
0000
0000
0000
0000
0000
0000
0000
0000
0000
0000
0000
0000
0000
0000
0000
0000
0000
0000
0000
0000
0000
0020
0030
0000
0000
0000
0000
0000
0000
0000
0000
0000
0000
0000
0000
0000
0000
0000
0000
0000
0000
0000
0000
0000
0000
0002
0003
0000
0000
0000
0000
0000
0000
0000
0000
0000
0000
0200
0300
0000
0000
0000
0000
0000
0000
0000
0000
0000
0000
0020
0030
0000
0000
0000
0000
0000
0000
0000
0000
0000
0000
0000
0000
0000
0000
0000
0000
0000
0000
0000
0000
0000
0000
0000
0000
0000
0000
0000
0000
0000
0000
0000
0000
0000
0000
0000
0000
0000
0000
0000
0000
0000
0000
0000
0000
0000
0000
,
1001
0000
0000
0000
0000
0000
0000
0000
0000
0000
0000
0000
0000
0000
0000
0000
0000
0000
0000
0000
0000
0000
0000
0000
0000
0000
0000
0000
0000
0000
0000
0000
0000
0000
0000
0000
0000
0000
0000
0000
0000
0000
0000
0000
0000
0000
0000
0000
2000
3000
0000
0000
0000
0000
0000
0000
0000
0000
0000
0000
0000
0000
0000
0000
0000
0000
0000
0000
0000
0000
0000
0000
0200
0300
0000
0000
0000
0000
0000
0000
0000
0000
0000
0000
0020
0030
0000
0000
0000
0000
0000
0000
0000
0000
0000
0000
0002
0003
0000
0000
0000
0000
0000
0000
0000
0000
0000
0000
2000
3000
0000
0000
0000
0000
0000
0000
0000
0000
0000
0000
0002
0003
0000
0000
0000
0000
0000
0000
0000
0000
0000
0000
0020
0030
0000
0000
0000
0000
0000
0000
0000
0000
0000
0000
0012
0003
0000
0000
0000
0000
0000
0000
0000
0000
0000
0000
0000
0000
0000
0000
0000
0000
0000
0000
0000
0000
0000
0000
0000
0000
0000
0000
0000
0000
0000
0000
0000
0000
0000
0000
0000
0000
0000
0000
0000
0000
0000
0000
0000
0000
0000
0000
,
1001
0000
0000
0000
0000
0000
0000
0000
0000
0000
0000
0000
0000
0000
0000
0000
0000
0000
0000
0000
0000
0000
0000
0000
1000
0000
0000
0000
0000
0000
0000
0000
0000
0000
0000
0000
0000
0000
0000
0000
0000
0000
0000
0000
0000
0000
0000
0000
0020
0030
0000
0000
0000
0000
0000
0000
0000
0000
0000
0000
0000
0000
0000
0000
0000
0000
0000
0000
0000
0000
0000
0000
0200
0300
0000
0000
0000
0000
0000
0000
0000
0000
0000
0000
0001
0000
0000
0000
0000
0000
0000
0000
0000
0000
0000
0000
0012
0003
0000
0000
0000
0000
0000
0000
0000
0000
0000
0000
0000
0000
0000
0000
0000
0000
0000
0000
0000
0000
0000
0000
0020
0030
0000
0000
0000
0000
0000
0000
0000
0000
0000
0000
0000
0000
0000
0000
0000
0000
0000
0000
0000
0000
0000
0000
0200
0300
0000
0000
0000
0000
0000
0000
0000
0000
0000
0000
0000
0000
0000
0000
0000
0000
0000
0000
0000
0000
0000
0000
0100
0000
0000
0000
0000
0000
0000
0000
0000
0000
0000
0000
1000
0000
0000
0000
0000
0000
0000
0000
0000
0000
0000
0000
,
1020
0030
0000
0000
0000
0000
0000
0000
0000
0000
0000
0000
0000
0000
0000
0000
0000
0000
0000
0000
0000
0000
0000
0000
0020
0030
0000
0000
0000
0000
0000
0000
0000
0000
0000
0000
0200
0300
0000
0000
0000
0000
0000
0000
0000
0000
0000
0000
0102
0003
0000
0000
0000
0000
0000
0000
0000
0000
0000
0000
0200
0300
0000
0000
0000
0000
0000
0000
0000
0000
0000
0000
0002
0003
0000
0000
0000
0000
0000
0000
0000
0000
0000
0000
0020
0030
0000
0000
0000
0000
0000
0000
0000
0000
0000
0000
0200
0300
0000
0000
0000
0000
0000
0000
0000
0000
0000
0000
2000
3000
0000
0000
0000
0000
0000
0000
0000
0000
0000
0000
0020
0030
0000
0000
0000
0000
0000
0000
0000
0000
0000
0000
0200
0300
0000
0000
0000
0000
0000
0000
0000
0000
0000
0000
0210
0300
0000
0000
0000
0000
0000
0000
0000
0000
0000
0000
0000
0000
0000
0000
0000
0000
0000
0000
0000
0000
0000
0000
0002
0003
0000
0000
0000
0000
0000
0000
0000
0000
0000
0000
2000
3000
0000
0000
0000
0000
0000
0000
0000
0000
0000
0000
,
1001
0000
0000
0000
0002
0203
2300
3020
0032
0000
1000
1000
0000
1000
1003
0000
,
0002
0000
0000
0000
0103
0000
0020
0000
0000
0000
1030
0000
0100
0000
0010
0001
2000
0000
0000
0000
0001
0000
0001
0000
0000
0000
0001
0000
0001
0000
0000
0000
,
3200
0000
1300
2001
0000
3100
0120
0000
0032
0000
0000
0000
0000
0013
0100
1000
,
0002
0000
0000
0000
0000
0000
0003
0000
0000
2000
0000
0000
0000
0000
0000
3100
0000
0000
0010
0000
0000
0001
0000
0000
2000
0000
0000
0000
0000
0000
0000
0000
0000
3020
0000
0000
0000
0000
0000
0130
0000
0000
0010
0000
0100
0000
0001
0000
,
2000
0000
0000
0000
0000
0000
0000
0000
0000
0000
0000
0000
3200
0000
0000
0000
0000
0000
0000
0000
0000
0000
0000
0000
0320
0000
0000
0000
0000
0000
0000
0000
0000
0000
0000
0000
0032
0000
0000
0000
0000
0000
0003
0000
0000
0000
0000
0000
1001
0000
0000
0000
0000
0000
0000
0000
0000
0000
0000
0000
0000
0000
0000
0000
0000
0000
0000
0000
0000
0000
0000
0000
0001
0000
0000
0000
0000
0000
0000
0000
0000
0000
0000
0000
0020
0030
0000
0000
0000
0000
0000
0000
0000
0000
0000
0000
,
0000
0000
0000
0000
0000
0000
0000
0000
0000
0000
0000
0000
0020
0030
0000
0000
0000
0000
0000
0000
0000
0000
0000
0000
2000
0000
0000
0000
0000
0000
0000
0000
0000
0000
0000
0000
0000
0000
0000
0000
0000
0000
0000
0000
0000
0000
0000
0000
3001
0000
0000
0000
0000
0000
0000
0000
0000
0000
0000
0000
0000
0000
0000
0000
0000
0000
0000
0000
0000
0000
0000
0000
1000
0000
0000
0000
0000
0000
0000
0000
0000
0000
0000
0000
0200
0300
0000
0000
0000
0000
0000
0000
0000
0000
0000
0000
,
0000
0000
0000
0000
0000
0000
0000
0000
0000
0000
0000
0000
0200
0300
0000
0000
0000
0000
0000
0000
0000
0000
0000
0000
0002
0000
0000
0000
0000
0000
0000
0000
0000
0000
0000
0000
0000
0000
0000
0000
0000
0000
0000
0000
0000
0000
0000
0000
2003
0000
0000
0000
0000
0000
0000
0000
0000
0000
0000
0000
0000
0000
0000
0000
0000
0000
0000
0000
0000
0000
0000
0000
3001
0000
0000
0000
0000
0000
0000
0000
0000
0000
0000
0000
0200
0300
0000
0000
0000
0000
0000
0000
0000
0000
0000
0000
,
0000
0000
0000
0000
0000
0000
0000
0000
0000
0000
0000
0000
0200
0300
0000
0000
0000
0000
0000
0000
0000
0000
0000
0000
1000
0000
0000
0000
0000
0000
0100
0000
0000
0000
0000
0000
0010
0000
0000
0000
0000
0000
0001
0000
0000
0000
0000
0000
1000
0000
0000
0000
0000
0000
0000
0000
0000
0000
0000
0000
0000
0000
0000
0000
0000
0000
0000
0000
0000
0000
0000
0000
0001
0000
0000
0000
0000
0000
0000
0000
0000
0000
0000
0000
0020
0030
0000
0000
0000
0000
0000
0000
0000
0000
0000
0000
,
0000
0000
0000
0000
0000
0000
0000
0000
0000
0000
0000
0000
0020
0030
0000
0000
0000
0000
0000
0000
0000
0000
0000
0000
1000
0000
0000
0000
0000
0000
0000
0000
0000
0000
0000
0000
0000
0000
0000
0000
0000
0000
0000
0000
0000
0000
0000
0000
2010
0000
0000
0000
0000
0000
0000
0000
0000
0000
0000
0000
0000
0000
0000
0000
0000
0000
0000
0000
0000
0000
0000
0000
3001
0000
0000
0000
0000
0000
0000
0000
0000
0000
0000
0000
0021
0000
0000
0000
0000
0000
0000
0000
0000
0000
0000
0000
,
0000
0000
0000
0000
0000
0000
0000
0000
0000
0000
0000
0000
0000
0000
0000
0000
0000
0000
0000
0000
0000
0000
0000
0000
0130
0000
0000
0000
0000
0000
0000
0000
0000
0000
0000
0000
0000
0000
0000
0000
0000
0000
0000
0000
0000
0000
0000
0000
2002
0000
0000
0000
0000
0000
0000
0000
0000
0000
0000
0000
0000
0000
0000
0000
0000
0000
0000
0000
0000
0000
0000
0000
0000
0000
0000
0000
0000
0000
0000
0000
0000
0000
0000
0000
0000
0000
0000
0000
0000
0000
0000
0000
0000
0000
0000
3003
2002
0000
0000
0000
0000
0000
0000
0000
0000
0000
0000
0000
0000
0000
0000
0000
0000
0000
0000
0000
0000
0000
0000
0000
0000
0000
0000
0000
0000
0000
0000
0000
0000
0000
0000
0000
0000
0000
0000
0000
0000
0000
0000
0000
0000
0000
0000
0000
0000
0000
0000
0000
0000
0000
0000
0000
0000
0000
0000
0000
0000
0000
0000
0000
0000
0000
0000
0000
0000
0000
0000
0000
0000
0000
0000
0000
0000
0000
0000
0000
0000
0000
0000
0000
0000
0000
0000
0000
0000
0000
0000
0000
0000
0000
0000
0000
,
3003
0000
0000
1000
0000
0000
0100
0000
0010
0000
0100
0000
2000
0000
0000
0000
0000
0000
0000
0000
0000
0000
0000
0000
,
3010
0100
0010
0100
0010
0100
0010
0100
0010
0100
0010
0100
0010
0100
0010
0100
,
0010
0000
0000
0000
0000
0000
0000
0000
0000
0000
0100
0000
0000
0000
0000
0000
0000
0000
0000
0010
0000
0000
0000
0000
0000
0000
0000
0000
0000
1000
0000
0000
0000
0000
0000
0000
0000
0000
0001
0000
0000
0000
0000
0000
0000
0000
0000
0000
1000
0000
0000
0000
0000
0000
0000
0000
0000
0000
0000
0000
0000
0000
0000
0000
0000
0000
0000
0000
0000
0000
0000
0000
0001
0000
0000
0000
0000
0000
0000
0000
0000
0000
0000
0000
0000
0000
0000
0000
0000
0000
0000
0000
0000
0000
0000
0000
1001
0000
0000
0000
0000
0000
0000
0000
0000
0000
0000
0000
0000
0000
0000
0000
0000
0000
0000
0000
0000
0000
0000
0000
1000
0000
0000
0000
0000
0000
0000
0000
0010
0000
0000
0000
0000
0000
0000
0000
1000
0000
0000
0000
0000
0000
0000
0000
0010
0000
0000
0000
0000
0000
0000
0000
0000
0000
0000
0000
0000
0000
0000
0000
0000
0000
0000
0000
0000
0000
0000
0000
0100
0000
0000
0000
0000
0000
0000
0000
0000
0000
0000
0000
0000
0000
0000
0000
0000
0000
0000
0000
0000
0000
0000
0000
,
0001
0000
0000
0012
0000
0000
0023
0000
0000
0130
0000
0000
1000
0000
0000
0001
0100
0001
0100
0000
0000
0001
0000
0000
,
0010
0000
0000
0210
0000
0000
0320
0000
0000
0130
0000
0000
1000
0000
0000
0010
0100
0010
0100
0000
0000
0010
0000
0000
,
1000
0000
0000
1200
0000
0000
2300
0000
0000
3001
0000
0000
0100
0000
0000
0001
0010
0001
0010
0000
0000
0100
0000
0000
,
1000
0000
0000
1020
0000
0000
0230
0000
0000
0310
0000
0000
1000
0000
0000
0001
1000
0001
0010
0000
0000
0100
0000
0000
,
1000
0000
0000
2001
0000
0000
3200
0000
0000
1300
0000
0000
0001
0000
0000
0100
0010
0100
0001
0000
0000
1000
0000
0000
,
0001
0000
0201
0000
0320
0000
1030
0000
2001
0000
3001
0100
2000
0000
3100
0000
,
0001
1000
0001
0000
2000
0000
0000
0000
3001
0000
0001
0010
1000
0000
0010
0000
,
0010
0001
0100
0000
0010
0000
1000
0000
0101
0000
0010
0000
1001
0000
2200
0000
,
0000
0000
0000
0000
3300
1100
0100
0110
,
0011
0001
0101
0001
1001
0001
0100
2020
,
0000
0000
0000
0000
3030
0100
0110
0010
,
1010
1001
0011
0010
0110
0010
1001
0202
,
0000
0000
0000
0000
0303
0001
0101
0011
,
0001
0000
1001
0000
1100
0000
0110
0000
0010
0001
0100
0000
0010
0000
0100
0010
,
1000
0000
0001
0000
0010
0100
1000
0000
0001
0100
0010
0000
1000
0000
0100
0010
,
0001
0000
1000
0000
0100
0000
0010
0000
0001
0010
0100
1000
1001
0000
1000
0100
,
0010
0001
1001
0000
0001
0100
0010
1000
1001
0000
1000
0010
0100
0001
2001
3000
,
1000
0100
0010
0001
1001
0000
0001
0010
0100
1000
1001
0000
1000
0010
0100
0001
,
1001
0000
0001
0100
0010
1000
2001
0000
3200
0000
0320
0000
0031
0000
0010
0001
,
0100
0000
0010
1000
0001
0000
0010
0100
1000
0000
0100
1000
0010
0000
0100
0010
,
1000
0000
0001
0010
0100
0000
0010
0001
0100
0000
0010
1000
0001
1000
0001
1000
,
0001
1000
0001
1000
0010
0100
0010
0100
0010
0100
0010
0100
0001
0100
0010
1000
,
0001
0010
0100
0010
0001
1000
0100
0010
0001
0010
0001
1000
2002
0000
0000
0000
,
0000
0000
0000
0000
,
0000
0000
0000
0000
,
3003
0000
0000
0000
;
