#TITLE:Be Rock U (1998 burst style);
#SUBTITLE:;
#ARTIST:NAOKI;
#TITLETRANSLIT:;
#SUBTITLETRANSLIT:;
#ARTISTTRANSLIT:;
#GENRE:;
#CREDIT:;
#BANNER:Be Rock U (1998 burst style).png;
#BACKGROUND:Be Rock U (1998 burst style)-bg.png;
#LYRICSPATH:;
#CDTITLE:;
#MUSIC:Be Rock U (1998 burst style).ogg;
#OFFSET:0.140000;
#SAMPLESTART:39.860001;
#SAMPLELENGTH:14.025000;
#SELECTABLE:YES;
#BPMS:0.000000=150.000000
;
#STOPS:
;
#BGCHANGES:0.000=Be Rock U (1998 burst style).mp4=1.000=0=0=0=StretchNoLoop====,
99999=-nosongbg-=1.000=0=0=0 // don't automatically add -songbackground-
;
#KEYSOUNDS:;
#ATTACKS:;

//---------------dance-single - Pandemonium X----------------
#NOTES:
     dance-single:
     Pandemonium X:
     Beginner:
     4:
     0.141500,0.237634,0.043443,0.000000,0.000000,114.000000,109.000000,5.000000,0.000000,0.000000,0.000000,0.141500,0.237634,0.043443,0.000000,0.000000,114.000000,109.000000,5.000000,0.000000,0.000000,0.000000:
0000
0000
0000
0000
,
0000
0000
0000
0000
,
0000
0000
0000
0000
,
0000
0000
0000
0000
,
0000
0000
0000
0000
,
0001
0000
0000
0000
,
1000
0000
0000
0000
,
0010
0000
0100
0000
,
0010
0000
0000
0000
,
1000
0000
0000
0000
,
0000
0000
0000
0001
,
1000
0000
0000
0000
,
0010
0000
0000
0000
,
0100
0000
0000
0000
,
0000
0000
0000
0010
,
1000
0000
0000
0000
,
0001
0000
1000
0000
,
0010
0000
0000
0000
,
0100
0000
0000
0000
,
0001
0000
0000
0000
,
0010
0000
0100
0000
,
1000
0000
0000
0000
,
0100
0000
0000
0000
,
1000
0000
0000
0000
,
0001
0000
1000
0000
,
0110
0000
0000
0000
,
1000
0000
0001
0000
,
1000
1000
1000
0000
,
0010
0000
0100
0000
,
0010
0010
0010
0000
,
1000
0000
0100
0000
,
1000
1000
1000
0000
,
0001
0000
0010
0000
,
0100
0100
0100
0000
,
1000
0000
0000
0000
,
0010
0000
0000
0000
,
0100
0000
0100
0000
,
0001
0000
1000
0001
,
1000
0000
0000
0000
,
0001
0000
0000
0000
,
0010
0000
0000
0000
,
0100
0000
0000
0000
,
0010
0000
0000
0000
,
0001
0000
0000
0000
,
1000
0000
0000
0000
,
0010
0000
0100
0100
,
0010
0000
1000
0000
,
0001
0000
1000
1000
,
0001
0000
1000
0000
,
0010
0000
0100
0000
,
1001
0000
0000
0000
,
0001
0000
0000
0000
,
0000
0000
0000
0000
,
1000
0000
1000
0000
,
1000
1000
0001
0001
,
1000
0000
0000
0000
,
0010
0000
0000
0000
,
0100
0000
0000
0000
,
1001
0000
0000
0000
,
0001
0001
0001
0000
,
1000
1000
1000
0000
,
0010
0010
0100
0100
,
0010
0100
0010
0000
,
1000
1000
0001
0000
,
0010
0010
0100
0000
,
1000
0000
0100
0000
,
0010
0000
0000
0000
,
0001
0000
1000
0000
,
0110
0000
0000
1001
0000
0000
0000
0000
;

//---------------dance-single - Pandemonium X----------------
#NOTES:
     dance-single:
     Pandemonium X:
     Easy:
     7:
     0.309067,0.445564,0.260659,0.052132,0.004344,249.000000,219.000000,30.000000,6.000000,0.000000,0.000000,0.309067,0.445564,0.260659,0.052132,0.004344,249.000000,219.000000,30.000000,6.000000,0.000000,0.000000:
0000
0000
0000
0000
,
0000
0000
0000
0000
,
0000
0000
0000
0000
,
0000
0000
0000
0000
,
0000
0000
0000
0000
,
0001
0100
0010
0000
,
0100
0010
1000
0000
,
0001
1000
0010
0100
,
0101
1010
1001
0000
,
0001
1000
0010
1000
,
0001
0010
0100
1000
,
0100
1000
0010
0100
,
0001
0010
0001
0100
,
0001
1000
0010
0100
,
0010
1000
0010
0100
,
0001
0010
0100
1000
,
0100
1000
0110
0110
,
0001
0000
1000
0000
0010
1000
0010
0000
,
1000
0000
0001
0000
0010
0001
0010
0000
,
0001
0000
1000
0000
0100
1000
0100
0000
,
1000
0000
0001
0000
0100
0001
0100
0000
,
1001
0000
0000
0000
0001
0001
0001
0000
,
1000
0000
0001
0000
1000
1000
1000
0000
,
0110
0000
1001
0000
,
0001
0000
1000
0000
0010
0100
0001
1000
,
0000
0000
0000
0000
,
0001
0010
0100
0000
,
0010
0001
1000
0000
,
0001
1000
0010
0100
,
0010
1000
0100
0000
,
0010
0100
1000
0000
,
0100
0010
0001
0000
,
1000
0001
0100
0001
,
1001
0110
1001
0000
,
1000
0001
0100
0001
,
0010
0100
1000
0100
,
1000
0010
0100
0001
,
0010
0000
0100
0000
1000
0001
1000
0000
,
0001
1000
0010
1000
,
0100
0100
0100
0100
,
0010
0010
0010
0010
,
0001
0001
0001
0001
,
0000
1000
0000
0001
,
0000
0100
0000
0010
,
0000
1000
0000
0010
,
0000
0100
0110
1001
,
0001
1000
0010
1000
,
0001
0010
0100
1000
,
0100
1000
0010
0100
,
0001
0001
1000
1000
,
1001
0110
1001
0110
,
1001
0000
0001
0000
,
1000
0000
0020
0000
,
0000
0000
0000
0000
,
0130
0100
0100
0100
,
0001
1000
0010
0000
,
1000
0001
0200
0000
,
0000
0000
0000
0300
,
2002
3003
1000
0001
,
0100
0001
0011
0000
,
0010
0100
1100
0000
,
0100
1000
0010
0100
,
0001
0100
0101
0000
,
0001
1000
1010
0000
,
1000
0001
0011
0000
,
0010
1001
0100
1001
,
1001
0110
1001
0110
,
0002
0000
0203
0000
,
0310
0000
0000
1000
0000
0000
0100
0000
0000
0000
0000
0000
0000
0000
0000
0000
;

//---------------dance-single - Pandemonium X----------------
#NOTES:
     dance-single:
     Pandemonium X:
     Medium:
     9:
     0.358716,0.445564,0.251970,0.147707,0.112952,289.000000,260.000000,29.000000,17.000000,0.000000,0.000000,0.358716,0.445564,0.251970,0.147707,0.112952,289.000000,260.000000,29.000000,17.000000,0.000000,0.000000:
0000
0000
0000
0000
,
0000
0000
0000
0000
,
0000
0000
0000
0000
,
0000
0000
0000
0000
,
0000
0000
0000
0000
0000
0000
0000
1000
,
0010
0000
0000
0010
0000
0000
0010
0000
0100
0000
0000
0000
0000
0000
0001
0000
,
0010
0000
0000
0010
0000
0000
0100
0000
1000
0000
0000
0000
0000
0000
0000
0000
,
0001
0000
1000
0010
0000
1000
0000
0001
,
0011
1100
1001
0000
,
0201
0001
0010
0010
,
0001
0000
0001
0000
0310
1000
0100
0000
,
0021
0100
0100
0130
,
2100
0100
0001
3001
,
1020
1000
0100
0100
,
1000
0000
1030
0000
0001
0010
0100
0000
,
2001
0001
3001
1001
,
0201
0310
2010
3100
,
0010
0000
0001
0000
0100
0001
0100
0000
,
0010
0000
1000
0000
0001
1000
0001
0000
,
1000
0000
0100
0000
0010
0100
1000
0000
,
0100
0000
1000
0000
0010
0100
1000
0100
,
0001
0000
1000
0000
0001
0010
0001
0000
,
1000
0000
0100
0000
0010
0100
0010
0000
,
1001
0000
0000
0000
0000
0000
0000
0000
0000
0000
0001
0000
0000
1000
0000
0000
,
0010
0000
0100
0000
0001
0010
0100
1000
,
0020
0000
0000
0000
,
1030
0000
0000
1000
0000
0000
0001
0000
0010
0000
0000
0000
0000
0000
0000
0000
,
0100
0000
0000
0100
0000
0000
1000
0000
0001
0000
0000
0000
0000
0000
0000
0000
,
0100
0000
0000
0100
0000
0000
0001
0000
0010
0000
0000
0010
0000
0000
0100
0000
,
1000
0000
0000
1000
0000
0000
0001
0000
1000
0000
0000
0000
0000
0000
0010
0000
,
1000
0000
0000
1000
0000
0000
0001
0000
0010
0000
0000
0000
0000
0000
0100
0000
,
0010
0000
0000
0010
0000
0000
0001
0000
1000
0000
0000
0000
0000
0000
0000
0000
,
0001
0000
0100
0001
0000
0010
0000
0001
,
1001
1010
1001
0000
,
0001
0000
0100
0000
0010
0000
0100
0001
,
1000
0000
0100
0000
0010
0000
0100
1000
,
0001
0000
1000
0000
0001
0000
0010
0001
,
0100
0010
1000
1001
,
0001
1000
0010
0100
,
0201
0001
0001
0301
,
2010
0010
0010
3010
,
1002
1000
1000
1003
,
0000
0010
0000
0100
,
0000
0001
0000
0010
,
0000
0001
0000
1000
,
0000
0001
0101
1010
,
1001
0000
1000
0000
0100
1000
0001
0000
,
0100
0000
0001
0000
0010
0100
1000
0000
,
0100
0000
1000
0000
0001
0100
0010
0000
,
0100
0000
0010
0000
1000
0001
0010
0000
,
1100
0011
0101
1010
,
1001
0000
1000
0000
,
0001
0000
0200
0000
,
0010
0000
0010
0000
,
0010
0010
0010
0310
,
0100
0001
1000
0000
,
0100
1000
0200
0000
,
0010
0000
0010
0300
,
2002
0000
3003
0000
,
0001
0000
0000
0001
0000
0000
1000
0000
0010
0000
0000
0000
0000
0000
0000
0000
,
0100
0000
0000
0100
0000
0000
0010
0000
1000
0000
0000
0000
0000
0000
0000
0000
,
0100
0000
0000
0100
0000
0000
1000
0000
0001
0000
0000
0001
0000
0000
0100
0000
,
0010
0000
0000
0010
0000
0000
0100
0000
0001
0000
0000
0000
0000
0000
0000
0000
,
1000
0000
0000
1000
0000
0000
0001
0000
0010
0000
0000
0000
0000
0000
0000
0000
,
0100
0000
0000
0100
0000
0000
0010
0000
0001
0000
0000
0000
0000
0000
0000
0000
,
0010
0000
0001
0010
0000
0100
0000
2000
,
0000
0002
0000
0000
0000
0000
3003
0000
,
1000
0001
0000
1000
0000
0001
0000
1000
0000
0001
0000
1000
0000
0001
0000
1000
,
0001
0000
0000
1000
0000
0000
0110
0000
0000
0000
0000
0000
0000
0000
0000
0000
;

//---------------dance-single - Pandemonium X----------------
#NOTES:
     dance-single:
     Pandemonium X:
     Hard:
     12:
     0.472909,0.594085,0.121641,0.043443,0.399677,381.000000,367.000000,14.000000,5.000000,0.000000,0.000000,0.472909,0.594085,0.121641,0.043443,0.399677,381.000000,367.000000,14.000000,5.000000,0.000000,0.000000:
// measure 0
0000
0000
0000
0000
,  // measure 1
0000
0000
0000
0000
,  // measure 2
0000
0000
0000
0000
,  // measure 3
0000
0000
0000
0000
,  // measure 4
0000
0000
0000
0000
0000
0000
0000
0000
0000
0000
0000
0000
0000
0000
1000
0001
,  // measure 5
1000
0000
0000
0001
0000
0000
1000
0000
1000
0000
0000
0000
0000
0000
0001
0100
,  // measure 6
0001
0000
0000
0100
0000
0000
0010
0000
0010
0000
0000
0000
0000
0000
0100
0000
,  // measure 7
0010
0000
1000
0100
0000
0001
0000
0200
,  // measure 8
0000
1000
1000
0300
,  // measure 9
0011
0000
0000
0001
0000
0000
0100
0000
0000
0010
0000
0000
1000
0000
0010
0000
,  // measure 10
0100
0000
0000
0001
0000
0000
1000
0000
0000
0001
0000
0000
0010
0000
0100
0000
,  // measure 11
1000
0000
0000
0100
0000
0000
1000
0000
0000
0010
0000
0000
0100
0000
0001
0000
,  // measure 12
0010
0000
0000
0100
0000
0000
0010
0000
0000
0001
0000
0000
0010
0000
0100
0000
,  // measure 13
1000
0000
0000
0100
0000
0000
1000
0000
0000
0010
0000
0000
0100
0000
0001
0000
,  // measure 14
0010
0000
0000
0100
0000
0000
0010
0000
0000
0100
0000
0000
1000
0000
0010
0000
,  // measure 15
0100
0000
0000
0010
0000
0000
1000
0000
0000
0001
0000
0000
0010
0000
0001
0000
,  // measure 16
0100
0000
0010
1000
0001
0000
1001
0000
,  // measure 17
0001
0000
1000
0000
0010
1000
0001
0000
,  // measure 18
1000
0100
0010
0001
0010
0100
0010
0000
,  // measure 19
0100
0000
1000
0000
0100
1000
0010
0000
,  // measure 20
0100
0001
0010
0000
0100
0000
0010
0001
,  // measure 21
1100
0000
1010
0000
0010
0010
1000
0000
,  // measure 22
0001
0000
1000
0000
0100
0100
0010
0000
,  // measure 23
0011
0000
0000
0000
0000
0000
0000
0000
0000
0000
1100
0000
0000
1010
0000
0000
,  // measure 24
0110
0000
0000
0000
0010
0000
0000
0000
0100
0000
0010
1000
0010
0000
1000
0000
,  // measure 25
0000
0000
0000
0000
,  // measure 26
0001
0000
0000
0001
0000
0000
1000
0000
0010
0000
0000
0000
0000
0000
0100
0001
,  // measure 27
0100
0000
0000
0001
0000
0000
0100
0000
0100
0000
0000
0000
0000
0000
0010
1000
,  // measure 28
0010
0000
0000
1000
0000
0000
0001
0000
1000
0000
0000
1000
0000
0000
0001
0000
,  // measure 29
0010
0000
0000
0100
0000
0000
1000
0000
0100
0000
0000
0000
0000
0000
1000
0010
,  // measure 30
1000
0000
0000
0010
0000
0000
0100
0000
0001
0000
0000
0000
0000
0000
0010
0100
,  // measure 31
0010
0000
0000
0001
0000
0000
0010
0000
0100
0000
0000
0000
0000
0000
0100
0000
,  // measure 32
1000
0000
0010
1000
0000
0010
0000
0200
,  // measure 33
0001
0001
0301
0000
,  // measure 34
0001
0000
0000
1000
0000
0001
0000
0100
0000
0010
0000
1000
0001
0000
0010
0000
,  // measure 35
0100
0000
0000
1000
0000
0100
0000
1000
0000
0010
0000
0100
0010
0000
1000
0000
,  // measure 36
0001
0000
0000
1000
0000
0010
0000
1000
0000
0001
0000
0010
0100
0000
0010
0000
,  // measure 37
0001
0000
0000
0010
0000
0001
0000
0100
0000
0010
0000
0100
0010
0000
1000
0000
,  // measure 38
0001
0000
0000
1000
0000
0100
0000
0010
0000
0100
0000
1000
0010
0000
1000
0000
,  // measure 39
0001
0100
0001
0100
0001
0100
0001
0100
,  // measure 40
0010
0010
1000
1000
0100
0100
0010
0010
,  // measure 41
0001
0001
1000
1000
0001
0001
1000
1000
,  // measure 42
0001
0000
0100
0000
0010
1000
0001
0000
,  // measure 43
0010
0000
0100
0000
0010
0001
1000
0000
,  // measure 44
0001
0000
0100
0000
0010
0100
0001
0000
,  // measure 45
1000
0001
0011
1010
,  // measure 46
1000
0100
0010
0001
0010
0000
0011
0000
,  // measure 47
0001
0010
0100
1000
0010
0000
0110
0000
,  // measure 48
0100
0010
1000
0000
0010
0100
0001
0000
,  // measure 49
1000
1000
0000
0001
0100
0001
1000
0001
,  // measure 50
0010
0001
0100
0010
1000
0001
0010
0100
0010
0001
0100
0010
,  // measure 51
1000
0000
0000
1000
0000
0000
1000
0000
0001
0000
0000
0000
0000
0000
0100
0001
,  // measure 52
0100
0000
0000
0100
0000
0000
0100
0000
0020
0000
0000
0000
0000
0000
0000
0000
,  // measure 53
1000
0000
1000
0000
,  // measure 54
1030
0000
0000
0000
0001
0000
0000
0000
1000
0000
0000
0000
0001
0000
1000
0001
,  // measure 55
0010
0000
0000
0100
0000
0000
0010
0000
0001
0000
0000
0000
0000
0000
0010
0100
,  // measure 56
0010
0000
0000
0100
0000
0000
1000
0000
0002
0000
0000
0000
0000
0000
0000
0000
,  // measure 57
0100
0100
1000
1000
,  // measure 58
0020
0000
0033
0000
,  // measure 59
0100
0000
0000
0100
0000
0000
1000
0000
0001
0000
0000
0000
0000
0000
1000
0010
,  // measure 60
1000
0000
0000
1000
0000
0000
0010
0000
0100
0000
0000
0000
0000
0000
0001
0100
,  // measure 61
0001
0000
0000
0010
0000
0000
0001
0000
1000
0000
0000
0100
0000
0000
1000
0000
,  // measure 62
0010
0000
0000
0100
0000
0000
0001
0000
0010
0000
0000
0000
0000
0000
0100
0010
,  // measure 63
0100
0000
0000
0010
0000
0000
0001
0000
0001
0000
0000
0000
0000
0000
0010
0100
,  // measure 64
0010
0000
0000
0100
0000
0000
1000
0000
1000
0000
0000
0000
0000
0000
0001
0100
,  // measure 65
0001
0000
1000
0001
0000
0100
0000
0010
,  // measure 66
1000
0001
0100
0010
1000
0001
0100
0010
,  // measure 67
1000
0001
0000
0010
0000
0001
0000
0100
0000
0010
0000
1000
0000
0100
0000
0010
,  // measure 68
0100
0000
0000
1100
0000
0000
0101
0000
0000
0000
0000
0000
0000
0000
0000
0000
;

//---------------dance-single - Pandemonium X----------------
#NOTES:
     dance-single:
     Pandemonium X:
     Challenge:
     15:
     0.621857,0.712902,0.451809,0.043443,0.560416,501.000000,449.000000,52.000000,5.000000,0.000000,0.000000,0.621857,0.712902,0.451809,0.043443,0.560416,501.000000,449.000000,52.000000,5.000000,0.000000,0.000000:
0000
0000
0000
0000
,
0000
0000
0000
0000
,
0000
0000
0000
0000
,
0000
0000
0000
0000
,
0000
0000
0000
0000
0000
0000
0000
0000
0000
0000
0000
0000
0000
0000
0001
0100
,
0001
0000
0000
0100
0000
0000
0010
0000
1000
0000
0000
0000
0000
0000
0100
1000
,
0100
0000
0000
1000
0000
0000
0001
0000
1000
0000
0000
0000
0000
0000
0010
1000
,
0010
0000
0100
0001
0000
0001
0000
0001
,
0010
0000
0001
0000
0100
0000
1000
0100
0001
1000
0001
1000
0001
0000
0000
0000
,
1000
0000
0000
0100
0000
0000
1000
0000
0000
0010
0000
0000
0100
0000
0010
0000
,
1000
0000
0000
0001
0000
0000
0010
0000
0000
0100
0000
0010
0001
0000
0100
0000
,
0010
0000
0000
1000
0000
0000
0001
0000
0000
1000
0000
0000
0010
0000
0100
0000
,
0001
0000
0000
0010
0000
0000
0100
0000
0000
1000
0000
0100
0010
0000
0100
0000
,
1000
0000
0000
0100
0000
0000
1000
0000
0000
0010
0000
0000
0100
0000
0010
0000
,
1000
0000
0000
0001
0000
0000
1000
0000
0000
0001
0000
0010
0100
0000
0010
0000
,
0001
0000
0000
0100
0000
0000
0010
0000
0000
1000
0000
0000
0001
0000
1000
0000
,
0010
0000
0000
1000
0000
0000
0001
0000
0011
0000
0000
0000
1001
0000
0000
0000
,
0101
0000
0001
0000
0100
0000
0010
0000
1000
0000
0100
0010
0000
0000
0100
0000
,
1000
0000
0010
0000
0100
0000
0001
0000
1000
0000
0100
0010
0000
0000
0100
0000
,
1000
0001
0100
0001
1000
0100
1000
0001
,
0010
0000
0010
0100
0000
0100
1000
0000
0100
0000
0010
0001
0100
0000
0010
0000
,
1001
0000
0101
0000
0001
1000
0010
0000
,
1000
0010
0001
0010
0100
0001
1000
0000
,
1001
0000
0000
0000
0000
0000
0000
0000
0000
0000
0101
0000
0000
1010
0000
0000
,
1001
0000
0000
1100
0000
0000
0110
0000
0011
0000
0010
0100
1000
0000
0001
0000
,
0200
0000
0000
0000
,
0310
0000
0000
1010
0000
0000
0101
0000
0001
0010
0000
0010
0100
0000
0100
1000
,
0010
0000
0000
1010
0000
0000
0010
0000
1000
0001
0000
0001
0010
0000
0010
0001
,
0100
0000
0000
0101
0000
0000
0001
0000
0011
0000
0000
1100
0000
0000
0100
0000
,
1001
0000
0000
0101
0000
0000
0010
0000
1001
0000
0001
1000
0010
0000
0100
0001
,
1000
0000
0000
0011
0000
0000
0001
0000
0101
0000
0001
1000
0010
0000
0100
0000
,
0101
0000
0000
1010
0000
0000
1000
0000
1100
0000
0100
0010
0001
0000
0010
0000
,
0001
0000
1000
0001
0000
0100
0000
0010
,
1000
0000
0001
0000
0100
0000
0010
0100
0000
0000
0000
0000
1001
0000
0000
0000
,
1000
0000
0100
1000
0000
0010
0000
0100
0000
0001
0000
0010
0100
0000
0010
0000
,
0001
0000
1000
0001
0000
0100
0000
0001
0000
0010
0000
0100
1000
0000
0100
0000
,
1000
0000
0001
0100
0000
1000
0000
0100
0000
0010
0000
1000
0010
0000
1000
0000
,
0001
0000
0010
1000
0000
0010
0000
0100
0000
0010
0000
0001
0100
0000
0001
0000
,
1000
0000
0010
0100
0000
0001
0000
0010
0000
1000
0000
0010
0100
0000
0010
0000
,
0001
0001
0001
0001
0001
0001
0001
0001
,
1000
1000
1000
1000
1000
1000
1000
1000
,
0010
0010
0010
0010
0010
0010
0010
0010
,
0100
0101
0001
1100
,
1000
0110
0001
1010
,
1000
1100
1000
0011
,
1100
0001
0101
1001
,
0001
0100
0010
1000
0001
0010
0001
0000
,
0010
0001
0100
0010
1000
0100
0010
0000
,
0100
0010
0100
1000
0001
0100
0010
1000
,
0001
0010
0100
0010
0001
0100
0010
1000
,
0001
0001
0010
0100
0100
1000
0010
0100
0001
1000
0100
0010
,
0001
0000
0000
0001
0000
0000
0001
0000
1000
0000
0000
0000
0000
0000
0001
1000
,
0001
0000
0000
1000
0000
0000
0001
0000
0200
0000
0000
0000
0000
0000
0000
0000
,
0001
0000
0001
0000
,
0001
0000
0000
0000
0001
0000
0000
0000
0001
0000
0000
0000
0301
0000
0100
0010
,
1000
0000
0000
0100
0000
0000
0010
0000
0011
0000
0000
0000
0000
0000
0001
0010
,
0100
0000
0000
0010
0000
0000
0001
0000
2000
0000
0000
0000
0010
0000
0000
0000
,
0010
0001
0001
3100
,
2002
0000
3003
0011
0000
0001
0010
0100
,
1001
0000
0000
1010
0000
0000
0101
0000
0001
0010
0000
0010
0100
0000
0010
0001
,
0100
0000
0000
1010
0000
0000
0010
0000
0100
0001
0000
1000
0100
0000
0010
0100
,
1000
0000
0000
1100
0000
0000
0001
0000
0101
0000
0000
0011
0000
0000
0001
0000
,
1001
0000
0000
1010
0000
0000
1001
0000
0011
0000
0010
0100
1000
0000
1000
0100
,
0010
0000
0000
1100
0000
0000
1000
0000
1000
0010
0000
0010
0100
0000
0010
1000
,
0001
0000
0000
1001
0000
0000
0001
0000
0010
0100
0000
0100
1000
0000
0100
1000
,
0010
0000
0100
0000
0010
1000
0001
0000
0010
0000
0100
0000
0010
0001
1000
0000
,
0001
0100
0001
0000
0100
0010
0100
0000
0010
1000
0010
0000
1000
0001
1000
0000
,
0001
1000
0000
0100
0000
0001
0000
0100
0000
1000
0000
0010
0000
0001
0000
0010
,
1000
0000
0001
0100
0000
0010
0100
0000
0000
0000
0000
0000
0000
0000
0000
0000
;
