#TITLE:Anubis;
#SUBTITLE:;
#ARTIST:ARForest;
#TITLETRANSLIT:;
#SUBTITLETRANSLIT:;
#ARTISTTRANSLIT:;
#GENRE:;
#CREDIT:;
#MUSIC:Anubis.ogg;
#BANNER:;
#BACKGROUND:Anubis-bg.png;
#CDTITLE:;
#SAMPLESTART:94.943;
#SAMPLELENGTH:11.652;
#SELECTABLE:YES;
#OFFSET:1.057;
#BPMS:0.000=82.500
,44.000=165.000
,56.000=82.500
,57.000=165.000
,155.000=82.500
,171.000=165.000
,185.000=82.500
,186.000=165.000
,198.000=82.500
,199.000=165.000
;
#STOPS:;
#BGCHANGES:;
#FGCHANGES:;

//--------------- dance-single - Pandemonium X ----------------
#NOTES:
     dance-single:
     Pandemonium X:
     Beginner:
     4:
     0,0,0,0,0:
0000
0000
0000
0000
,
0000
0000
0000
0000
,
0000
0000
0000
0000
,
0000
0000
0000
0000
,
0000
0000
0000
0000
,
0001
0000
1000
0000
,
0010
0000
0100
0000
,
0001
0000
1000
0000
,
0100
0000
0100
0010
,
1001
0000
0000
0000
,
0000
0000
0000
0000
,
0001
0000
0000
0000
,
1000
0000
0000
0000
,
0010
0000
0100
0001
,
1000
0001
0000
1000
,
0000
0000
0001
0000
,
0000
0010
0000
0001
,
0000
0000
0100
0000
,
0000
0010
0000
1000
,
0000
0000
0000
0000
,
0000
0000
0000
0001
,
0000
1000
0000
0010
,
0000
1000
0000
0000
,
0000
1001
0000
0000
0000
0000
0000
0000
,
0000
0001
0000
1000
,
0000
0010
0000
0000
,
0000
1000
0000
0001
,
0000
1000
0000
0000
0000
0000
0000
0000
,
0000
0000
0000
0100
,
0000
0010
0000
0000
,
0000
0000
0000
0100
,
0000
0000
0000
0000
,
0000
1000
0000
0001
,
0000
0000
0000
0000
,
0000
0000
0000
0100
,
0000
0100
0000
0000
0000
0000
0000
0000
,
0000
0000
0000
0010
,
0000
0000
0000
1000
,
0000
0001
0000
1001
,
0000
0001
0000
1000
,
0000
0010
0010
0100
,
0000
0010
0010
0010
,
0000
0000
0000
1000
,
0000
0001
0000
1000
,
0000
0001
0000
1000
,
0000
0001
0000
1000
,
0000
0000
0010
0000
,
0100
0000
1000
0000
,
0010
0000
0100
0000
,
0001
0000
1001
0000
,
0000
0001
0000
0001
,
0000
0001
0000
0001
,
0000
1000
0000
1000
,
0000
1000
0000
1000
,
0000
0010
0000
0010
,
0100
0100
0000
0010
,
0000
0100
0000
0001
,
0000
1001
0000
0000
,
0000
1000
0000
1000
,
0000
0001
0000
0001
,
0000
0010
0000
0010
,
0000
0100
0000
0100
,
0000
0110
0000
0000
,
0000
0000
0000
0000
,
0000
0000
0001
0000
0000
1000
0000
0000
,
0001
0000
0000
1000
0000
0000
0001
0000
,
1000
0110
0000
0000
;

//--------------- dance-single - Pandemonium X ----------------
#NOTES:
     dance-single:
     Pandemonium X:
     Easy:
     7:
     0,0,0,0,0:
0000
0000
0000
0000
,
0000
0000
0000
0000
,
0000
0000
0000
0000
,
0000
0000
0000
0000
,
0000
0000
0000
0000
,
0001
0100
0001
0000
1000
0100
1000
0000
,
0010
1000
0010
0000
0100
0001
0010
0100
,
1000
0001
1000
0000
0001
0010
0001
0000
,
1000
0100
1000
0100
0010
0001
0010
0100
,
1001
0000
0000
0000
,
0000
0000
0000
0000
,
0001
1000
0001
1000
,
0010
0100
0010
0100
,
0010
1000
0001
0100
,
0020
0030
0000
0100
,
0000
0010
0000
1000
,
0000
0000
0001
2000
0000
0000
3100
0000
,
0000
0010
0000
0001
,
0000
1000
0100
1000
,
0000
0020
0000
0000
0000
0000
0000
0000
,
0000
0000
0130
1001
,
0000
1010
0000
0101
,
0000
0011
0000
0100
,
0000
1001
0000
0000
0000
0000
0000
0000
,
0000
1000
0001
0100
,
0000
0001
0000
0010
,
0000
0100
0010
0001
,
0000
0000
1000
0000
0000
0000
0000
0000
0000
0000
0000
0000
0000
0001
0000
0000
,
0000
0000
0200
0310
,
0000
0000
1000
0000
0000
1001
0000
0000
,
0000
0000
0000
0001
,
0000
0001
0000
0000
0001
0000
0000
0000
,
0000
0000
0000
1000
,
0000
1000
0000
0000
1000
0000
0000
0000
,
0000
0000
0000
0010
,
0000
0100
0000
0000
0001
0000
0000
1000
,
0000
0100
1000
0001
,
0000
1000
0000
0000
0010
0000
0000
1000
,
0000
0100
0010
0001
,
0010
0100
1000
0100
,
0010
0000
0001
0000
0100
0010
1000
0000
,
0000
0001
1000
0200
,
0000
0000
0300
0010
,
0000
0001
0000
1000
,
0000
0010
0000
0100
,
0000
0001
0000
1000
,
0000
0000
0000
1001
1000
0000
0001
0000
,
0010
0001
1000
0010
,
1000
0001
1000
0100
,
0010
0001
1000
0001
,
1001
1100
0000
0101
,
0000
0011
0000
1100
,
0000
1010
0000
0101
,
0000
1001
0000
1100
,
0000
1001
0000
1010
,
0010
0100
0001
1000
,
0100
0010
0100
1000
,
1000
0001
0100
0010
,
1000
1001
0000
0011
,
0000
1001
0000
1100
,
0000
1010
0000
0101
,
0000
0011
0000
0110
,
0000
1100
0002
0000
,
0000
0000
0000
0000
,
0000
0000
1003
0000
0000
0001
0000
0000
,
0100
0000
0000
0010
0000
0000
1000
0000
,
0001
0110
0000
0000
;

//--------------- dance-single - Pandemonium X ----------------
#NOTES:
     dance-single:
     Pandemonium X:
     Medium:
     12:
     0,0,0,0,0:
0000
0000
0000
0000
,
0000
0000
0000
0000
,
0000
0000
0000
0000
,
0000
0000
0000
0000
,
0000
0000
0000
0000
,
0001
0000
0100
0000
0010
0000
0000
0100
0000
0010
0000
0000
1000
0000
0000
0000
,
0100
0000
1000
0000
0001
0000
0000
1000
0000
0001
0100
0001
0100
0000
0010
1000
,
0001
0000
1000
0000
0100
0000
0000
1000
0000
0010
0000
0000
0100
0000
0010
0000
,
1000
0001
0100
0010
0000
0000
0100
0010
1000
0001
0000
0100
0000
0010
1000
0100
,
0110
0000
0000
0000
0000
0000
0000
0000
0000
0000
0000
0200
0000
0000
0000
0000
,
0300
0000
0000
0000
0000
0000
0000
0000
0000
0010
0001
0010
0000
0100
1000
0100
,
0010
0010
0001
0001
,
1000
1000
0100
0100
,
1000
0010
1000
0010
0100
0010
0100
0001
,
0010
0000
0000
0000
0100
0000
0000
0010
0000
0000
0001
0000
1000
0000
0000
0001
,
0000
0000
0100
0000
0001
0000
0000
0000
0100
0000
0000
0010
0000
0000
1000
0000
,
0001
0000
0000
0000
0001
0000
2000
0000
0000
0000
0000
0000
3010
0000
0000
0010
,
0000
0000
0010
0000
0100
0000
0000
0000
0001
0000
0000
1000
0000
0000
0100
0000
,
0010
0000
0100
0000
1000
0001
0100
0000
,
0000
0010
0000
0100
0000
0010
0000
1000
0000
0001
0000
0010
,
0000
0000
0000
0000
0100
0000
0000
0000
0000
0000
0000
0000
1000
0000
0000
0000
0000
0000
0001
0000
0000
0000
0000
0000
0200
0000
0000
0000
0000
0000
0000
0000
0000
0000
0000
0000
0310
0000
0000
0000
0000
0000
0000
0000
0000
0010
0000
0000
,
0000
0000
0010
0000
1000
0000
0000
1000
0000
0000
1000
0000
0001
0000
0000
0001
,
0000
0000
0001
0000
0010
0000
0000
0010
0000
0000
0010
0000
0000
0000
0000
0000
,
0000
2002
0000
0000
0000
0000
0000
0000
,
0000
0000
0000
0000
3003
0000
0000
0000
0000
0000
0000
0000
1000
0000
0000
1000
,
0000
1000
0000
0000
0001
0000
0100
0000
0010
0000
0100
0000
0000
0000
0000
0000
,
0010
0000
0000
1000
0000
0000
0100
0010
0001
1000
0000
0000
,
0000
0000
0001
0000
1000
0000
0100
0000
0010
0000
0100
0000
0000
0010
0000
0001
,
0000
0100
0000
0010
1000
0000
0002
0000
0000
0000
0000
0000
0013
0000
0000
0010
,
0000
0000
0010
0000
0100
0000
0000
0100
0000
0000
1100
0000
0000
0000
0000
0000
,
0000
0000
0000
0100
,
0000
1000
0000
0000
0010
0000
0100
0001
,
0000
0010
0100
0010
,
0000
0001
0000
1000
0010
0000
1000
0001
,
0000
0000
0010
0100
0010
0001
1000
0000
,
0000
0001
0000
0000
0100
0000
0000
0001
,
0000
0010
0100
1000
,
0000
0100
0000
0000
1000
0000
0000
0010
,
0100
0001
1000
0100
0010
0001
2001
0000
,
3002
0203
0302
0023
,
0032
0000
2003
0000
3100
1000
0020
0000
,
0000
2030
3002
2000
,
0000
0000
3003
0001
,
0001
1000
1000
0010
,
0010
0100
0100
0001
,
0100
0001
1000
0100
,
0010
0000
0000
0000
0000
0000
0110
0000
0100
0000
0000
0100
0000
0000
0100
0000
,
1000
0000
0000
1000
0000
0000
1000
0000
0001
0000
0000
0001
0000
0000
0001
0000
,
0100
0000
0000
0100
0000
0000
0100
0000
0010
0000
1000
0000
0010
0000
1000
0000
,
0001
0100
0001
0010
0100
0000
0110
0000
,
1001
0000
0000
0000
0001
0000
0000
1000
0000
1000
0000
0000
0001
0000
0000
0100
,
0000
0100
0000
0000
0010
0000
0000
1000
0000
1000
0000
0000
0100
0000
0000
0010
,
0000
0010
0000
0000
0100
0000
0000
1000
0000
1000
0000
0000
0100
0000
0000
0010
,
0000
0010
0000
0000
0001
0000
0000
0100
0000
0100
0000
0000
0001
0000
0000
0000
,
0010
0001
0100
0000
0010
0000
1000
0000
,
0001
1000
0100
0001
0100
1000
0001
0100
,
0020
0000
1030
0000
0010
0100
0101
0000
,
1001
0200
0320
0032
,
2003
0000
0000
0000
3010
0000
0000
1000
0000
1000
0000
0000
0100
0000
0000
0010
,
0000
0010
0000
0000
0100
0000
0000
1000
0000
1000
0000
0000
0100
0000
0000
0010
,
0000
0010
0000
0000
0001
0000
0000
0100
0000
0100
0000
0000
0010
0000
0000
1000
,
0000
1000
0000
0000
0001
0000
0000
0010
0000
0010
0000
0000
0100
0000
0010
0000
,
0001
0000
0000
1000
0000
0000
0001
0100
0001
0100
0010
0100
,
0010
1000
0010
1000
0001
1000
0001
0010
0100
1000
0100
0010
,
0001
0000
0000
0000
1000
0000
0000
0000
0100
0000
0000
0000
0010
0000
0000
0000
0000
0000
0000
0000
0000
0010
0000
0000
0000
0000
0000
0000
0000
0000
0001
0000
0000
0000
0000
0000
0000
0000
0000
0001
0000
0000
0000
0000
0000
0000
0000
0000
,
1000
0000
0000
1000
0000
0000
0010
0000
0000
0010
0000
0000
0100
0000
0000
0010
,
0000
0000
1000
0001
1000
0000
0000
0000
0000
0000
0000
0000
0000
0000
0000
0000
;

//--------------- dance-single - Pandemonium X ----------------
#NOTES:
     dance-single:
     Pandemonium X:
     Hard:
     14:
     0,0,0,0,0:
0000
0000
0000
0000
,
0000
0000
0000
0000
,
0000
0000
0000
0000
,
0000
0000
0000
0000
,
0000
0000
0000
0000
,
0001
0000
0100
0000
1010
0000
1000
0001
0000
0001
0010
0000
0110
0000
0000
0000
,
0100
0000
1000
0000
0011
0000
0001
1000
0000
1000
0100
0100
0010
0000
0001
0100
,
0001
0000
1000
0000
1001
0000
0000
1000
0000
0001
0010
0000
0100
0000
0010
0000
,
0001
0100
0010
1000
0000
0000
1000
0010
0100
0001
0000
0010
0000
0100
0010
0001
,
1001
0000
0000
0000
0000
0000
0000
0000
0000
0000
0000
0000
0000
0000
0000
0000
0000
0000
0000
0000
0000
0000
1000
0000
0000
0000
0100
0000
0010
0000
0001
1000
,
0010
0000
0000
0000
0000
0000
0000
0000
0000
0100
0001
0010
0000
0010
0100
1000
,
0001
0001
1000
1000
,
0010
0010
0100
0100
,
0001
0100
0001
0100
0010
1000
0010
1000
,
0001
0000
0000
0000
1000
0000
0100
1000
0000
0100
0010
0001
1000
0000
0000
1100
,
0000
0000
1000
0000
1010
0000
0000
0000
0110
0000
0000
0101
0000
0000
0001
0000
,
1000
0000
0000
0000
0100
0000
0020
0000
0000
0000
0000
0000
0031
0000
0000
1100
,
0000
0000
0001
0000
1000
0000
0000
0000
0110
0000
0000
0101
0000
0000
0001
0000
,
1000
0000
0100
0000
0010
0000
0000
0001
1000
0000
0010
0000
0101
0000
0000
0000
,
0000
1000
0100
1000
0001
0100
0001
1000
0010
0100
0001
0010
,
0100
0000
0000
0000
1000
0000
0000
0000
0100
0000
0000
0000
0010
0000
0000
0000
0001
0000
0000
0000
1000
0000
0000
0000
0020
0000
0000
0000
0000
0000
0000
0000
0000
0000
0000
0000
0130
0000
0000
0000
0000
0000
0000
0000
0000
0101
0000
0000
,
0000
0000
0001
0000
0100
0000
0000
0101
0000
0000
0001
0000
0010
0000
0000
0110
,
0000
0100
1000
0100
0001
0100
1000
0000
,
0000
0202
0000
0000
0000
0000
0000
0000
,
0303
0000
0000
0000
1010
0000
1000
0010
0000
0100
0001
0000
1000
0000
0000
0110
,
0000
0011
0000
0000
0001
0000
0010
0100
0010
0000
0001
0000
0100
0000
0010
0000
,
1000
0000
0000
0001
0000
0000
1000
0000
0000
0001
0000
0000
1000
0000
0000
0000
0000
0000
0000
0000
0000
0001
0000
0000
0010
0000
0000
0000
0100
0000
0000
0000
0010
0000
0000
0000
0100
0000
0000
0000
0000
0000
0000
0000
0000
0000
0000
0000
,
0000
0000
0000
0000
0000
0000
0100
0000
0000
1000
0000
0000
0001
0000
0000
0000
0100
0000
0000
0000
0001
0000
0000
0000
1000
0000
0000
0000
0010
0000
0000
0000
1000
0000
0000
0000
0000
0000
0000
0001
0000
0000
1000
0000
0000
0001
0000
0000
,
1000
0000
0000
0000
0100
0000
0000
0000
1000
0000
0000
0000
0001
0000
0000
0000
0100
0000
0000
0000
0010
0000
0000
0000
1000
0000
0000
0000
0001
0000
0000
0000
0010
0000
0000
0000
0100
0000
0000
0000
0000
0000
0000
0000
0000
1100
0000
0000
,
0000
0000
1000
0000
0010
0000
0100
0010
0000
0100
0002
0000
0000
0000
0000
0000
,
0000
0000
0000
0000
1003
0100
0010
0000
,
0000
0100
0000
1000
0001
0000
0100
0101
,
0000
0000
0001
1000
0010
0100
0001
0000
,
0000
1000
0000
0001
1000
0000
0001
1001
,
0000
0010
1000
0010
0001
1000
0010
0000
,
0100
0001
0000
0010
0100
0000
0010
0001
,
0000
0010
0100
1000
0010
0100
0001
0000
,
0000
1000
0000
0000
0001
0000
0010
0000
,
0100
0000
1000
0000
0001
0010
2100
0000
,
3200
0320
0032
0203
,
0320
0000
2030
0000
3002
2003
3002
0000
,
0000
0023
0230
2300
,
0000
0000
0000
0000
0000
3000
1001
0000
,
0001
1000
0010
1000
,
0001
0010
0001
1000
,
0010
1000
0001
0010
,
0001
0000
0000
0000
0000
0000
0110
0000
1001
0000
0000
0001
0100
0000
0000
0100
,
0010
0000
0000
0010
1000
0000
0000
1000
0100
0000
0000
0100
0010
0000
0000
0010
,
0001
0000
0000
0001
0010
0000
0000
0010
0100
0000
1000
0000
0010
0000
0100
0000
,
0001
1000
0001
1000
0010
0100
0010
0100
0002
0000
0000
0000
0013
0000
0000
0010
,
0100
0000
1000
0000
1001
0000
0000
0001
0000
1000
0000
0000
1010
0000
0000
1000
,
0000
0100
0000
0000
0110
0000
0000
0100
0000
1000
0000
0000
0110
0000
0000
0100
,
0000
0001
0000
0000
0011
0000
0000
0001
0000
1000
0000
0000
1010
0000
0000
1000
,
0000
0001
0000
0000
0101
0000
0000
0001
0000
0010
0000
0000
0110
0000
0000
0100
,
0000
1000
0000
0010
0100
0000
0000
0010
0000
1000
0000
0000
1001
0000
0000
0000
,
0001
1000
0010
0001
0010
0100
0010
1000
,
0100
0000
0000
0010
0000
0000
0002
0000
0000
0000
0000
0000
0103
0000
0001
0000
0100
0000
0010
0000
1000
0000
0001
0000
,
0010
0000
0001
0000
1000
0000
0100
0000
0000
0010
0000
0000
0001
0000
0000
0010
0000
0000
0100
0000
0000
0010
0000
0000
,
0001
0000
1000
0000
1100
0000
0000
0010
0000
0001
0000
0000
1001
0000
0000
1000
,
0000
0001
0000
0000
1100
0000
0000
1000
0000
0100
0000
0000
0011
0000
0000
0010
,
0000
0100
0000
0000
0110
0000
0000
0100
0000
1000
0000
0000
1100
0000
0000
1000
,
0000
0010
0000
0000
0110
0000
0000
0100
0000
0001
0000
0000
0011
0000
0000
0001
,
0000
0000
0000
1000
0000
0000
0000
0000
0000
0001
0000
0000
0100
0000
0000
0000
0000
0000
0000
0000
0000
0000
0000
0000
0001
0000
0000
0000
1000
0000
0000
0000
0010
0000
0000
0000
1000
0000
0000
0000
0001
0000
0000
0000
0010
0000
0000
0000
,
0100
1000
0100
1000
0001
0100
0001
0010
0100
1000
0100
0010
,
0001
0000
0000
0000
0010
0000
0000
0000
0100
0000
0000
0000
0110
0000
0000
0000
0000
0000
0000
0000
0000
0011
0000
0000
0000
0000
0000
0000
0000
0000
1010
0000
0000
0000
0000
0000
0000
0000
0000
0101
0000
0000
0000
0000
0000
0000
0000
0000
,
0011
0000
0000
1100
0000
0000
1010
0000
0000
0101
0000
0000
1001
0000
0010
0100
,
0000
0001
1000
0100
0020
0000
0000
0000
0000
0000
0000
0000
0000
0000
0000
0000
,
0000
0000
0000
0000
,
0030
0000
0000
0000
;

//--------------- dance-single - Pandemonium X ----------------
#NOTES:
     dance-single:
     Pandemonium X:
     Challenge:
     16:
     0,0,0,0,0:
0000
0000
0000
0000
,
0000
0000
0000
0000
,
0000
0000
0000
0000
,
0000
0000
0000
0000
,
0000
0000
0000
0000
,
0001
0000
1000
0000
1100
0000
0100
0010
0000
0001
0000
0000
1001
0001
0100
0001
,
0010
0000
0000
0000
0100
0000
0000
0000
1100
0000
0000
0000
1000
0000
0001
0000
0000
0000
0100
0010
0100
0000
0010
0000
1000
0000
0100
0000
0010
0100
1000
0001
,
1000
0000
0100
0000
0110
0000
0010
0001
0000
0010
0100
0000
0010
0001
0100
1000
,
0100
0000
0001
0000
0010
0000
1000
0000
0000
0000
0000
0000
0010
0000
0001
0000
0100
0000
0010
0000
0000
0000
1010
0000
0000
0000
0100
0000
0001
0100
0001
1000
,
0001
0000
0000
0000
0000
0000
0000
0000
0000
0000
0000
0000
0000
0000
0000
0000
0000
0000
0000
0000
0000
0000
1000
0000
0000
0000
0100
0000
0010
0001
1000
0100
,
0010
0001
0000
0000
0000
0000
0000
0000
0000
0000
0000
0000
0000
0000
0000
0000
0000
0000
1000
0000
0100
0000
1000
0000
0000
0000
0100
0000
0010
0000
0001
0000
,
1000
0100
0010
0001
,
1000
0010
0100
0001
,
1000
0000
0001
0000
1000
0000
0010
0000
0100
0001
0100
0001
1000
0010
1000
0001
,
0000
0000
0000
0000
1000
0100
0001
0100
0000
0010
0001
1000
0010
0000
0000
0110
,
0000
0000
0100
0010
1000
0000
0000
0000
1001
0000
0000
0011
0000
0000
0010
0001
,
2000
0000
0000
0000
3010
0000
0100
0001
0100
0001
0100
0001
0010
0000
0000
0110
,
0000
0000
0100
1000
0010
0000
0000
0000
0110
0000
0000
0101
0000
0000
0001
0010
,
0001
0010
0100
1000
0100
0000
0000
1000
0010
0000
1000
0000
1010
0000
0000
0000
,
0000
0001
0100
1000
0100
0010
1000
0001
0010
1000
0010
0001
,
0100
0000
0000
0000
0100
0000
0000
0000
0001
0000
0000
0000
1000
0000
0000
0000
1000
0000
0000
0000
0100
0000
0000
0000
0020
0000
0000
0000
0000
0000
0000
0000
0000
0000
0000
0000
0032
0000
0000
0000
0000
0000
0000
0000
0000
1003
0000
0000
,
0000
0000
1000
0010
0200
0000
0000
0301
0000
0000
0001
1000
0200
0000
0000
0310
,
0000
0000
0100
1000
0001
1000
0001
0010
0100
1000
0100
0010
0200
0000
0000
0000
,
0300
2002
0000
0000
0000
0000
0000
0000
,
3003
0000
0000
0000
0101
0000
0100
0010
0000
0100
0010
1000
0200
0000
0000
0310
,
0000
0002
0000
0000
1003
0000
0010
1000
0010
0100
0001
1000
0200
0000
0310
0000
,
0001
0000
0000
1000
0000
0000
0001
0000
0000
1000
0000
0000
0001
0000
0000
0000
0000
0000
0000
0000
0000
0100
0000
0000
0001
0000
0000
0000
0001
0000
0000
0000
1000
0000
0000
0000
0001
0000
0000
0000
0000
0000
0000
0000
0000
0000
0000
0000
,
0000
0000
0000
0000
0000
0000
1000
0000
0000
0001
0000
0000
1000
0000
0000
0000
1000
0000
0000
0000
0001
0000
0000
0000
0100
0000
0000
0010
0000
0000
0100
0000
0000
0010
0000
0000
0000
0000
0000
1000
0000
0000
0010
0000
0000
0100
0000
0000
,
0001
0000
0000
0000
0001
0000
0000
0000
0010
0000
0000
0000
0100
0000
0000
0000
0000
0000
0010
0000
0000
0001
0000
0000
1000
0000
0000
0100
0000
0000
0010
0000
0000
0001
0000
0000
1000
0000
0000
0000
0000
0000
0000
0000
0000
1100
0000
0000
,
0000
0000
0010
0001
0100
0000
0100
0001
0000
2000
0002
0000
0000
0000
0000
0000
,
0000
0000
0000
0000
3003
0000
0001
0000
0001
0010
0100
1000
0001
0000
0000
0000
,
0000
0000
0010
0000
0000
0000
0100
1000
0010
0000
0100
0000
0001
0000
0010
0000
,
0000
0000
0100
0010
0001
1000
0010
1000
,
0001
0010
0000
0100
0010
0001
1000
0010
,
0000
0000
1000
0100
0010
0000
0100
1000
0010
0000
0010
0000
0200
0000
0001
0000
,
0301
0000
0020
0000
0100
0000
0130
0010
0002
0000
1000
0000
1003
0000
0010
0000
,
0000
0100
0020
0000
0100
0130
0010
0000
,
1000
0200
0000
1300
0010
0200
0000
0301
,
0010
1000
0010
0100
0010
0001
1002
0000
,
2003
3200
0320
0230
,
2300
0000
3002
0000
0203
0302
0023
0000
,
0000
0230
2300
0002
,
0000
0000
0000
0000
0000
0000
0000
0000
0000
0000
3003
0000
2100
0000
0000
0010
,
0000
3010
0000
0000
0102
0000
0000
0010
0000
0013
0000
0000
2100
0000
0000
0010
,
0000
3010
0000
0000
0102
0000
0000
0010
0000
0013
0000
0000
2100
0000
0000
0010
,
0000
3010
0000
0000
0102
0000
0000
0010
0000
0013
0000
0000
1100
0000
1000
0100
,
1000
0000
0010
0000
0000
0000
1001
0000
0001
0100
0010
0000
1000
0001
0010
0000
,
0100
0010
0001
0000
1000
0100
0010
0000
0100
1000
0010
0000
0100
0001
1000
0000
,
0001
1000
0100
0000
0010
0100
1000
0000
0010
0100
0010
1000
0001
1000
0001
0010
,
0001
0000
0000
1000
0000
0000
0100
0000
0000
1000
0000
0000
0010
0000
0000
0100
0000
0000
0001
0000
0000
0010
0000
0000
0100
0000
0000
0000
0000
0000
0000
0000
0000
0000
0000
0000
1001
0000
0000
0000
0001
0000
1000
0000
0001
0000
1000
0000
,
0001
1000
0001
0000
1001
0000
0001
0100
0000
0001
0010
0000
1001
0000
1000
0100
,
0000
1000
0010
0000
1001
0000
0010
0001
0000
0010
0100
0000
1001
0000
1000
0100
,
0000
0010
0100
0000
1100
0000
1000
0100
0000
1000
0010
0000
1010
0000
0010
0100
,
0000
0010
1000
0000
1001
0000
0001
0010
0000
0100
0010
0000
0011
0000
0010
0100
,
0000
0010
0001
0100
0010
0000
0100
0001
0000
0010
0100
0000
1100
0000
0000
0000
,
0100
0010
0001
1000
0100
1000
0010
0000
0100
0001
0010
0100
1000
0100
0010
0100
,
1000
0000
0100
0000
1000
0000
0100
0000
0000
0010
0000
0000
0001
0000
0000
0000
0000
0000
0000
0000
0000
0200
0000
0000
0310
0000
0000
0000
0010
0000
0000
0000
1000
0000
0000
0000
0001
0000
0000
0000
0010
0000
0000
0000
1000
0000
0000
0000
,
0010
0000
0000
0000
0001
0000
0000
0000
1000
0000
0000
0000
0100
0000
0000
0010
0000
0000
0001
0000
0000
0010
0000
0000
0100
0000
0000
0010
0000
0000
0001
0000
0000
1000
0000
0000
0100
0000
0000
0010
0000
0000
0001
0000
0000
0010
0000
0000
,
0100
0010
0001
1000
0001
0000
1000
0010
0000
0100
0001
0000
0011
0000
0010
0100
,
0000
0010
0001
0000
1010
0000
0010
1000
0000
0001
0100
0000
1001
0000
1000
0001
,
0000
0010
0100
0000
1100
0000
0100
1000
0000
0010
0100
0000
0101
0000
0001
0010
,
0000
0001
1000
0000
1100
0000
1000
0010
0000
0100
0001
0000
0011
0000
0010
0100
,
0000
0000
0000
0010
0000
0000
0001
0000
0000
1000
0000
0000
0010
0000
0000
0000
0000
0000
0000
0000
0000
0000
0000
0000
0100
0000
0000
0000
1000
0000
0000
0000
0100
0000
0000
0000
0001
0000
0000
0000
1000
0000
0000
0000
0100
0000
0000
0000
,
0002
0000
0000
0000
0103
0000
0000
0000
1000
0000
0000
0000
0010
0000
0000
0000
0100
0000
0000
0000
0001
0000
0000
0000
1000
0000
0000
0100
0000
0000
0010
0000
0000
0001
0000
0000
1000
0000
0000
0000
0010
0000
0000
0000
1000
0000
0000
0000
,
0001
0010
0100
1000
0001
0000
1000
0010
0000
0010
0001
0000
0001
0010
0000
0010
,
1000
0000
1000
0100
0000
0100
0001
0000
0001
0100
0000
0100
1000
0000
1000
0001
,
0000
0100
0010
2000
0002
0000
0000
0000
0000
0000
0000
0000
0000
0000
0000
0000
,
0000
0000
0000
0000
,
0000
3003
0000
0000
;
