#TITLE:A Stupid Barber;
#SUBTITLE:;
#ARTIST:Sho-T;
#TITLETRANSLIT:;
#SUBTITLETRANSLIT:;
#ARTISTTRANSLIT:;
#GENRE:;
#CREDIT:;
#MUSIC:A Stupid Barber.mp3;
#BANNER:;
#BACKGROUND:;
#CDTITLE:;
#SAMPLESTART:38.358;
#SAMPLELENGTH:14.537;
#SELECTABLE:YES;
#OFFSET:-0.198;
#BPMS:0.000=132.074;
#STOPS:129.500=0.909
,146.000=0.227
,146.500=0.227
,149.750=0.114
,150.000=0.114
,150.250=0.681
;
#BGCHANGES:;
#FGCHANGES:;

//--------------- dance-single - Pandemonium X ----------------
#NOTES:
     dance-single:
     Pandemonium X:
     Beginner:
     4:
     0,0,0,0,0:
0000
0000
0000
0000
,
0000
0000
0000
0000
,
0000
0000
0000
0000
,
0000
0000
0000
0000
,
0001
0000
0000
0000
,
1000
0000
0000
0000
,
0001
0000
0000
0000
,
1000
1000
1000
0000
,
0010
0000
0000
0000
,
0010
0000
0000
0000
,
0100
0000
0100
0000
,
0100
0100
0100
0000
,
1001
0000
0001
0000
,
1000
0000
0001
0000
,
0100
0000
0010
0000
,
0100
0000
0010
0010
,
0010
0000
1000
0000
,
0001
0000
0010
0000
,
0100
0000
1000
0000
,
0001
0001
0001
0000
,
0110
0000
0000
0000
,
1000
0000
0001
0000
,
1001
0000
0000
0000
,
0010
0000
0100
0000
,
0110
0000
0000
0000
,
1000
0000
0010
0000
,
1010
0000
0000
0000
,
0001
0000
0100
0000
,
0101
0000
0000
0000
,
0001
0000
1000
0000
,
0001
0000
0000
0000
,
0100
0000
0010
0000
,
0100
0000
0001
0000
,
1000
0000
0001
0000
,
0000
0000
1000
0000
,
0001
0000
1000
0000
,
0000
0000
0110
0000
,
0000
1001
0000
0001
,
0001
0001
0000
1001
,
0000
0000
0000
1000
,
1000
1000
0000
1001
,
0000
0000
0000
0010
,
0010
0100
0000
0110
,
0000
0010
0000
1000
,
0001
1000
0001
1001
,
1001
1001
0000
0001
,
1000
0001
1000
1001
,
1001
1001
0000
0010
,
0100
0010
0010
0110
,
0110
0110
0000
0100
,
0010
0100
0100
0110
,
0110
0110
0000
0002
,
0003
2000
3000
0020
,
0000
0030
0000
0000
;

//--------------- dance-single - Pandemonium X ----------------
#NOTES:
     dance-single:
     Pandemonium X:
     Easy:
     6:
     0,0,0,0,0:
0000
0000
0000
0000
,
0000
0000
0000
0000
,
0000
0000
0000
0000
,
0000
0000
0000
0000
,
0001
0000
0001
0000
,
1000
0000
1000
0000
,
0001
0000
1000
0000
,
0010
0010
0010
0000
,
1000
0000
0001
0000
,
1000
0000
0001
0000
,
1000
0000
0001
0000
,
0100
0100
0010
0010
,
1000
0010
1000
0000
,
0001
0100
0001
0000
,
0010
0001
0010
0000
,
0100
1000
0100
1000
,
0010
0100
0010
0000
,
1000
0001
1000
0000
,
0001
0010
0001
0000
,
1000
0100
0010
0001
,
2002
0000
3003
0000
,
1001
0011
0001
0010
,
0001
1000
0100
0000
,
1100
1010
0100
0001
,
1000
1000
1000
0000
,
1001
0101
0001
0010
,
0100
0100
0100
0000
,
0110
1100
0100
1000
,
0001
1000
0010
0000
,
1000
0100
0001
0010
,
1000
0001
0000
0000
,
0001
0100
1000
0010
,
0001
1000
0001
0001
,
1000
1000
0001
1000
,
0000
0000
1000
1000
,
0001
0001
1000
0001
,
1000
0000
0000
0000
0010
0010
0100
0000
,
0000
0000
0000
0000
2002
0000
0000
0000
0000
3003
0000
0000
1100
0000
0000
0000
,
1010
0001
0010
0001
,
0100
0010
0000
0110
,
0101
0001
0010
0001
,
1000
0010
0000
1010
,
0110
0010
0100
0001
,
0001
0001
0000
2100
,
0100
0010
0010
0001
,
0001
3001
0000
1002
,
1000
0100
0100
0010
,
0010
0013
0000
0011
,
1100
0101
1010
0001
,
1000
0010
0000
1010
,
0101
0011
1100
0100
,
1000
0010
0000
0100
,
0100
0000
0000
0000
0010
0000
0000
0000
1000
0000
0000
0000
0001
0000
0000
1000
,
0000
0001
0000
1000
0000
0000
0000
0000
0000
0000
0000
0000
0000
0000
0000
0000
;

//--------------- dance-single - Pandemonium X ----------------
#NOTES:
     dance-single:
     Pandemonium X:
     Medium:
     8:
     0,0,0,0,0:
0000
0000
0000
0000
,
0000
0000
0000
0000
,
0000
0000
0000
0000
,
0000
0000
0000
0000
,
0001
0000
0000
0001
0000
0000
0000
0000
1000
0000
0000
1000
0000
0000
0000
0000
,
0010
0000
0000
0010
0000
0000
0000
0000
0100
0000
0000
0100
0000
0000
0010
0000
,
1000
0000
0000
1000
0000
0000
0000
0000
0001
0000
0000
0001
0000
0000
0000
0000
,
0011
1010
0011
0000
,
0001
0000
0000
0001
0000
0000
0000
0000
1000
0000
0000
1000
0000
0000
0000
0000
,
0010
0000
0000
0010
0000
0000
0000
0000
0100
0000
0010
0000
0100
0000
0000
0000
,
0010
0000
0000
0010
0000
0000
0000
0000
1000
0000
0000
1000
0000
0000
0000
0000
,
1001
0000
0110
0000
0001
1000
0001
0000
,
1000
0000
0000
1000
0000
0000
1000
0000
0001
0000
0000
0001
0000
0000
0001
0000
,
0100
0000
0000
0100
0000
0000
0100
0000
0010
0000
0000
0010
0000
0000
0010
0000
,
1000
0000
0000
1000
0000
0000
1000
0000
0010
0000
0000
0010
0000
0000
0010
0000
,
0100
0000
0000
0100
0000
0000
0100
0000
0001
0000
0000
0000
0010
0000
0000
0000
,
0100
0000
0000
0100
0000
0000
0100
0000
1000
0000
0000
1000
0000
0000
1000
0000
,
0001
0000
0000
0001
0000
0000
0001
0000
0010
0000
0000
0010
0000
0000
0010
0000
,
0001
0000
0000
0001
0000
0000
0001
0000
1000
0000
0000
1000
0000
0000
1000
0000
,
1001
0000
0110
0000
1001
0110
1001
0000
,
0220
0000
0330
0000
,
0001
1000
0010
1000
,
0001
0000
0000
1000
0000
1000
0000
1000
0000
0000
0000
0000
0000
0000
0000
0000
,
0001
0010
0100
0010
,
0001
0000
0000
0100
0000
0100
0000
0100
0000
0000
0000
0000
0000
0000
0000
0000
,
0010
1000
0100
0010
,
0001
0000
0000
0010
0000
0010
0000
0010
0000
0000
0000
0000
0000
0000
0000
0000
,
0001
0100
0010
1000
,
0001
0000
0000
1000
0000
0010
0000
0100
0000
0000
0000
0000
0000
0000
0000
0000
,
0010
1000
0001
0010
,
0100
0000
0000
0010
0000
0000
0001
0000
0000
0000
0000
0000
0000
0000
0000
0000
,
0100
0010
1000
0001
,
1000
0000
0000
0001
0000
0000
0100
0000
0001
0000
0000
0000
1000
0000
0000
0000
,
0010
0000
0000
0000
1000
0000
0000
0000
0100
0000
0000
1000
0000
0000
0010
0000
,
0000
0000
0100
0001
,
0010
0000
0000
0000
0100
0000
0000
0000
0010
0000
0000
0001
0000
0000
1000
0000
,
0000
0000
0000
0000
0001
1000
0010
0000
,
0100
0000
0000
0000
0001
0000
0000
1000
1000
1000
0000
0000
0001
0000
0000
0000
,
1000
0000
0000
0000
0010
0000
0000
0000
1000
0000
0000
0000
0001
0000
0000
1000
,
0000
0100
0000
0010
0000
0000
0000
0000
0000
0000
0000
0000
0100
0000
0000
0000
,
1000
0000
0000
0000
0001
0000
0000
0000
0100
0000
0000
0000
0010
0000
0000
0100
,
0000
0001
0000
0010
0000
0000
0000
0000
0000
0000
0000
0000
0100
0000
0000
0000
,
0010
0000
0000
0000
0001
0000
0000
0000
1000
0000
0000
0000
0100
0000
0000
1000
,
0000
0010
0000
0100
0000
0000
0000
0000
0000
0000
0000
0000
0110
0000
0000
0000
,
0101
0000
0000
0000
0011
0000
0000
0000
0110
0000
0000
0000
0100
0000
0000
1000
,
0000
0100
0000
0010
0000
0000
0000
0000
0000
0000
0000
0000
0011
0000
0000
0000
,
1100
0000
0000
0000
0101
0000
0000
0000
1010
0000
0000
0000
1000
0000
0000
0001
,
0000
0010
0000
0100
0000
0000
0000
0000
0000
0000
0000
0000
0011
0000
0000
0000
,
1010
0000
0000
0000
0110
0000
0000
0000
0101
0000
0000
0000
0001
0000
0000
1000
,
0000
0010
0000
0100
0000
0000
0000
0000
0000
0000
0000
0000
1010
0000
0000
0000
,
1100
0000
0000
0000
1001
0000
0000
0000
0011
0000
0000
0000
0010
0000
0000
0001
,
0000
0100
0000
0010
0000
0000
0000
0000
0000
0000
0000
0000
0100
0000
0000
0000
,
0010
0000
0000
0000
1000
0001
0000
1000
0001
0000
1000
0000
0001
0000
0100
0010
,
0000
1000
0000
0100
0000
0000
0000
0000
0000
0000
0000
0000
0000
0000
0000
0000
;

//--------------- dance-single - Pandemonium X ----------------
#NOTES:
     dance-single:
     Pandemonium X:
     Hard:
     12:
     0,0,0,0,0:
0000
0000
0000
0000
,
0000
0000
0000
0000
,
0000
0000
0000
0000
,
0000
0000
0000
0000
,
0001
0000
0000
1000
0000
0000
0001
0000
0010
0000
0000
0001
0000
0000
1000
0000
,
0010
0000
0000
1000
0000
0000
0001
0000
1000
0000
0001
0000
0100
0000
0000
0000
,
0001
0000
0000
1000
0000
0000
0100
0000
1000
0000
0000
0001
0000
0000
0100
0000
,
0001
0000
0000
0000
0010
0000
0000
0100
1000
0000
0000
0000
1001
0000
0000
0000
,
0001
0000
0000
1000
0000
0000
0010
0000
1000
0000
0000
0001
0000
0000
0010
0000
,
0100
0000
0000
1000
0000
0000
0100
0000
1000
0000
0010
0000
0100
0000
0000
0000
,
0010
0000
0000
1000
0000
0000
0001
0000
0010
0000
0000
0100
0000
0000
0010
0000
,
0001
0100
0010
1000
0001
0010
0010
0000
,
0001
0000
0100
0001
0000
0000
0100
0000
0001
0000
0100
0001
0000
0000
0100
0000
,
0001
0000
0100
0001
0000
0000
0100
0000
0001
0000
0100
0001
0000
0000
0100
0000
,
0010
0000
1000
0010
0000
0000
1000
0000
0010
0000
1000
0010
0000
0000
1000
0000
,
0010
0000
1000
0010
0000
0000
1000
0000
0010
0000
0000
0000
1000
0000
0000
1000
,
0100
0000
0010
0001
0000
0000
0010
0000
0001
0000
0010
0001
0000
0000
0010
0000
,
0001
0000
0010
0001
0000
0000
0010
0000
0001
0000
0010
0001
0000
0000
0010
0000
,
0100
0000
1000
0100
0000
0000
1000
0000
0100
0000
1000
0100
0000
0000
1000
0000
,
0100
1000
0100
0001
0100
1000
0010
0000
,
2002
0000
3003
0000
,
0001
0000
0000
0000
1000
0000
0000
0000
0010
1000
0000
1000
0010
0000
0100
0000
,
0001
0000
1000
0001
0000
0100
0000
0010
0000
0000
0000
0000
0000
0100
0010
0000
,
1000
0000
0000
0000
0010
0000
0000
0000
0100
0001
0000
0001
0010
0000
0100
0000
,
1000
0000
0100
1000
0000
1000
0000
0001
0000
0000
0000
0000
0000
0000
0000
0000
,
0100
0000
0000
0000
0010
0000
0000
0000
1000
0001
0000
0010
0001
0000
0100
0000
,
0010
0000
1000
0001
0000
0001
0000
1000
0000
0000
0000
0000
0000
0100
0010
0000
,
0001
0000
0000
0000
0010
0000
0000
0000
0001
0100
0000
0100
0010
0000
1000
0000
,
0001
0000
1000
0001
0000
1000
0000
0001
0000
0000
0000
0000
0000
0000
0000
0000
,
1000
0000
0001
1000
0000
1000
0001
0000
0001
1000
0000
1000
0001
0000
1000
0000
,
0001
0000
1000
0001
0000
1000
0001
0000
0000
0000
0000
0000
0000
0000
0000
0000
,
0100
0000
0100
0010
0000
0010
0100
0000
0100
0010
0000
0010
0100
0000
0010
0000
,
0100
0000
0010
0100
0000
0010
0100
0000
0001
0000
0001
0100
0000
0010
1000
0000
,
0001
0100
0000
0010
1000
0000
0001
0000
1000
0000
0100
0010
0000
0010
0001
0000
,
0000
0000
0000
0000
0000
0000
0000
0000
0001
0000
1000
0010
0000
0100
0001
0000
,
1000
0010
0000
0100
0001
0000
1000
0000
0010
0000
0100
0010
0000
0010
1000
0000
,
0001
0000
1000
0000
0010
0000
1000
0000
1001
0000
0101
0000
0100
0010
0000
0100
,
0010
0000
0100
0000
0001
0000
1000
0001
1000
0110
0000
0000
1001
0000
0000
0000
,
1001
0000
0000
0000
0001
1000
0000
1000
0001
0000
0010
0000
0100
0000
1000
0100
,
0000
0010
0000
0001
0000
0000
0000
0000
0000
0000
0000
0000
0011
0000
0000
0000
,
0011
0000
0000
0000
0100
1000
0000
1000
0010
0000
0100
0000
0001
0000
1000
0001
,
0000
0100
0000
0010
0000
0000
0000
0000
0000
0010
0100
0000
0110
0000
0000
0000
,
0110
0000
0000
0000
1000
0001
0000
0001
0010
0000
0100
0000
0010
0000
0001
0100
,
0000
0010
0000
1010
0000
0000
0000
0000
0000
0000
0000
0000
0001
0000
1000
0000
,
0010
0000
1000
0000
0001
1000
0000
1000
0001
0000
0010
0000
0100
0000
1000
0100
,
0000
0010
0000
0011
0000
0000
0000
0000
0000
0000
0000
0000
0010
0000
0001
0000
,
0100
0000
0010
0000
1000
0001
0000
0001
0010
0000
0100
0000
0010
0000
0001
0100
,
0000
0010
0000
1010
0000
0000
0000
0000
0000
0000
0000
0000
1000
0000
0001
0000
,
0010
0000
0001
0000
0100
0001
0000
0010
0100
0000
1000
0000
0100
0000
1000
0010
,
0000
0100
0000
0101
0000
0000
0000
0000
0000
0001
0100
0000
0010
0000
0100
0000
,
0010
0000
1000
0000
0001
0010
0000
0010
0100
0000
1000
0000
0001
0000
1000
0010
,
0000
0100
0000
0001
0000
0000
0000
0000
0000
0000
0000
0000
1001
0000
0000
0000
,
0110
0000
0000
0000
0001
0100
0000
0010
1000
0000
0001
0000
1000
0000
0001
0010
,
0000
0010
0000
0001
0000
0000
0000
0000
0000
0000
0000
0000
0000
0000
0000
0000
;

//--------------- dance-single - Pandemonium X ----------------
#NOTES:
     dance-single:
     Pandemonium X:
     Challenge:
     14:
     0,0,0,0,0:
0000
0000
0000
0000
,
0000
0000
0000
0000
,
0000
0000
0000
0000
,
0000
0000
0000
0000
,
0001
0000
0000
0001
0000
1000
0000
0000
0000
0100
0000
0000
0010
0000
0000
0010
0000
0100
0000
0000
0000
1000
0000
0000
,
1000
0000
0000
0001
0000
1000
0000
0000
0000
0010
0000
0000
0100
0000
0000
0010
0000
0000
1001
0000
0000
0000
0000
0000
,
1000
0000
0000
1000
0000
0100
0000
0000
0000
0010
0000
0000
0001
0000
0000
0001
0000
0100
0000
0000
0000
0010
0000
0000
,
2000
0000
0000
0000
0000
0000
3200
0000
0000
0000
0000
0310
0200
0000
0000
0000
0000
0000
1300
0000
0000
0001
0000
0000
,
0100
0000
0000
0010
0000
1000
0000
0000
0000
0100
0000
0000
0010
0000
0000
0001
0000
0100
0000
0000
0000
0010
0000
0000
,
1000
0000
0000
0100
0000
0010
0000
0000
0000
0100
0000
0000
1000
0000
0000
0001
0000
0000
1001
0000
0000
0000
0000
0000
,
0001
0000
0000
0010
0000
0100
0000
0000
0000
0010
0000
0000
0001
0000
0000
1000
0000
0010
0000
0000
0000
0100
0000
0000
,
1001
0000
0000
0000
0000
0000
0110
0000
0000
0000
0000
1000
0001
0000
0000
1000
0000
0000
0110
0000
0000
0000
0000
0000
,
0001
0000
0000
1000
0000
0020
0000
0000
0000
1000
0000
0000
0130
0000
0000
0001
0000
0020
0000
0000
0000
0100
0000
0000
,
0031
0000
0000
1000
0000
0200
0000
0000
0000
0010
0000
0000
1300
0000
0000
0001
0000
2000
0000
0000
0000
3010
0000
0000
,
1000
0000
0000
0010
0000
0200
0000
0000
0000
0001
0000
0000
0310
0000
0000
1000
0000
0200
0000
0000
0000
0010
0000
0000
,
1300
0000
0000
0001
0000
0020
0000
0000
0000
0100
0000
0000
0031
0000
0000
0000
0000
1000
0100
0000
0000
0000
0000
0010
,
0001
0000
0000
1000
0000
1010
0000
0000
0000
1000
0000
0000
0001
0000
0000
0010
0000
0011
0000
0000
0000
0001
0000
0000
,
0100
0000
0000
0010
0000
0110
0000
0000
0000
0010
0000
0000
1000
0000
0000
0001
0000
1001
0000
0000
0000
1010
0000
0000
,
1000
0000
0000
0001
0000
0011
0000
0000
0000
0100
0000
0000
1000
0000
0000
0100
0000
1100
0000
0000
0100
0010
0000
0000
,
0011
0000
0000
0000
0000
0000
1010
0000
0000
0000
0000
0000
1001
0000
0000
0010
0000
0000
0100
0000
0010
0100
0000
0100
,
0020
0000
0030
0000
,
1001
0000
0000
0000
0011
0000
0000
0000
0010
0100
0000
0100
1000
0000
0001
0000
,
1000
0000
0000
0000
0000
0000
0001
0000
0000
1000
0000
0000
0000
0000
0000
0010
0000
0000
0000
0000
0000
0101
0000
0000
0000
0000
0000
0000
0000
0000
0000
0000
0000
0000
0000
0000
0000
0000
0000
0000
1000
0000
0010
0000
0000
0000
0000
0000
,
0110
0000
0000
0000
1010
0000
0000
0000
1000
0100
0000
0100
0010
0000
0001
0000
,
0100
0000
0001
0010
0000
0110
0000
2200
0000
3000
0300
0000
0000
0000
0000
0000
,
1001
0000
0000
0000
0101
0000
0000
0000
0001
0010
0000
0010
0001
0000
0100
0000
,
0010
0000
0000
0000
0000
0000
1000
0000
0000
0001
0000
0000
0000
0000
0000
0010
0000
0000
0000
0000
0000
1100
0000
0000
0000
0000
0000
0000
0000
0000
0000
0000
0000
0000
0000
0000
0000
0000
0000
0000
0100
0000
0010
0000
0000
0000
0000
0000
,
1001
0000
0000
0000
1100
0000
0000
0000
1000
0010
0000
0010
0100
0000
0010
0000
,
1000
0000
0001
0100
0000
0010
0000
2002
0000
3000
0003
0000
0000
0000
0000
0000
,
1000
0000
0001
0010
0000
0010
1000
0000
1000
0010
0000
0010
0001
1000
0000
0001
,
1000
0000
1000
0001
0000
0001
0200
0000
0300
0000
0000
0000
0000
0000
0000
0000
,
0001
0000
1000
0100
0000
0100
0001
0000
0001
0100
0000
0100
1000
0001
0000
1000
,
0001
0000
0001
1000
0000
1000
0010
0000
1000
0000
0001
0100
0000
0100
1000
0000
,
1000
0100
0000
0100
0001
1000
0000
0001
1000
0000
0001
0010
0000
0010
1000
0000
,
0010
0000
0000
0000
0100
0000
0000
0000
1001
0000
1000
0010
0000
0010
0001
0000
,
0001
0010
0000
0010
1000
0001
0000
1000
0001
0000
1000
0100
0000
0100
0001
0000
,
0100
0000
0000
0000
0010
0000
0100
0000
0000
0000
0100
0000
0010
0000
0000
0000
0010
0000
0100
0000
0000
0000
0000
0000
1001
0000
0000
0000
0000
0000
1100
0000
0000
0000
0000
0000
1000
0000
0000
0100
0000
0000
0000
0000
0000
0010
0000
0000
,
0001
0000
0000
0000
0000
0000
1000
0000
0000
0000
0000
0000
1001
0000
0000
0000
0000
0000
0001
0000
0000
0101
0000
0000
1010
0000
0000
0101
1000
0000
0001
0000
0000
0000
0000
0000
1001
0000
0000
0000
0000
0000
1000
0000
0000
0000
0000
0000
,
0100
0000
1000
0000
0001
0100
0000
0010
0100
0000
0001
0000
1000
0000
0001
0010
,
0000
0011
0000
2002
0000
3000
0003
0000
0000
0000
0000
0000
0101
0000
0100
0000
,
0110
0000
0010
0000
1000
0010
0000
0100
0001
0000
0010
0000
0110
0000
0010
0001
,
0000
0000
0000
0011
0000
0000
0000
0000
0000
1100
0000
0000
0000
0000
0000
0000
0000
0000
0000
0000
0000
0000
0000
0000
0000
0000
0000
0000
1000
0000
0001
0000
0000
0000
0000
0000
0101
0000
0000
0000
0000
0000
0001
0000
0000
0000
0000
0000
,
0011
0000
0010
0000
0100
1000
0000
0100
0010
0000
0001
0000
0101
0000
0100
0010
,
0000
0000
0000
1010
0000
0000
0000
0000
0000
1001
0000
0000
1000
0000
0000
0000
0000
0000
0001
0000
0000
0000
0000
0000
0010
0000
0000
0000
0010
0000
0100
0000
0000
0000
0100
0000
1000
0000
0000
0000
0000
0000
1000
0000
0000
0000
0000
0000
,
1001
0000
0001
0000
0001
0100
0000
0100
1000
0000
0100
0000
0010
0000
0100
0001
,
0000
0000
0000
0011
0000
0000
0000
0000
0000
1001
0000
0000
0000
0000
0000
0000
0000
0000
0000
0000
0000
0000
0000
0000
0000
0000
0000
0000
0001
0000
1000
0000
0000
0000
0000
0000
1010
0000
0000
0000
0000
0000
0010
0000
0000
0000
0000
0000
,
0110
0000
0001
0000
0001
0010
0000
0010
1000
0000
0001
0000
1001
0000
1000
0001
,
0000
0101
0000
2002
0000
0003
3000
0000
0000
0000
0000
0000
0101
0000
0001
0000
,
0011
0000
0010
0000
0001
0100
0000
0100
1000
0000
0001
0000
1001
0000
1000
0001
,
0000
0000
0000
0011
0000
0000
0000
0000
0000
1100
0000
0000
0000
0000
0000
0000
0000
0000
0000
0000
0000
0000
0000
0000
0000
0000
0000
0000
1000
0000
0010
0000
0000
0000
0000
0000
0110
0000
0000
0000
0000
0000
0100
0000
0000
0000
0000
0000
,
0101
0000
0001
0000
1000
0100
0000
0100
0001
0000
1000
0000
0101
0000
0001
1000
,
0000
0000
0000
1001
0000
0000
0000
0000
0000
0010
0000
0000
0100
0000
0000
0000
0100
0000
1000
0000
0000
0000
1000
0000
0010
0000
0000
0000
0010
0000
0100
0000
0000
0000
0100
0000
0002
0000
0000
0000
0000
0000
0000
0000
0000
0000
0000
0000
,
2003
0000
0000
0000
3100
0020
0000
0130
1000
0000
0010
0000
1000
0000
0001
0101
,
0000
1100
0000
1001
0000
0000
0000
0000
0000
0000
0000
0000
0000
0000
0000
0000
;

//--------------- dance-double - Pandemonium X ----------------
#NOTES:
     dance-double:
     Pandemonium X:
     Challenge:
     14:
     0,0,0,0,0:
00000000
00000000
00000000
00000000
,
00000000
00000000
00000000
00000000
,
00000000
00000000
00000000
00000000
,
00000000
00000000
00000000
00000000
,
10000000
00000000
00000000
00010000
00000000
01000000
00000000
00000000
00000000
00100000
00000000
00000000
10000000
00000000
00000000
00010000
00000000
00100000
00000000
00000000
00000000
01000000
00000000
00000000
,
00001000
00000000
00000000
00010000
00000000
00001000
00000000
00000000
00000000
00010000
00000000
00000000
00000010
00000000
00000000
00000100
00000000
00000000
00000101
00000000
00000000
00000000
00000000
00000000
,
00000001
00000000
00000000
00000100
00000000
00000010
00000000
00000000
00000000
00001000
00000000
00000000
00000100
00000000
00000000
00010000
00000000
00001000
00000000
00000000
00000000
00010000
00000000
00000000
,
00001100
00000000
00000000
00000000
00000000
00000000
01010000
00000000
00000000
00000000
00000000
00100000
20000000
00000000
00000000
00000000
00000000
00000000
01000000
00000000
00000000
00000000
00000000
00000000
,
30010000
00000000
00000000
00100000
00000000
00001000
00000000
00000000
00000000
00010000
00000000
00000000
00000100
00000000
00000000
00001000
00000000
00000010
00000000
00000000
00000000
00000100
00000000
00000000
,
00000001
00000000
00000000
00000010
00000000
00000100
00000000
00000000
00000000
00000010
00000000
00000000
00000001
00000000
00000000
00001000
00000000
00000000
00001100
00000000
00000000
00000000
00000000
00000000
,
00010000
00000000
00000000
00000100
00000000
00001000
00000000
00000000
00000000
00000100
00000000
00000000
00010000
00000000
00000000
00001000
00000000
01000000
00000000
00000000
00000000
00100000
00000000
00000000
,
12000000
00000000
00010000
00000000
13000000
00100000
00010000
00000000
,
00100000
00000000
00000000
10000000
00000000
01010000
00000000
00000000
00000000
00010000
00000000
00000000
00100000
00000000
00000000
00001000
00000000
00011000
00000000
00000000
00000000
00010000
00000000
00000000
,
00000010
00000000
00000000
00000100
00000000
00000110
00000000
00000000
00000000
00000010
00000000
00000000
00001001
00000000
00000000
00000100
00000000
00000110
00000000
00000000
00000000
00001001
00000000
00000000
,
00000001
00000000
00000000
00000010
00000000
00000110
00000000
00000000
00000000
00000100
00000000
00000000
00010000
00000000
00000000
00001000
00000000
00011000
00000000
00000000
00000000
00001000
00000000
00000000
,
00100000
00000000
00000000
01000000
00000000
11000000
00000000
00000000
00000000
10000000
00000000
00000000
00100000
00000000
00000000
00010000
00000000
00000000
00100000
00000000
00000000
00000000
00000000
00100000
,
01000000
00000000
00000000
01000000
00000000
01010000
00000000
00000000
00000000
00010000
00000000
00000000
00100000
00000000
00000000
00001000
00000000
00011000
00000000
00000000
00000000
00010000
00000000
00000000
,
00000100
00000000
00000000
00001000
00000000
00001010
00000000
00000000
00000000
00000010
00000000
00000000
00000110
00000000
00000000
00000001
00000000
00000000
00000110
00000000
00000000
00000000
00000000
00000000
,
00000010
00000000
00000000
00010000
00000000
00011000
00000000
00000000
00000000
00001000
00000000
00000000
01000000
00000000
00000000
00100000
00000000
10100000
00000000
00000000
00000000
00000000
00000000
00000000
,
11000000
00000000
01100000
00000000
00210000
00001000
00310000
00000000
,
00100010
00000000
00000000
00000000
,
00001100
00000000
00000000
00000000
00000000
00000000
00000000
00000000
00001100
00000000
00000000
00000000
00000000
00000000
00000000
00000000
00001000
00000000
00000020
00000030
00000000
00000000
00000020
00000030
00000001
00000000
00000000
00000000
00001000
00000000
00000000
00000000
,
00000100
00000000
00000000
00000000
00000000
00000000
00010000
00000000
00000000
00001000
00000000
00000000
00000000
00000000
00000000
00011000
00000000
00000000
00000000
00000000
00000000
00110000
00000000
00000000
00000000
00000000
00000000
00000000
00000000
00000000
00000000
00000000
00000000
00000000
00000000
00000000
00000000
00000000
00000000
00000000
01000000
00000000
10000000
00000000
00000000
00000000
00000000
00000000
,
11000000
00000000
00000000
00000000
00000000
00000000
00000000
00000000
11000000
00000000
00000000
00000000
00000000
00000000
00000000
00000000
10000000
00000000
02000000
03000000
00000000
00000000
02000000
03000000
00010000
00000000
00000000
00000000
10000000
00000000
00000000
00000000
,
00010000
00000000
00100000
00001000
00000000
00101000
00000000
00022000
00000000
00030000
00003000
00000000
00000000
00000000
00000000
00000000
,
00001010
00000000
00000000
00000000
00000000
00000000
00000000
00000000
00001010
00000000
00000000
00000000
00000000
00000000
00000000
00000000
00000001
00000000
00000200
00000300
00000000
00000000
00000200
00000300
00001000
00000000
00000000
00000000
00000001
00000000
00000000
00000000
,
00001000
00000000
00000000
00000000
00000000
00000000
00000010
00000000
00000000
00001000
00000000
00000000
00000000
00000000
00000000
00001010
00000000
00000000
00000000
00000000
00000000
00010100
00000000
00000000
00000000
00000000
00000000
00000000
00000000
00000000
00000000
00000000
00000000
00000000
00000000
00000000
00000000
00000000
00000000
00000000
00001000
00000000
00010000
00000000
00000000
00000000
00000000
00000000
,
00110000
00000000
00000000
00000000
00000000
00000000
00000000
00000000
00110000
00000000
00000000
00000000
00000000
00000000
00000000
00000000
00010000
00000000
00200000
00300000
00000000
00000000
00200000
00300000
10000000
00000000
00000000
00000000
00010000
00000000
00000000
00000000
,
10000000
00000000
01000000
00100000
00000000
00110000
00000000
00101000
00000000
00000000
00000000
00000000
00000000
00000000
00000000
00000000
,
00011000
00000000
00100000
00001000
00000000
00010000
00000100
00000000
00100000
00001000
00000000
00100000
00001000
00100000
00001000
00010000
,
00001000
00000000
00100000
00001000
00000000
00010000
00000100
00000000
00000000
00000000
00000000
00000000
00000000
00000000
00000000
00000000
,
00011000
00000000
00000010
00010000
00000000
00001000
01000000
00000000
00001000
01000000
00001000
00010000
00001000
00010000
00000000
00000010
,
00010000
00000000
00001000
01000000
00000000
00001000
00010000
00000000
10010000
00000000
10000000
01000000
00000000
01000000
00100000
00000000
,
00010000
00001000
00000000
00001000
00000100
00000010
00000001
00000010
00000100
00000000
00000100
00001000
00000000
00001000
00010000
00000000
,
00000000
00000000
00000000
00000000
00000000
00000000
00000000
00000000
00001001
00000000
00000001
00000100
00000000
00000010
00001000
00000000
,
00000100
00010000
00001000
01000000
00100000
10000000
00000000
00010000
00100000
00000000
01000000
10000000
00000000
10000000
00010000
00000000
,
00000000
00000000
00000000
00000000
00000000
00000000
00000000
00000000
10010000
00000000
00011000
00000000
00001000
00000010
00000000
00000100
,
00000001
00000000
00000000
00000000
00000000
00000000
00001000
00000000
00000000
00000000
00000000
00000000
00001001
00000000
00000000
00000000
00000000
00000000
00000010
00000000
00000000
00001010
00000000
00000000
00110000
00000000
00000000
00011000
00010000
00000000
00001000
00000000
00000000
00000000
00000000
00000000
00102000
00000000
00000000
00000000
00000000
00000000
00000000
00000000
00000000
00000000
00000000
00000000
,
00023000
00000000
00000000
00000000
00030100
00010000
00000000
00001000
01000000
00000000
00100000
00000000
10000000
00000000
00010000
00110000
,
00000000
11000000
00000000
00110000
00000000
00000000
00000000
00000000
00000000
00000000
00000000
00000000
02010000
00000000
00000000
00000000
,
00001000
00000000
00000000
00000000
03010000
00100000
00000000
00100000
01000000
00000000
10000000
00000000
00010000
00000000
00100000
00110000
,
00000000
00011000
00000000
00110000
00000000
00000000
00000000
00000000
00000000
00100000
00001000
00000000
00021000
00000000
00000000
00000000
,
00030100
00000000
00000000
00000000
00001000
00000100
00000000
00000010
00000001
00000000
00000100
00000000
00000010
00000000
00000100
00000010
,
00000000
00000000
00000000
00000110
00000000
00000000
00000000
00000000
00000000
00000000
00001000
00000000
00000001
00000000
00000000
00000000
00000001
00000000
00000100
00000000
00000000
00000000
00000100
00000000
00000010
00000000
00000000
00000000
00000010
00000000
00010000
00000000
00000000
00000000
00010000
00000000
00002000
00000000
00000000
00000000
00000000
00000000
00000000
00000000
00000000
00000000
00000000
00000000
,
10003000
00000000
00000000
00000000
00010000
01000000
00000000
00100000
01000000
00000000
00010000
00000000
00100000
00000000
01000000
00100000
,
00000000
00101000
00000000
00011000
00000000
00000000
00000000
00000000
00000000
00000000
00000000
00000000
00021000
00000000
00000000
00000000
,
00030001
00000000
00000000
00000000
00001000
00000010
00000000
00000100
00000010
00000000
00000100
00000000
00000001
00000000
00000010
00000100
,
00000000
00001100
00000000
00011000
00000000
00000000
00000000
00000000
00000000
00000000
00000000
00000000
00012000
00000000
00000000
00000000
,
20003000
00000000
00000000
00000000
30010000
10000000
00000000
10000000
00010000
00000000
10000000
00000000
10010000
00000000
00010000
00001000
,
00000000
00011000
00000000
00011000
00000000
00000000
00000000
00000000
00000000
00000000
00000000
00000000
00021000
00000000
00000000
00000000
,
00030002
00000000
00000000
00000000
00001003
00000001
00000000
00000001
00001000
00000000
00000001
00000000
00001001
00000000
00001000
00010000
,
00000000
00000000
00000000
00011000
00000000
00000000
00000000
00000000
00000000
00011000
00000000
00000000
00001000
00000000
00000000
00000000
00010000
00000000
00001000
00000000
00000000
00000000
00001000
00000000
00010000
00000000
00000000
00000000
00010000
00000000
00001000
00000000
00000000
00000000
00001000
00000000
00010000
00000000
00000000
00000000
00000000
00000000
00000000
00000000
00000000
00000000
00000000
00000000
,
00100010
00000000
00000000
00000000
00000100
01000000
00000000
00000010
00100000
00000000
01000100
00000000
00011000
00000000
00100000
00000010
,
00000000
00011000
00000000
01000100
00000000
00000000
00000000
00000000
00000000
00000000
00000000
00000000
00000000
00000000
00000000
00000000
;
