#TITLE:3V0;
#SUBTITLE:;
#ARTIST:BlackY;
#TITLETRANSLIT:;
#SUBTITLETRANSLIT:;
#ARTISTTRANSLIT:;
#GENRE:;
#CREDIT:;
#MUSIC:3V0.ogg;
#BANNER:3V0.png;
#BACKGROUND:3V0-bg.png;
#CDTITLE:;
#SAMPLESTART:50.936;
#SAMPLELENGTH:19.967;
#SELECTABLE:YES;
#OFFSET:0.583;
#BPMS:0.000=191.000;
#STOPS:92.000=1.885
,222.000=2.199
;
#BGCHANGES:8.000=3V0.mp4=1.000=1=0=1===CrossFade==,
99999.000=-nosongbg-=1.000=0=0=0=StretchNoLoop====
;
#FGCHANGES:;

//--------------- dance-single - ----------------
#NOTES:
     dance-single:
     Pandemonium X:
     Beginner:
     7:
     0.202606,0.412685,0.201499,0,0,183,157,26,0,0,0,0.202606,0.412685,0.201499,0,0,183,157,26,0,0,0:
0000
0000
0000
0000
,
0000
0000
0000
0000
,
0000
0000
0000
0000
,
0000
0000
0000
0000
,
0000
0000
0000
0000
,
0000
0000
0000
0000
,
0000
0000
0000
0000
,
0000
0000
0000
0000
,
0000
0000
0000
0000
,
0000
0000
0000
0000
,
0000
0000
0000
0000
,
0001
0000
0000
0000
,
1000
0000
0000
0000
,
0010
0000
0000
0000
,
0100
0000
0010
0000
,
1001
0000
0000
0000
,
1000
0000
0000
0000
,
0001
0000
0000
0000
,
0010
0000
0001
0000
,
1000
0000
1000
0000
,
0001
0000
0001
0000
,
0100
0000
0100
0000
,
0010
0010
0010
0010
,
0000
0000
1001
0000
,
0001
0000
1000
0000
,
0010
0000
1000
0000
,
0100
0100
0000
0000
,
0000
0000
0010
0000
,
0001
0000
1000
0000
,
0010
0000
1000
0000
,
0001
0000
1000
1000
,
1000
0000
0001
0000
,
0100
0000
0010
0010
,
0010
0000
0100
0000
,
0010
0000
1000
1000
,
1000
0000
0001
0000
,
1000
0000
0010
0000
,
0100
0000
0001
0001
,
0001
0001
1001
0000
,
0000
0000
0110
0110
,
0100
0000
1001
1001
,
1000
0000
1001
1001
,
0001
0000
0110
0110
,
0010
0000
1001
1001
,
0100
0000
1001
1001
,
0010
0000
0110
0110
,
0001
0000
0110
1001
,
0110
0000
0100
0100
,
0100
0100
0010
0010
,
0010
0010
1000
1000
,
1000
1000
0001
0001
,
0001
0001
0110
0000
,
0000
0000
1001
0000
,
0000
0000
0001
0000
,
1000
0000
0010
0000
,
0100
0000
0000
0000
,
0000
0000
0010
0010
,
0000
0010
0000
0000
0010
0000
0100
0000
,
0000
0100
0000
0000
0100
0000
0000
0000
,
0000
0001
0000
1000
,
0000
0000
0000
0000
,
0000
0010
0000
1000
,
0000
0000
0000
0000
,
0000
0000
0000
1001
,
0000
0000
0000
0000
0000
0001
0000
0000
,
0000
0000
0000
0000
0000
1000
0000
0000
,
0000
0000
0000
0000
0000
0001
0000
0000
,
0000
0000
0000
0100
,
0000
0000
0000
0010
,
0000
0000
0000
1000
,
0000
0001
0000
1000
,
0000
0000
0000
0000
,
0000
0000
0000
0010
,
0010
0010
0000
0100
,
0000
0001
0000
1000
,
1000
1000
0000
0001
,
0000
1000
0000
0100
,
0100
0100
0000
0010
,
0000
0100
0000
1000
,
1000
1000
0000
1001
,
0000
0000
0000
0001
,
0000
0100
0100
0100
,
0000
0010
0000
1000
,
0000
0100
0100
0100
,
0000
0010
0000
1001
,
0000
0000
0000
0000
0000
0010
0000
0000
,
0000
0000
0000
0000
0000
0100
0000
0000
,
0000
0010
0000
1000
,
0000
0001
0000
0110
;

//--------------- dance-single - ----------------
#NOTES:
     dance-single:
     Pandemonium X:
     Easy:
     10:
     0.369784,0.539106,0.286748,0.185999,0.011625,334,297,37,24,0,0,0.369784,0.539106,0.286748,0.185999,0.011625,334,297,37,24,0,0:
0000
0000
0000
0000
,
0000
0000
0000
0000
,
0000
0000
0000
0000
,
0000
0000
0000
0000
,
0000
0000
0000
0000
,
0000
0000
0000
0000
,
0000
0000
0000
0000
,
0001
0100
0001
0100
,
0010
0000
1000
0000
0010
0000
1000
0001
,
1000
0000
0001
0000
1000
0000
0010
0200
,
0000
0000
0000
0300
,
1001
0000
0001
0000
1000
0000
0000
0010
,
0000
0010
0000
0000
1000
0000
0000
0001
,
0000
0001
0000
0000
0010
0000
0000
0100
,
0000
0010
0000
0100
0000
0010
0001
0000
,
0200
0000
0310
0000
1000
0000
0000
0001
,
0000
0001
0000
0000
1000
0000
0000
0100
,
0000
0100
0000
0000
1000
0000
0000
0010
,
0000
0100
0000
0010
0000
0100
0001
0000
,
1000
1000
0001
0001
,
0100
0100
0010
0010
,
1000
0010
0100
0001
,
1001
0000
1001
0000
0001
0100
0010
1000
,
0000
0000
0100
0010
,
0001
0100
0001
1000
,
0010
1000
0100
0010
,
0001
1000
0001
2000
0000
0000
0000
0000
,
3010
0100
0001
0001
,
1000
0200
0310
0010
,
0100
1000
0010
0010
,
0100
0001
1001
0101
,
0001
1000
1010
0101
,
0001
1000
0001
1000
0001
0000
0010
0000
,
0100
1000
1100
0011
,
0001
1000
0001
1000
0001
0000
0100
0000
,
0010
1000
1001
0010
,
1001
0100
0101
1010
,
1100
0011
2000
3200
,
0320
0000
0032
0000
0003
1000
0100
0010
,
0001
0010
0200
0000
1300
0000
0010
0000
,
0100
0100
0010
1000
,
0001
0001
0010
0100
,
0010
0010
0001
1000
,
0100
0100
1000
0010
,
0100
0100
0010
1000
,
0001
0001
0010
0001
,
1000
1000
0001
0100
,
0010
0000
0100
0001
1001
0000
1001
0000
,
1000
0001
0011
0011
,
0010
0100
1100
1100
,
1000
0010
0110
0110
,
0100
0001
2020
0000
,
0000
3030
0202
0000
,
0000
0303
2002
3003
,
0220
0330
0001
0100
,
0010
1000
0000
0000
,
0000
0000
0001
1000
,
0000
0010
0000
0000
1000
0000
0001
0000
,
0000
0010
0000
0000
0001
0000
0000
0000
,
0000
1000
0000
0001
,
0000
0000
0000
0000
,
0000
0100
0000
2002
,
0000
0000
0000
0000
,
0000
3003
0000
0110
,
0000
0000
0000
0000
0000
1001
0000
1001
,
0000
0000
0000
0000
1001
0001
0000
0000
,
0000
0000
0000
0000
0000
1001
0000
0110
,
0100
0000
0000
0010
,
0010
1000
1000
0001
,
0001
0010
0010
0100
,
0010
0000
0001
0000
1000
0020
0000
0000
,
0000
0130
0010
0000
1000
0000
0000
0001
,
0010
0100
1000
0100
0020
0000
0130
0000
,
0100
0100
0010
0001
,
0001
1000
1000
0001
,
0100
0001
0010
0100
,
0010
0000
0001
0100
0010
0000
0100
0000
,
0100
0010
1000
0001
,
0001
0010
0001
1000
,
1000
0100
1000
0020
,
0130
0002
1003
0001
,
0101
0000
0100
0010
1000
0010
0100
0000
,
0010
1000
0001
0010
,
0011
0000
0001
0100
0010
0100
0001
0000
,
1000
0100
0010
0011
,
0000
0000
0000
0000
0100
1000
0000
0000
,
0000
0000
0000
0000
0100
0010
0000
0010
,
0000
0000
0001
0000
1000
0000
0000
1000
0000
0000
0001
0000
0000
0000
0100
0000
,
0000
0100
0000
0000
0010
0000
0000
0010
0000
0000
1000
0000
0002
0000
0000
0000
,
0000
0000
0000
0000
,
0000
0000
0000
0000
,
0000
0000
0000
0000
,
0000
0000
0000
0003
;

//--------------- dance-single - ----------------
#NOTES:
     dance-single:
     Pandemonium X:
     Medium:
     13:
     0.508176,0.646927,0.325498,0.147249,0.123999,459,417,42,19,0,0,0.508176,0.646927,0.325498,0.147249,0.123999,459,417,42,19,0,0:
0000
0000
0000
0000
,
0000
0000
0000
0000
,
0000
0000
0000
0000
,
0000
0000
0000
0000
,
0000
0000
0000
0000
,
0000
0000
0000
0000
,
0000
0000
0000
0000
,
0001
0001
1000
1000
,
0010
0000
0010
0000
0100
0000
0100
0010
,
1000
0000
1000
0000
0001
0000
0001
0020
,
0000
0000
0000
0000
,
0030
0000
0100
0010
0100
1000
0100
0010
,
0000
0011
0000
0001
0010
0100
0010
0001
,
0000
1001
0000
0001
0100
0001
1000
0001
,
0000
0110
0000
1001
0000
1000
0010
0100
,
0020
0000
0130
0010
1000
0010
0100
0010
,
0000
0110
0000
0100
0001
0010
0100
0010
,
0000
0011
0000
0001
1000
0100
1000
0001
,
0000
1010
0000
0101
0000
1000
0100
0010
,
0001
0000
0000
0001
0000
0000
0001
0000
1000
0000
0000
1000
0000
0000
1000
0000
,
0010
0000
0000
0010
0000
0000
0010
0000
0100
0000
0000
0100
0000
0000
0100
0000
,
0010
0100
0001
1000
,
0001
0100
0010
1000
0001
0100
0010
1000
,
0000
0000
0001
0010
,
0100
1000
0100
1000
,
0001
0000
0100
0000
0010
0000
1000
0001
,
0001
0010
0001
0200
0010
0000
0010
0000
,
0310
0100
0001
1000
0100
0000
0100
0000
,
0010
0000
0010
0001
0100
0000
0100
0000
,
0010
0000
0010
1000
0001
0000
0001
0000
,
0001
0000
0000
0000
0001
0000
1000
0000
0010
0000
0000
0010
0000
0000
0010
0000
,
0100
1000
0100
0001
1000
0000
2001
0000
,
3001
1000
0001
1000
0000
1000
0100
0010
,
0001
0010
0100
1000
0001
0000
2001
0000
,
3001
1000
0001
1000
0000
0001
0010
0100
,
1000
0100
0010
0001
2000
0000
3010
0000
,
0200
0301
2000
3020
,
0230
0000
0302
0000
1003
0010
0100
0001
,
1000
0000
0010
0000
0100
0000
0001
0000
1000
0000
0001
0100
0001
0000
1000
0000
,
0100
0000
0010
0000
0011
0000
0000
0000
0100
0000
0000
0000
1000
0000
0000
0001
,
0000
1000
0000
0000
0010
0000
0000
0000
0100
0000
0000
0000
0001
0000
0000
0010
,
0000
0100
0000
0000
1000
0000
0001
0000
0000
0000
0100
0000
0100
0000
0000
0010
,
0000
1000
0000
0000
0001
0000
1000
0000
0100
0000
0000
0000
0010
0000
0000
0100
,
0000
0000
0100
0000
0000
0000
1000
0000
0001
0000
0000
0000
0001
0000
0000
0100
,
0000
0100
0000
0000
0010
0000
0100
0000
0001
0000
0000
0000
1000
0000
0000
0100
,
0000
1000
0000
0000
0010
0000
1000
0000
0000
0000
0010
0000
0100
0000
0000
0001
,
0000
0000
1000
0000
0001
0000
0010
0000
0000
0000
0100
0000
0000
1000
0000
0000
,
0001
0100
0020
0000
1030
0000
1100
0000
,
0100
1000
0001
0000
0100
0000
0101
0000
,
0001
1000
0010
0100
0001
0000
0101
0000
,
0001
1000
0100
0000
0010
0000
1001
0000
,
1000
0000
0001
0000
0010
0000
0100
0000
1000
0000
0000
0000
0001
0000
0000
1000
,
0000
0000
0010
0000
0000
0100
0000
0000
0000
0010
0000
0000
1000
0000
0000
0001
,
0000
0000
0010
0000
0100
0000
1000
0000
0001
0000
0000
1000
0000
0000
0100
0000
,
0000
1000
0000
0000
0010
0000
0100
0000
0000
0000
0010
0000
0000
0100
0000
0000
,
0010
0000
0000
0100
0000
0000
0010
0000
0000
0000
0000
0000
0000
0000
0000
0000
,
0000
0000
1100
1001
,
0000
0011
0000
0000
1001
0000
0011
0000
,
0000
0101
0000
0000
1001
0000
0000
0000
,
0000
1100
0000
1010
,
0000
0000
0000
0000
,
0000
0101
0000
0200
,
0000
0320
0000
0000
2000
0000
0000
0000
,
3030
0000
0000
0101
,
0100
0000
0010
0000
1000
0100
0000
0011
,
0000
0000
0001
0000
1000
0010
0000
1001
,
0000
0000
1000
0000
0001
0010
0000
1001
,
0000
0001
0100
0001
1000
0100
0010
0000
,
0010
0100
0100
1000
,
1000
0000
0001
0000
0001
0000
1000
0010
,
0100
0001
1000
0010
0100
0001
1000
0000
,
0000
0000
1000
0000
0100
0000
0001
0000
0100
0000
1000
0000
0010
0000
1000
0001
,
1000
0001
1000
0010
0200
0000
0301
0000
,
0101
0000
0011
0000
0010
0100
0000
1100
,
0000
0100
1000
0000
0100
1000
0010
0000
,
1010
0000
0101
0000
0001
1000
0000
1010
,
0000
1000
0100
0001
0100
1000
0001
0000
,
0101
0000
0110
0000
0010
0100
0000
0101
,
0000
0001
1000
0000
1000
0100
0010
0000
,
0011
0000
1100
0000
0100
1000
0020
0000
,
0130
0002
1003
0001
,
1010
0000
0001
0010
0100
1000
0000
0001
,
1000
0010
1000
0001
1000
0000
1000
0000
,
0011
0000
1000
0100
0010
0001
0000
1000
,
0100
1000
0001
0100
0010
0000
0100
0000
,
0001
0000
1000
0100
0010
0010
0000
0100
,
0000
0000
0010
0000
0001
0000
1000
0000
0010
0000
0010
0000
0000
0000
0000
0100
,
0000
0000
0010
0000
1000
0000
0000
0001
0000
0000
0010
0000
0100
0000
0010
0000
,
0000
0001
0000
0000
0010
0000
0000
0100
0000
0000
1000
0000
0020
0000
0000
0000
,
0000
0000
0000
0000
,
0000
0000
0000
0000
,
0000
0000
0000
0000
,
0000
0000
0000
0030
;

//--------------- dance-single - ----------------
#NOTES:
     dance-single:
     Pandemonium X:
     Hard:
     15:
     0.634389,0.790689,0.387498,0.131749,0.321623,573,523,50,17,0,0,0.634389,0.790689,0.387498,0.131749,0.321623,573,523,50,17,0,0:
0000
0000
0000
0000
,
0000
0000
0000
0000
,
0000
0000
0000
0000
,
0000
0000
0000
0000
,
0000
0000
0000
0000
,
0000
0000
0000
0000
,
0000
0000
0000
0000
,
0001
0001
1000
1000
,
0010
0000
0010
0000
0100
0000
0100
0010
,
0100
0000
0100
0000
0001
0000
0001
1000
,
0000
0100
0000
1000
0000
0100
1000
0001
,
0101
0000
0001
1000
1000
0001
0010
0100
,
0000
0010
0000
0001
1000
1000
0001
0010
,
0000
0100
0000
1000
0100
0100
0010
0100
,
0000
1000
0000
0010
0000
0100
0001
0010
,
0200
0000
1000
1300
0010
0100
0010
1000
,
0000
0001
0000
0010
0001
0001
0100
0010
,
0000
0100
0000
0010
1000
1000
0001
0010
,
0000
0100
0000
0010
0000
0001
0010
0100
,
0010
0000
0000
0010
0000
0000
0010
0000
0001
0000
0000
0001
0000
0000
0001
0000
,
1000
0000
0000
1000
0000
0000
1000
0000
0100
0000
0000
0100
0000
0000
0100
0000
,
0010
0001
0100
0010
1000
0001
0010
0100
,
1000
0000
1000
0000
1000
0000
1000
0000
0001
0100
0001
0100
0001
0100
0001
0100
,
0000
0000
0000
0000
0010
0000
0010
0000
1000
0000
0100
0000
0010
0100
0000
0000
,
0010
0000
0001
0000
0100
0010
0000
0000
0100
0000
0010
0000
1000
0001
0000
0000
,
0100
0000
0001
0000
1000
0100
0000
0000
0010
0000
0001
0000
0010
0100
1000
0100
,
1000
0000
1000
0000
1000
0001
0200
0000
0000
0000
0000
0000
0000
0000
0000
0000
,
0310
1000
0001
1000
2100
0000
0100
0000
,
0010
0000
0000
0000
3001
1000
0001
1000
0002
0000
0000
0000
0100
0000
0000
0000
,
0010
0000
1003
0100
0020
0000
0001
0000
,
0100
0000
0000
0000
0031
0000
0000
0000
1000
0000
0000
1000
0000
0000
1000
0000
,
0001
0010
0100
1000
1001
0000
1100
0000
,
1000
0000
0100
0000
0001
0000
0100
0000
0000
0000
1000
0100
0010
0000
0001
0000
,
0100
0010
1000
0001
1001
0000
0011
0000
,
0001
0000
0010
0000
1000
0000
0010
0000
0000
0000
0001
0010
0100
0000
1000
0000
,
0010
0100
0001
1000
2001
0000
3010
0000
,
1002
0103
0011
1100
,
0011
0000
1100
0000
1000
0100
0010
0001
,
0010
0000
0001
0000
0100
0000
0010
0000
1000
0000
0001
0100
0010
0000
0100
0000
,
0001
0000
1000
0000
0001
0100
0001
0100
0010
0000
0000
0000
1000
0000
0000
0001
,
0000
0001
0000
0000
0010
0000
0100
1000
0001
0000
0000
0000
1000
0000
0000
0001
,
0000
0001
0000
0000
0100
0000
0010
0100
0000
0000
0010
0000
0010
0000
0000
0100
,
0000
0100
0000
0000
0001
0000
1000
0001
0010
0000
0000
0000
0100
0000
0000
1000
,
0000
0000
1000
0000
0000
0000
0001
0000
0100
0000
0000
0000
0010
0000
0000
1000
,
0000
1000
0000
0000
0100
0000
0010
0001
1000
0000
0000
0000
0001
0000
0000
0100
,
0000
0100
0000
0000
0010
0000
1000
0000
0000
0000
0001
0000
0001
0000
0000
0010
,
0000
0010
0000
0000
0100
0000
1000
0001
0000
0000
0001
0000
0000
1000
0000
0000
,
0010
0000
0100
0000
0001
1000
0001
1000
0001
0000
0000
0000
1001
0000
0000
1000
,
0000
1000
0000
0000
0100
0000
0010
0001
1000
0000
0000
0000
0101
0000
0000
1000
,
0000
1000
0000
0000
0010
0000
0100
0010
0000
0000
0110
0000
0110
0000
0000
0010
,
0000
0010
0000
0000
1000
0000
0001
1000
0100
0000
0000
0000
0011
0000
0000
0001
,
0000
0000
0001
0000
0000
0000
1000
0000
1010
0000
0000
0000
0101
0000
0000
0011
,
0000
0000
0110
0000
0100
0000
0100
1000
0001
1000
0000
1000
0001
0000
0001
1000
,
0000
1000
0001
0000
1000
0000
0100
0000
0010
0000
0000
0011
0000
0000
1100
0000
,
0000
1001
0000
0000
0010
0000
0010
0000
0000
0000
0110
0000
0000
1010
0000
0000
,
0101
0000
0000
0011
0000
0000
0110
0000
0000
0000
0000
0000
1000
0000
0000
0000
,
0001
0010
0110
1100
,
0010
1000
0000
1000
0001
0000
0010
0000
,
0001
0100
0000
0100
0010
0000
1000
0000
,
0001
1100
0100
0110
,
0010
0001
0100
0010
,
1000
1001
0001
0200
,
0000
0320
0000
0000
0200
0000
0000
0000
,
0000
0000
0330
1001
,
1000
0000
0001
0000
1000
1100
0000
0011
,
0000
0010
0001
0100
0001
0101
0000
1000
,
0000
0100
0010
0001
1000
1001
0000
1100
,
0000
1000
0100
0010
0100
1000
0010
0000
,
0110
0000
0101
0000
0001
0010
0100
0000
,
0110
0000
1100
0000
0100
1000
0001
0001
,
1000
1000
0010
0010
0100
0200
0000
0000
,
0300
0000
0001
0000
0100
0000
1000
0000
0100
0000
0001
0000
1000
0000
0001
1000
,
0100
0000
0001
0000
0100
0000
1000
0000
0010
0100
0010
0100
0001
0000
1000
0000
,
0010
1000
0001
0010
0001
1000
0000
1100
,
0000
0001
0010
0000
0100
0010
0001
0100
,
0001
1000
0100
1000
0001
1000
0000
0100
,
0000
0000
1000
0000
0010
0100
0010
0000
0100
0000
0001
0000
1000
0000
0001
0000
,
0010
0001
1000
0010
0100
0001
0000
0010
,
0000
0100
1000
0000
0100
0010
0001
1000
,
0010
0000
0100
0000
0001
0000
0010
0000
0100
0000
1000
0000
0001
0100
0001
0100
,
0001
0000
0010
0000
0001
0000
1000
0000
0010
0100
0010
0100
0002
0000
0000
0000
,
0103
0000
0000
0000
0010
0000
1000
0000
0100
0000
0010
0000
0000
0000
0001
0010
,
0100
0010
0001
1000
0010
0100
0210
0000
,
0301
0000
0000
0000
0100
0000
0001
0000
0010
0000
0100
0000
0000
0000
1000
0100
,
0010
0100
1000
0001
0100
0010
1000
0000
,
0001
0000
0000
0000
0010
0100
1000
0000
1100
0000
0110
0000
0000
0000
0010
0000
,
0001
0010
0000
0100
1000
0000
0010
1000
0100
0000
0120
0000
0000
0000
0031
0000
,
0000
0000
0100
0010
2000
0000
0000
3100
0000
0000
0010
0001
1000
0000
0010
0000
,
0000
0100
0000
0000
0001
0000
0000
1000
0000
0000
0001
0000
2002
0000
0000
0000
,
0000
0000
0000
0000
,
0000
0000
0000
0000
,
0000
0000
0000
0000
,
0000
0000
0000
3003
;

//--------------- dance-single - ----------------
#NOTES:
     dance-single:
     Pandemonium X:
     Challenge:
     17:
     0.798245,1.042272,0.410748,0.216999,0.635496,721,668,53,28,0,0,0.798245,1.042272,0.410748,0.216999,0.635496,721,668,53,28,0,0:
0000
0000
0000
0000
,
0000
0000
0000
0000
,
0000
0000
0000
0000
,
0000
0000
0000
0000
,
0000
0000
0000
0000
,
0000
0000
0000
0000
,
0000
0000
0000
0000
,
1000
1000
0001
0001
,
0100
0000
0100
0000
0010
0000
0010
1000
,
0100
0000
0100
0000
0010
0000
0010
0001
,
0000
1000
0000
0001
0000
1000
0100
0010
,
1001
0000
0001
0010
0010
0010
0001
0100
,
0000
0110
0000
1000
0100
0100
0100
0010
,
0000
0011
0000
1000
0001
0001
0100
0101
,
0000
0011
0000
0101
0000
0001
0010
1000
,
0020
0000
0031
0001
0001
1000
0100
1000
,
0000
1001
0000
1000
0010
0010
0010
0100
,
0000
1010
0000
0001
0100
0100
0010
0110
,
0000
1001
0000
1100
0000
1000
0100
0010
,
0001
0000
0010
0001
0000
0010
0001
0100
0010
0000
1000
0010
0000
0100
0010
1000
,
0100
0000
0010
0001
0000
0010
0001
1000
0010
0000
0100
0001
0000
0100
0001
1000
,
0001
0000
1000
0010
1000
0000
0010
0100
0010
0000
0100
0001
0100
0000
0001
1000
,
0001
0100
0001
0100
0010
1000
0010
1000
0100
1000
0100
1000
0001
1000
0001
1000
,
0000
0000
0000
0000
0001
0000
0001
0000
1000
0000
0100
0000
0010
0100
1000
0000
,
0010
0000
0100
0000
0010
1000
0001
0000
1000
0000
0100
0000
0010
0100
1000
0000
,
0010
0000
0100
0000
0010
0100
0001
0000
1000
0000
0100
0000
0010
0000
0001
0010
,
0100
0000
0100
0000
0100
1000
0010
0000
0200
0000
0000
0000
0010
0000
0000
0000
,
0301
0010
0100
1000
0100
0010
0100
1000
0001
0000
0000
1000
0100
0000
0000
0100
,
0010
0000
0000
0010
0001
1000
0001
1000
0010
0000
0000
0010
1000
0000
0000
0100
,
0010
0000
0000
0010
0100
0000
1000
0000
0001
0000
0000
0001
0010
0000
0000
0100
,
1000
0000
0000
1000
0010
0000
0100
0000
0001
0000
0000
0001
0000
0000
0001
0000
,
1000
1000
1000
1000
1020
0000
0100
0000
,
1000
0000
1000
0000
1000
0000
1030
0010
1000
0000
0001
0010
0100
0000
0010
0000
,
0001
0100
0010
1000
2001
0000
0010
0000
,
0001
0000
0001
0000
0001
0000
3001
1000
0001
0000
1000
0100
0010
0000
0100
0000
,
1000
0000
0010
0000
0100
0000
0001
0000
1000
0000
0001
0100
0020
0000
1030
0000
,
0100
0000
0010
0001
2000
0000
3100
0000
0010
0001
0200
0000
0310
1000
0200
0000
,
0310
0001
0200
0000
0310
1000
0200
0000
0310
0001
0010
0001
1000
0100
1000
0100
,
1000
0010
1000
0010
0100
0001
0100
0001
0010
0000
0001
0100
1000
0000
0100
0000
,
0001
0000
1000
0000
0001
1000
0001
1000
0001
0000
0000
0000
2100
0000
0000
0010
,
0000
0010
0000
0000
3001
0000
0010
0100
1000
0000
0000
0000
1002
0000
0000
0010
,
0000
0010
0000
0000
0103
0000
0001
1000
0000
0000
1001
0000
2100
0000
0000
0100
,
0000
0100
0000
0000
3001
0000
1000
0001
0010
0000
0000
0000
0012
0000
0000
0100
,
0000
0000
0100
0000
0003
0000
0001
1000
0100
0000
0000
0000
0021
0000
0000
0001
,
0000
0001
0000
0000
0130
0000
0010
0001
1000
0000
0000
0000
1020
0000
0000
0100
,
0000
0100
0000
0000
1030
0000
0001
0000
0000
0000
0001
0000
1002
0000
0000
1000
,
0000
1000
0000
0000
0013
0000
0100
1000
0000
0000
1001
0000
0000
1010
0000
0000
,
0001
0000
0001
0000
1000
0001
0100
0010
1000
0000
0100
0000
1000
0000
0001
0010
,
0000
0100
0010
0000
0001
0000
0010
0100
1000
0000
0001
0000
1000
0000
0010
1000
,
0000
0100
0000
0010
0100
0000
1000
0010
0000
0000
1000
0000
1000
0000
0001
0010
,
0000
0100
0000
0010
0001
0000
0100
0010
1000
0000
0001
0000
0010
0000
0001
0100
,
0000
0000
0001
0000
1000
0000
0001
1000
0001
0000
0000
0000
1100
0000
0000
0011
,
0000
0001
0100
0000
1010
0000
1000
0100
1000
0100
0000
0100
0010
0000
0010
0001
,
0000
0001
0100
0000
0010
1000
0001
0010
0100
0000
0000
0000
1100
0000
0000
0011
,
0000
0000
0101
0000
0000
1001
0000
1001
0000
0000
0002
0000
0000
0023
0000
0000
,
0230
0000
0000
2300
0000
0000
0002
0000
3003
0000
0000
0000
0000
0000
0000
0000
,
1000
1000
1000
0001
1000
0010
0000
0100
,
0000
0010
0100
0100
0100
0001
0000
1000
,
0000
0001
0010
0010
0010
0100
0000
1000
,
0000
0100
0000
0010
0100
1000
0000
0000
,
1000
1000
1000
0010
0100
0010
0000
1000
,
0000
0100
0100
0100
0010
0001
0000
1000
,
0000
1000
0001
0001
0001
1000
0000
0001
,
0000
0100
0000
0010
1000
0001
1001
0000
,
1000
0100
0001
0100
1000
1100
0000
0011
,
0000
0001
0100
1000
1100
0101
0000
1001
,
0000
0001
0010
1000
0010
0011
0000
0110
,
0110
0000
0100
0000
0010
0000
0010
0000
0001
0000
1000
0000
0001
0000
0000
1000
,
0100
0000
0000
0100
0010
0000
0000
0010
0001
0000
0100
0000
1001
0000
0000
0010
,
0100
0000
0000
0100
0001
0000
0000
0001
1000
0000
0100
0000
1100
0000
1100
0000
,
0011
0011
0101
0101
1010
1010
1001
0000
,
0000
0000
0001
0000
0100
0000
1000
0000
0010
0000
0001
0000
1000
0000
0001
1000
,
0001
0000
0100
0000
0010
0000
1000
0000
0001
0010
0001
0010
0001
0000
0001
0000
,
0100
0100
0010
0010
0001
0010
1000
1000
,
0001
0001
0010
1000
0010
0001
0100
0100
,
0010
0010
1000
1000
0001
0010
1000
1000
,
0010
0000
0010
0000
0001
0010
0001
0010
0001
0000
0100
0000
0010
0000
0010
0000
,
0100
0100
0001
0001
1000
0100
0010
0010
,
0100
0100
1000
1000
0010
0001
0010
0010
,
0100
0000
0100
0000
0001
0000
0001
0000
1000
0000
0100
0000
0010
0001
0010
0001
,
0010
0000
0000
0000
0100
1000
0100
1000
0100
0000
0000
0000
1002
0000
0000
0000
,
0100
0000
0000
0000
0013
0100
0010
0001
0010
0100
0010
0001
1000
0000
0100
0000
,
0010
0001
0010
0100
1001
0000
0012
0000
,
0100
0000
0000
0000
1003
0010
0100
0010
1000
0010
0100
0010
1000
0000
0100
0000
,
0010
0000
0100
0000
1000
0000
0010
0000
0100
0000
0001
0000
1000
0000
0001
0010
,
0100
0000
0010
0001
0100
0010
0100
0010
1000
0001
2000
0000
0000
0000
3001
1000
,
0000
0010
0100
0001
0010
0100
0010
0100
1000
0001
0020
0000
0000
0000
0130
0010
,
0000
0001
0010
0100
0010
0001
0010
0100
0000
0000
1000
0100
1000
0100
1000
0100
,
0010
0001
0010
0001
0100
0010
1000
0001
0100
0010
1000
0002
2000
0000
0000
0000
,
0000
0000
0000
0000
,
0000
0000
0000
0000
,
0000
0000
0000
0000
,
0000
0000
0000
3003
;
