#TITLE:waxing and wanding;
#SUBTITLE:;
#ARTIST:SEIRYU;
#TITLETRANSLIT:;
#SUBTITLETRANSLIT:;
#ARTISTTRANSLIT:;
#CREDIT:;
#BANNER:bn.png;
#BACKGROUND:bg.png;
#LYRICSPATH:;
#CDTITLE:;
#MUSIC:waxing and wanding.mp3;
#OFFSET:-0.060;
#SAMPLESTART:72.600;
#SAMPLELENGTH:12.000;
#SELECTABLE:YES;
#BPMS:0.000=191.001,165.000=95.501,197.000=191.001;
#STOPS:36.000=0.942
;
#BGCHANGES:;

//---------------dance-single - ----------------
#NOTES:
     dance-single:
     :
     Hard:
     9:
     0.635,0.907,0.181,0.000,0.078:
0000
0000
0000
0000
,
0000
0000
0000
0000
,
0000
0000
0000
0000
,
0000
0000
0000
0000
,
0000
0000
0000
0000
,
0000
0000
0000
0000
,
0000
0000
0000
0000
,
0000
0000
0000
0000
,
1001
0000
0000
0000
1001
0000
0000
0000
1001
0000
1001
0000
1000
0001
1000
0001
,
1000
0000
1000
0100
1000
0000
0001
0100
,
0001
0000
0001
1000
0001
0100
0001
1000
,
0001
0010
0001
0000
1000
0001
0100
0000
,
0010
0000
1000
0100
1000
0000
1100
0000
,
0011
0000
1000
0001
0000
1000
0001
0000
,
0101
0000
0010
0100
1000
0001
0100
0001
,
0010
0001
0100
0010
0000
1000
0100
0000
,
1100
0000
1000
0001
0101
0000
1100
0000
,
0101
0000
1000
0100
0010
0100
1000
0100
,
0010
0001
0010
0100
0010
0001
0100
0010
,
1000
0100
0000
1000
0000
0100
1000
0000
,
1000
0000
0001
0010
0001
0000
0010
0000
,
0001
0000
1000
0001
0100
0001
0010
0001
,
0100
0010
1000
0100
1000
0010
0100
0010
,
1000
0100
0000
1000
0000
0001
0100
0000
,
0001
0000
0001
0100
0010
0000
0110
0000
,
1001
0000
1000
0001
1000
0000
1000
0100
,
1000
0000
0001
0010
0001
0000
0100
0001
,
0100
0000
0010
0100
0010
0000
1000
0001
,
1000
0000
0100
1000
0001
0010
0001
0100
,
0010
1000
0001
0100
0001
0100
0010
0100
,
0010
0100
0010
1000
0010
1000
0100
1000
,
0100
1000
0010
1000
0010
1000
0010
0100
,
0010
0100
0010
1000
0001
0010
0001
0100
,
0010
1000
0100
0010
0100
1000
0001
0100
,
0010
1000
0100
0010
0001
0100
0001
0000
,
0001
1000
0001
0000
0001
0100
0001
0000
,
0001
0100
0010
1000
0100
1000
0001
0000
,
1000
0001
0100
0000
0010
0100
0010
0000
,
0010
1000
0001
0100
0001
0010
0001
0100
,
0010
1000
0100
0000
1000
0001
0100
0000
,
0001
0100
0010
1000
0100
0010
0001
0000
,
0001
1000
1100
0000
0000
0000
0000
0000
,
0000
0000
0000
0000
,
0000
0000
0000
0000
,
0000
0000
0000
0000
,
0000
1000
0001
0100
0001
0010
0001
0100
,
0010
1000
0100
0010
0001
0010
0100
1000
,
0001
0000
1000
0100
0010
0001
0010
0001
0100
0001
0010
0100
1000
0001
0100
0010
,
1000
0100
0010
0100
1000
0001
0100
0010
1000
0100
0010
0001
0010
0100
1000
0001
,
0100
0000
0010
1000
0001
0000
0100
0000
0001
0000
0010
0000
0001
0000
0100
0000
,
0001
0010
0001
0100
0001
0010
0001
0100
,
0001
0010
0001
0100
0001
0010
0001
0100
,
0001
0010
0001
0010
0100
1000
0100
0000
,
1000
0001
1000
0010
1000
0100
1000
0010
,
1000
0100
1000
0010
1000
0100
1000
0010
,
1000
0100
1000
0010
1000
0100
1000
0010
,
1000
0100
1000
0100
0010
0001
0010
0000
,
1000
0001
0010
0001
0010
1000
0010
0001
,
0010
1000
0010
0001
0010
1000
0010
0001
,
0010
1000
0010
0001
0010
1000
0010
0001
,
0010
1000
0010
1000
0001
0100
0001
0000
,
1000
0001
0100
1000
0100
0001
0100
1000
,
0100
0001
0100
1000
0100
0001
0100
1000
,
0100
0001
0100
1000
0100
0001
0100
1000
,
0100
0001
0100
0001
1000
0010
1000
0000
,
0000
1000
0001
0100
,
0010
0000
0010
0100
0010
0000
1000
0001
,
1000
0000
1000
0000
0001
0000
0001
0100
,
0001
0000
0100
0001
0101
0000
1010
0000
,
1001
0000
1000
0100
1000
0000
0001
0100
,
0001
0000
0001
0100
0001
0100
0010
1000
,
0010
1000
0010
0000
1000
0000
0001
0000
,
1000
0000
1000
0100
1100
0000
0011
0000
,
1001
0000
0010
0100
0001
1000
0010
0100
,
0001
1000
0010
0100
0001
1000
0010
0100
,
0001
1000
0010
0100
0001
1000
0010
0100
,
0001
1000
0001
0100
0001
0100
0010
0000
,
0010
0001
1000
0100
0010
0001
1000
0100
,
0010
0001
1000
0100
0010
0001
1000
0100
,
0010
0001
1000
0100
0010
0001
1000
0100
,
0010
0001
0010
0100
1000
0001
0101
0000
;

//---------------dance-single - ----------------
#NOTES:
     dance-single:
     :
     Medium:
     7:
     0.501,0.593,0.069,0.000,0.004:
0000
0000
0000
0000
,
0000
0000
0000
0000
,
0000
0000
0000
0000
,
0000
0000
0000
0000
,
0000
0000
0000
0000
,
0000
0000
0000
0000
,
0000
0000
0000
0000
,
0000
0000
0000
0000
,
0110
0000
1001
0000
0001
1000
0010
0100
,
0010
0000
0000
0010
0000
0010
0100
0000
,
0000
0000
0010
1000
0010
0000
0001
0100
,
0001
0000
0001
1000
0000
1000
0001
0000
,
0100
0000
0001
0100
0010
0000
0100
0000
,
0100
0000
0010
0100
0000
0010
0100
0000
,
0010
0000
0010
1000
0010
1000
0010
0100
,
0010
0100
0010
0100
0000
0010
0100
0000
,
0010
0000
0010
1000
0010
0000
0100
0000
,
0010
0000
0010
1000
0010
0000
0001
0100
,
0001
0000
0010
0001
0010
0000
0001
0000
,
0100
0000
0000
0010
0000
0010
1000
0000
,
0010
0000
0010
0100
0010
0000
0110
0000
,
1001
0000
0001
0100
0001
0000
0001
0100
,
0010
0000
0100
0010
0100
0000
0010
0000
,
1000
0000
0010
1000
0000
0010
0100
0000
,
0010
0000
0010
0100
0010
0000
0100
0000
,
0010
0000
0001
1000
0001
0000
0100
0001
,
0100
0001
0010
0001
,
0100
0000
0010
0100
0010
0000
0010
1000
,
0010
0000
1000
0100
0010
0001
1000
0100
,
0010
0001
0010
0000
0001
0000
0010
0001
,
0010
0000
0100
0000
0001
0000
0100
0001
,
0100
0000
0010
0000
0100
0000
0010
0100
,
0010
0000
0010
0100
0001
1000
0010
1000
,
0010
1000
0010
0000
0010
0000
0100
0000
,
0100
0000
0010
0100
0010
0100
0010
0000
,
1000
1000
0001
0001
,
1000
0000
0001
0100
0010
1000
0010
0000
,
1000
0010
0100
0000
0100
0000
0010
0000
,
0010
0000
0010
1000
0001
0000
1000
0000
,
1001
0000
0001
0100
0001
0000
0010
1000
,
0010
0000
1000
0100
0010
0001
0010
0000
,
0100
0110
0000
0000
,
0000
0000
0000
0000
,
0000
0000
0000
0000
,
0000
0000
0000
0000
,
0000
1000
0001
0100
0001
0010
0001
0100
,
0010
1000
0100
1000
0010
0100
0010
0010
,
0010
0000
0100
0010
1000
0010
0100
0010
,
1000
0100
0010
0100
1000
0100
0001
0010
,
0001
0000
0001
0010
0100
0000
0000
0000
0010
0000
0000
0000
0100
0000
0010
0000
,
0100
0000
0010
1000
0001
1000
0010
0000
,
1000
0000
0010
0000
0100
0000
0010
0100
,
0010
0000
0010
1000
0010
0100
0010
0000
,
0010
1000
0001
0000
1001
0000
0001
0100
,
0001
0000
0100
0000
0010
0100
0000
0100
,
0010
0010
0110
0010
,
0100
0000
0010
1000
0001
1000
0010
0000
,
1000
0100
1000
0000
0100
1000
0100
0000
,
1000
0100
1000
0000
0100
0000
0010
0000
,
0001
0010
0001
0000
0010
0001
0010
0000
,
0001
0010
0001
0010
0100
1000
0100
0000
,
1000
0001
0100
0000
0001
0100
0010
0000
,
0010
0100
0001
0000
0001
0000
0001
0000
,
0001
0000
0001
0100
0010
0000
0010
1000
,
0100
0000
1000
0100
0001
0100
0010
0000
,
0000
0000
0010
0100
0000
0010
0100
0000
,
0000
0000
0010
1000
0010
1000
0010
0100
,
0010
0100
0000
0010
0000
0010
0100
0000
,
0000
0000
0010
0100
0010
0000
0010
0000
,
0010
0000
0000
0001
0000
1000
0001
0000
,
0000
0000
1000
0100
1000
0000
0010
0001
,
0010
0000
0000
0001
0000
0001
0100
0000
,
0000
0000
0010
0100
0010
0000
0100
0000
,
0100
0000
0010
1000
0010
1000
0010
1000
,
0010
1000
0010
1000
0010
1000
0010
0000
,
0001
0100
0001
0100
0001
0100
0001
0100
,
0001
0100
0001
0100
0010
0001
0010
0000
,
0001
0010
0001
0010
0100
1000
0100
1000
,
0010
0001
0010
0100
0001
0100
0010
1000
,
0001
0100
1000
0100
0010
0001
0010
0100
,
1000
0100
0010
0100
0001
1000
0010
0000
;

//---------------dance-single - ----------------
#NOTES:
     dance-single:
     :
     Easy:
     5:
     0.385,0.558,0.147,0.000,0.000:
0000
0000
0000
0000
,
0000
0000
0000
0000
,
0000
0000
0000
0000
,
0000
0000
0000
0000
,
0000
0000
0000
0000
,
0000
0000
0000
0000
,
0000
0000
0000
0000
,
0000
0000
0000
0000
,
1000
0000
0001
0000
1000
0001
1000
0001
,
1000
1000
0100
0010
,
0001
0000
0010
0001
0010
0000
0100
1000
,
0100
0010
0100
0010
,
0100
0000
0010
0100
0010
0000
0010
0000
,
0010
0000
0010
1000
,
0001
0000
1000
0001
1000
0000
0001
1000
,
0001
1000
0001
0100
,
0010
0000
0100
0010
0100
0000
0100
0000
,
0100
0010
0010
1000
,
1000
0001
0001
1000
,
1000
0000
0001
0100
,
0000
0001
0100
0010
,
0010
0100
0100
0010
,
0010
1000
1000
0001
,
0001
0000
1000
0001
,
0000
0100
0010
1000
,
0010
0100
0100
0010
,
0010
1000
1000
0001
,
0001
1000
0001
0100
,
0010
0100
0100
0100
,
0100
0010
0010
1000
,
0001
1000
0001
0100
,
0010
1000
0100
1000
,
0100
0010
0010
0010
,
0010
0011
0001
0100
,
0010
0100
0100
0100
,
0010
1000
0001
1000
,
0001
0100
0100
0100
,
0001
1000
0010
0100
,
0010
1000
1000
1000
,
0001
1000
0100
0010
,
0001
0010
0010
0010
,
0001
0101
0000
0000
,
0000
0000
0000
0000
,
0000
0000
0000
0000
,
0000
0000
0000
0000
,
0000
1000
0001
0100
,
0010
0010
0100
0010
,
1000
0000
0001
1000
0001
0100
0001
0010
,
0001
0100
0010
1000
0100
0010
0001
0010
,
0100
0010
0100
0010
,
1000
0010
0100
0010
,
1000
0001
0100
0001
,
0010
0000
0001
0100
0001
0100
0001
0000
,
0000
0001
0100
0010
,
0100
0010
1000
0100
,
1000
0010
0100
0010
,
0100
0000
0010
1000
0010
1000
0010
0000
,
0000
1010
0010
0100
,
0010
1000
0001
0100
,
0001
0010
0001
0100
,
0010
0000
1000
0100
1000
0100
1000
0000
,
0000
1000
1000
0001
,
0001
0100
0010
0100
,
0100
0010
1000
0001
,
0100
0000
0010
0100
0010
0100
0010
0000
,
0000
0100
0100
0010
,
0010
1001
0010
1001
,
0100
0001
0100
0010
,
1000
1010
0101
1100
,
1001
0001
0101
0010
,
0110
0110
0110
0110
,
0110
0001
1001
0100
,
1100
0000
1000
0001
0100
0000
0100
0000
,
0100
0010
0100
0010
,
1000
0001
0100
0001
,
0010
0001
0100
0010
,
1000
0000
0010
0100
0001
1000
0001
0000
,
0000
0001
0100
0010
,
1000
0100
0010
0001
,
0100
0010
1000
0001
,
0100
0000
0001
1000
0001
0100
0001
0000
;

//---------------dance-single - ----------------
#NOTES:
     dance-single:
     :
     Beginner:
     2:
     0.116,0.139,0.009,0.000,0.000: // measure 1
0000
0000
0000
0000
,  // measure 2
0000
0000
0000
0000
,  // measure 3
0000
0000
0000
0000
,  // measure 4
0000
0000
0000
0000
,  // measure 5
0000
0000
0000
0000
,  // measure 6
0000
0000
0000
0000
,  // measure 7
0000
0000
0000
0000
,  // measure 8
0000
0000
0000
0000
,  // measure 9
0000
0000
0000
0000
,  // measure 10
0000
0010
0000
0000
,  // measure 11
0000
0010
0000
0010
,  // measure 12
0000
1000
0000
0000
,  // measure 13
0000
0001
0000
0001
,  // measure 14
0000
0001
0000
0000
,  // measure 15
0000
1000
0000
1000
,  // measure 16
0000
1000
0000
0000
,  // measure 17
0000
0010
0000
0010
,  // measure 18
0000
0010
0000
0000
,  // measure 19
0000
0000
0000
0000
,  // measure 20
0000
0100
0000
0000
,  // measure 21
0000
0001
0000
0001
,  // measure 22
0000
0001
0000
0000
,  // measure 23
0000
0000
0000
0000
,  // measure 24
0000
1000
0000
0000
,  // measure 25
0000
0010
0000
0010
,  // measure 26
0000
0010
0000
0000
,  // measure 27
0000
0100
0000
0000
,  // measure 28
0000
0010
0000
0000
,  // measure 29
0000
1000
0000
0001
,  // measure 30
0000
0100
0000
0000
,  // measure 31
0000
0010
0000
0000
,  // measure 32
0000
0010
0000
0000
,  // measure 33
0000
0100
0000
0000
,  // measure 34
0000
0001
0000
0000
,  // measure 35
0000
1000
0000
0000
,  // measure 36
0000
0001
0000
0000
,  // measure 37
0000
0100
0000
0100
,  // measure 38
0000
0100
0000
0000
,  // measure 39
0000
0010
0000
0000
,  // measure 40
0000
1000
0000
0000
,  // measure 41
0000
0001
0000
1000
,  // measure 42
0000
0100
0000
0000
,  // measure 43
0000
0000
0000
0000
,  // measure 44
0000
0000
0000
0000
,  // measure 45
0000
0000
0000
0000
,  // measure 46
0000
0010
0000
0000
,  // measure 47
0000
0010
0000
0000
,  // measure 48
0000
0001
0000
0000
,  // measure 49
0000
1000
0000
0000
,  // measure 50
0000
0010
0000
0000
,  // measure 51
0000
0010
0000
0000
,  // measure 52
0000
1000
0000
0000
,  // measure 53
0000
0001
0001
0001
,  // measure 54
0000
0001
0000
0000
,  // measure 55
0000
1000
0000
0000
,  // measure 56
0000
0010
0000
0010
,  // measure 57
0000
0010
0010
0010
,  // measure 58
0000
0100
0000
0000
,  // measure 59
0000
0100
0000
0000
,  // measure 60
0000
0010
0000
0000
,  // measure 61
0000
1000
1000
1000
,  // measure 62
0000
1000
0000
0000
,  // measure 63
0000
0001
0000
0000
,  // measure 64
0000
0100
0000
0000
,  // measure 65
0000
0010
0000
0010
,  // measure 66
0000
0010
0000
0000
,  // measure 67
0000
1000
0000
1000
,  // measure 68
0000
1000
0000
0000
,  // measure 69
0000
0001
0000
0001
,  // measure 70
0000
0001
0000
0000
,  // measure 71
0000
0100
0000
0100
,  // measure 72
0000
0100
0000
0000
,  // measure 73
0000
0010
0000
0010
,  // measure 74
0000
0010
0000
0000
,  // measure 75
0000
1000
0000
0000
,  // measure 76
0000
0001
0000
0000
,  // measure 77
0000
1000
0001
0100
,  // measure 78
0000
0010
0000
0000
,  // measure 79
0000
0100
0000
0000
,  // measure 80
0000
0010
0000
1000
,  // measure 81
0000
0001
1000
1001
;
