#TITLE:waxing and wanding;
#SUBTITLE:-kors k mix-;
#ARTIST:Seiryu;
#TITLETRANSLIT:;
#SUBTITLETRANSLIT:;
#ARTISTTRANSLIT:;
#CREDIT:;
#BANNER:bn.png;
#BACKGROUND:bg.png;
#LYRICSPATH:;
#CDTITLE:;
#MUSIC:waxing and wanding -kors k mix-.mp3;
#OFFSET:-0.020;
#SAMPLESTART:59.380;
#SAMPLELENGTH:12.000;
#SELECTABLE:YES;
#BPMS:0.000=95.000,44.000=190.001,108.000=95.000,109.000=47.500,111.750=190.021,213.000=95.010,215.000=190.021;
#STOPS:44.000=1.895
,111.750=2.220
,111.875=0.860
,119.000=0.632
,245.000=0.316
;
#BGCHANGES:;

//---------------dance-single - ----------------
#NOTES:
     dance-single:
     :
     Hard:
     9:
     0.626,0.717,0.457,0.197,0.628:
0000
0000
0000
0000
,
0000
0000
0000
0000
,
0000
0000
0000
0000
,
0000
0000
0000
0000
,
1000
0000
0001
0100
0001
0000
0000
0000
0010
0000
1000
0001
1000
0000
0001
0000
,
0100
0000
0010
1000
0001
0000
0000
0000
1100
0000
0000
0000
0001
0000
0000
0000
,
0101
0000
1000
0001
0100
0000
0000
0000
0110
0000
1000
0001
0100
0000
0000
0000
,
1100
0000
0001
1000
0100
0000
0000
0000
0000
0000
0000
0000
0000
0000
1000
0000
,
0001
0000
0000
0100
0000
0000
0001
0000
0000
0010
0000
0000
0001
0000
0000
0100
0000
0000
0010
0000
0000
1000
0000
0001
,
0100
0000
0000
0010
0000
0000
1000
0000
0000
0001
0000
0000
0010
0000
0000
0001
0000
0000
0100
0000
0000
0010
0000
1000
,
0100
0000
0000
1000
0000
0000
0001
0000
0000
0100
0000
0000
0010
0000
0000
0100
0000
0000
1000
0000
0000
0001
0000
0100
,
0110
0000
0000
1000
0000
0001
0100
0000
0000
0010
0000
0000
,
1000
0000
0000
0001
0000
0000
1000
0000
0001
1000
0000
1000
,
0100
0000
0001
0100
0000
0010
0100
0000
0000
0010
0000
0000
,
1000
0000
0000
0001
0000
0000
1000
0000
1000
0100
0000
0001
,
0100
0000
0000
0010
0000
0100
0010
0000
0000
0100
0000
0000
,
0001
0000
0000
0001
0000
0000
1000
0000
0001
0010
0000
1000
,
0100
0000
0001
1000
0000
0000
0001
0000
0000
0100
0000
0000
,
0010
0000
0000
1000
0000
1000
0100
0000
0001
0100
0000
0100
,
0001
0001
1001
1000
,
0001
0000
0000
0100
0000
0000
0010
0100
0010
0100
0000
0000
,
0110
1001
1000
0001
,
0100
0000
0000
0010
0000
0000
1000
0001
0100
0010
0000
0000
,
1001
0110
1000
0001
,
0100
0000
0000
0010
0000
0000
0100
1000
0100
1000
0000
0000
,
1000
0000
0010
0001
0000
0100
0001
0000
0000
0100
0000
0000
,
0010
0000
0000
1000
0000
0000
1000
0001
0100
0010
0000
1000
,
0200
0000
0000
0000
0000
0000
0000
0000
2000
0000
0000
0000
0000
0000
0000
0000
0000
0000
0000
0000
0000
0000
0000
0000
0000
0000
0000
0000
0000
0000
3000
2000
,
3300
0000
0000
0000
0000
0000
2200
0000
0000
3300
0000
0000
0001
0000
0000
0000
0010
0000
0100
0000
1000
0000
0001
0000
,
0010
0100
0010
0100
0000
0010
0011
0000
0000
1100
0000
0000
,
0100
0000
0001
1001
0000
1000
0100
0000
0001
0100
0001
0010
,
0100
0000
1000
0100
0000
0010
0001
0000
0100
0002
0000
0000
,
1003
0000
1000
0100
0000
0001
0010
0000
0100
0010
1000
0001
,
1000
0000
1000
0100
0000
0010
0001
0000
0001
0101
0000
0000
,
1001
0000
0100
0001
0000
0001
0010
0000
0010
0100
0001
1000
,
0001
0000
0100
0001
0000
0010
1000
0000
1000
0100
0000
0100
,
1000
0000
0010
0001
0000
1000
0100
0000
0001
0100
0010
0100
,
0001
0000
1000
0001
1000
0100
0010
0000
0002
0200
0000
0000
,
0303
1001
0110
1100
,
0011
0000
0000
0001
0000
0001
0100
0000
0100
0010
0000
0000
,
0010
0000
0010
0100
0000
0000
0110
0000
0000
0110
0000
0000
,
0110
0000
0000
0001
1000
0001
1000
0000
0001
0100
0000
0000
,
0010
1010
0110
0011
,
0110
1001
1010
0101
,
0001
0000
0001
0100
0000
0000
0110
0000
0000
0110
0000
0000
,
0010
0000
0000
0010
1000
0010
1000
0000
0001
0200
0000
0000
,
0310
0000
0010
0100
0000
1000
0100
0000
0001
0100
0000
0010
,
1000
0000
0001
0010
0000
1000
0100
0000
0001
0010
0000
0000
,
1000
0000
0001
0100
0000
0010
1000
0000
1000
0100
0000
0001
,
0010
0000
0001
0100
0000
0010
1000
0000
0001
1000
0000
0000
,
1100
0000
0001
0100
0000
0010
1000
0000
1000
0100
0000
0010
,
0001
0000
0001
1000
0001
0100
0001
0000
0001
0010
0000
1000
,
1100
0000
1000
0100
0000
0001
0100
0000
0010
0100
0000
1000
,
0100
0000
0000
0000
0001
0000
0010
0100
1000
0100
0000
0002
0200
0000
0000
0303
0000
0000
1001
0000
0000
0000
1000
0000
,
0100
0000
0001
0100
0000
0010
0100
0000
1000
0001
0100
0001
,
0010
0000
0000
1100
0000
0000
1001
0000
0100
0001
0000
1000
,
0100
0000
0001
0010
0000
0001
0100
0000
0100
0010
1000
0001
,
1000
0100
1000
0200
0000
0000
2300
0000
0000
3010
0000
1000
,
0100
0000
0001
0010
0000
0000
1001
0000
1000
0100
0000
0010
,
0100
0000
0001
1000
0000
0000
2002
0000
3003
0101
0000
0000
,
0110
0000
0000
1100
0000
0000
1001
0000
0000
1100
0000
0001
,
0101
0000
0010
1001
0000
0000
1000
0000
0000
1000
0000
0000
,
1000
1000
0001
0100
,
0010
1020
1030
0100
,
0010
1000
0001
1002
,
0103
0102
0103
1000
,
0100
1000
0100
0010
,
0001
0201
0301
1000
,
0010
0000
0000
1000
0000
0000
0001
0000
0000
0001
1000
0020
,
0000
0030
0000
0220
0000
0000
0330
0000
0000
0000
0000
0000
;

//---------------dance-single - ----------------
#NOTES:
     dance-single:
     :
     Medium:
     7:
     0.489,0.561,0.502,0.045,0.260:
0000
0000
0000
0000
,
0000
0000
0000
0000
,
0000
0000
0000
0000
,
0000
0000
0000
0000
,
1000
0001
0100
0000
1000
0001
0100
0000
,
1100
0101
1100
1001
,
0100
0000
0001
1000
0001
0000
0000
0000
1000
0000
0100
1000
0100
0000
0000
0000
,
1000
0001
0100
0000
,
0010
1000
0010
0001
0010
1000
0010
0000
,
1000
0100
0001
0100
1000
0100
0001
0000
,
1000
0001
0100
0010
1000
0100
0010
0001
,
1001
0000
1000
1000
,
0001
0100
0010
1000
,
0010
1000
0100
0010
,
0001
1000
1001
1001
,
1001
0000
0001
0100
,
0010
1000
0100
0010
,
0001
0010
0010
0001
,
0100
0001
0100
0010
,
1010
0000
1001
1000
,
0100
0100
0010
0001
,
1000
0001
0100
0010
,
1000
0010
1010
1010
,
1010
0000
1001
1000
,
0100
0010
0001
1000
,
0001
0100
0010
1000
,
0100
1000
0010
0100
,
2200
0000
0000
0000
0000
0000
0000
0000
0000
0000
0000
0000
0000
0000
0000
0000
0000
0000
0000
0000
0000
0000
0000
0000
0000
0000
0000
0000
0000
0000
3300
1100
,
0000
0000
0000
0000
0000
0000
1000
0000
0001
0100
0000
0010
,
0100
0000
1000
0001
0000
1000
0100
0000
0001
0010
0000
0000
,
1000
0000
0001
0100
0000
0000
0101
0000
0000
1010
0000
0000
,
0110
1001
0110
0010
,
0010
0000
0010
1000
0000
0000
0110
0000
0000
0110
0000
0000
,
0110
0000
0000
0010
0000
0010
1000
0000
0001
0100
0000
0000
,
0010
0000
0001
1000
0000
0000
1001
0000
0000
1001
0000
0000
,
1001
0000
0000
0001
0000
0001
0100
0000
0100
0010
0000
0000
,
0010
0000
0010
1000
0000
0000
0011
0000
0000
0110
0000
0000
,
1010
0000
0000
0001
1000
0001
1000
0000
0001
1000
0000
0000
,
0000
1100
0011
0110
,
1001
0000
0000
0001
0000
0001
1000
0000
1000
0001
0000
0000
,
0100
0010
1000
0010
,
0100
0000
0000
0010
0000
0010
1000
0000
0001
0100
0000
0000
,
1000
0000
1000
0001
0000
0000
0100
0000
0000
0010
0000
0000
,
0100
0010
1000
0001
,
0100
0001
0100
0010
,
1000
0000
0000
0001
0000
0001
1000
0000
1000
0001
0000
0000
,
0000
1000
0001
0100
,
0010
1000
0001
1000
,
0001
0100
0010
1000
,
0010
0000
0000
0100
0000
0100
0010
0000
0010
0100
0000
0000
,
0010
1010
0011
1100
,
0011
1100
0011
1010
,
0101
0011
1100
0110
,
1010
0000
0000
0000
0000
0000
0001
0000
0000
1100
0000
0000
0001
0000
0000
0000
0000
0000
1001
0000
0000
0000
0001
0000
,
0100
0000
0100
0010
0000
1000
0100
0000
0001
0010
0000
1000
,
0100
1000
0100
0010
0000
0000
1001
0000
0001
0100
0000
0010
,
0100
0000
1000
0100
0000
0001
0100
0000
0010
0100
0000
1000
,
0001
0000
1000
0100
0000
0000
1100
0000
0000
0001
0000
1000
,
0001
0000
0100
0001
0000
0010
0001
0000
1000
0001
0000
0001
,
0100
0000
0010
0100
0000
1000
0200
0000
0000
1300
0000
1000
,
0001
0000
0001
0100
0000
0010
0100
0000
1000
0001
0010
0100
,
1000
0001
0100
0010
0000
0000
1000
0000
0000
0001
0000
0000
,
1000
0001
0100
0010
,
1000
0110
0010
0010
,
1000
0001
1000
0101
,
0010
1001
0001
0001
,
0001
0001
1000
0010
,
1000
1010
1000
0100
,
0010
0000
0000
0001
0000
0000
0010
0000
0000
0000
0000
0011
,
0000
2200
3300
0000
;

//---------------dance-single - ----------------
#NOTES:
     dance-single:
     :
     Easy:
     6:
     0.483,0.559,1.000,0.018,0.004:
0000
0000
0000
0000
,
0000
0000
0000
0000
,
0000
0000
0000
0000
,
0000
0000
0000
0000
,
1000
0001
0100
0001
,
0010
0001
0101
1010
,
1001
1000
0001
0100
,
0010
1000
0001
0000
,
1000
0001
1000
0001
1000
0001
1000
0000
,
0100
0001
0100
0001
0100
0001
0010
0000
,
1000
0001
0100
0010
1000
0100
0010
0001
,
1001
0000
1000
1000
,
0001
0001
0100
0001
,
0100
0000
0010
1000
,
0001
1000
0100
0010
,
0001
0000
0001
1000
,
0100
0010
0001
0100
,
0001
0100
0010
1000
,
1000
1000
0001
0100
,
0010
0000
1001
0001
,
1000
0001
0100
0010
,
1000
1000
0010
1000
,
0100
0010
0001
0100
,
0010
1000
0100
0010
,
1000
0001
1000
0010
,
0100
0001
0001
0100
,
0010
1000
0001
0100
,
0001
1001
0000
0000
,
0000
1100
0011
1000
,
0001
0100
1010
0101
,
0000
1100
1100
1100
,
1100
1100
1100
1100
,
1100
0101
0101
0101
,
0101
0101
0101
0101
,
0010
0011
0011
0011
,
0011
0011
0011
0011
,
0011
1001
1001
1001
,
1001
1100
0101
1100
,
0000
1001
1001
1001
,
1001
1001
1001
1001
,
1001
0110
0110
0110
,
0110
0110
0110
0110
,
0000
1010
1010
1010
,
1010
1010
1010
1010
,
1010
0101
0101
0101
,
0101
0011
1100
1001
,
0000
1000
0001
0100
,
0010
1000
1000
1000
,
1000
0100
0010
0001
,
0100
0001
1000
0001
,
1000
1001
1001
1001
,
1001
0101
1010
1100
,
0011
0101
0110
0110
,
0110
2002
3003
0011
,
0011
1100
1100
1001
,
0101
1100
0011
1100
,
1100
0110
0110
1001
,
1010
0101
0000
0101
,
0110
1001
1100
0011
,
0110
1100
0110
0110
,
1001
1001
1001
1100
,
0101
0110
0010
0010
,
0010
0010
0010
0010
,
0010
0110
0010
0010
,
0010
0010
0010
0110
,
0010
0110
1000
1000
,
1000
1000
1000
1000
,
1000
1001
1000
1000
,
1000
0000
0000
1000
0000
0000
1000
0000
0000
0000
0000
0010
,
0000
1001
0000
0000
;

//---------------dance-single - ----------------
#NOTES:
     dance-single:
     :
     Beginner:
     3:
     0.147,0.310,0.251,0.000,0.000: // measure 1
0000
0000
0000
0000
,  // measure 2
0000
0000
0000
0000
,  // measure 3
0000
0000
0000
0000
,  // measure 4
0000
0000
0000
0000
,  // measure 5
1000
0000
0000
0000
,  // measure 6
0001
0000
0010
0010
,  // measure 7
0010
0000
0100
0000
,  // measure 8
0010
0000
0010
0000
,  // measure 9
1000
0000
0000
0000
,  // measure 10
0001
0000
0000
0000
,  // measure 11
0100
0000
0000
0000
,  // measure 12
0110
0000
1000
0000
,  // measure 13
0000
0000
0000
0000
,  // measure 14
0000
0000
0001
0000
,  // measure 15
0000
0000
0100
0100
,  // measure 16
0100
0000
0010
0000
,  // measure 17
0000
0000
0000
0000
,  // measure 18
0000
0000
1000
0000
,  // measure 19
0000
0000
0001
0000
,  // measure 20
0001
0000
1001
0000
,  // measure 21
0000
0000
1000
0000
,  // measure 22
1000
0000
1000
0000
,  // measure 23
0000
0000
0001
0000
,  // measure 24
0001
0000
0100
0000
,  // measure 25
0000
0000
0010
0000
,  // measure 26
0000
0000
0010
0000
,  // measure 27
0010
0000
0010
0000
,  // measure 28
0110
0000
0000
0000
,  // measure 29
0000
0000
0000
1000
,  // measure 30
0001
0100
0010
0010
,  // measure 31
0000
1001
0000
0000
,  // measure 32
0000
1000
0000
0000
,  // measure 33
0000
0001
0000
0000
,  // measure 34
0000
0100
0100
0100
,  // measure 35
0000
0010
0000
0000
,  // measure 36
0000
1000
0000
0000
,  // measure 37
0000
0001
0000
0000
,  // measure 38
0000
1000
1000
1000
,  // measure 39
0000
1001
0000
0000
,  // measure 40
0000
1000
0000
0000
,  // measure 41
0000
0010
0000
0000
,  // measure 42
0000
0100
0100
0100
,  // measure 43
0000
0001
0000
0000
,  // measure 44
0000
1000
0000
0000
,  // measure 45
0000
0010
0000
0000
,  // measure 46
0000
0100
0000
0100
,  // measure 47
0000
0010
0000
0000
,  // measure 48
0000
0000
0000
0000
,  // measure 49
0000
1000
0000
0000
,  // measure 50
0000
0000
0000
0000
,  // measure 51
0000
1001
0000
0000
,  // measure 52
0000
0110
0000
0000
,  // measure 53
0000
0110
0000
0110
,  // measure 54
0000
1001
0110
1001
,  // measure 55
0000
0000
0000
1001
,  // measure 56
0000
0000
0000
0110
,  // measure 57
0000
0000
0000
0110
,  // measure 58
1001
0110
0000
0110
,  // measure 59
0000
0000
0000
1001
,  // measure 60
0000
0000
0000
1001
,  // measure 61
0000
0000
0000
1001
,  // measure 62
1001
1001
1000
0000
,  // measure 63
0000
0000
0000
0000
,  // measure 64
0000
1001
0000
0000
,  // measure 65
0000
0000
0000
0110
,  // measure 66
0000
0110
0000
0000
,  // measure 67
0000
0000
0000
0000
,  // measure 68
0000
0110
0000
0000
,  // measure 69
0000
0000
0000
0000
,  // measure 70
0000
1001
0000
0000
;
