#TITLE:tripping contact;
#SUBTITLE:(teranoid&MC Natsack Remix);
#ARTIST:kors k vs. teranoid;
#TITLETRANSLIT:;
#SUBTITLETRANSLIT:;
#ARTISTTRANSLIT:;
#CREDIT:;
#BANNER:bn.PNG;
#BACKGROUND:bg.PNG;
#LYRICSPATH:;
#CDTITLE:13 dd.png;
#MUSIC:tripping_contact_(teranoid&mc_natsack_remix).mp3;
#OFFSET:-1.040;
#SAMPLESTART:63.880;
#SAMPLELENGTH:20.640;
#SELECTABLE:YES;
#BPMS:0.000=187.000,134.000=93.500,150.000=187.000;
#STOPS:178.000=0.963
;
#BGCHANGES:;

//---------------dance-single - ----------------
#NOTES:
     dance-single:
     :
     Hard:
     9:
     0.515,0.587,0.210,0.089,0.028:
0000
0000
0000
0000
,
0000
0000
1001
0000
,
0000
0000
0000
0000
,
0000
0010
0110
0000
,
0000
0000
0000
0000
,
0000
0000
0000
1000
1100
0000
0000
0000
,
0000
0000
0000
0000
,
0000
1100
0011
0000
,
0000
0000
0000
0000
0001
0100
0000
0001
,
0000
0100
0001
0000
1000
0100
0010
0001
,
0010
0100
0000
0000
0001
0100
0001
0100
,
0010
1000
0000
0000
1000
0100
0010
0001
,
0100
0001
0000
0000
0001
1000
0010
1000
,
0010
1000
0010
0000
1000
0100
0010
0000
,
0001
0100
0001
0000
0010
1000
0010
0000
,
0010
0100
0010
0000
1000
0001
0100
0000
,
1000
0100
0010
0000
0002
0000
2000
0000
,
0000
0000
3003
0000
1000
0100
0010
0001
,
0010
0100
0001
0100
0010
1000
0010
1000
,
0001
1000
0001
1000
0010
0001
0010
0100
,
1000
0100
0010
0001
0010
0100
0001
1000
,
0010
1000
0001
1000
0100
1000
0100
0010
,
0001
0010
0100
0001
1000
0001
1000
0010
,
1000
0010
0100
1000
0100
0010
0001
0010
,
0100
0010
1000
0100
1000
0000
1000
0000
,
1000
0000
1001
0000
0001
0100
0010
1000
,
0010
1000
0010
1000
0001
0100
0010
1000
,
0001
0100
1000
0010
1000
0100
0010
0001
,
0010
1000
0100
1000
0100
1000
0010
0100
,
0001
0100
0010
0100
0001
0100
0001
0000
,
1000
0100
1000
0000
0001
0100
1000
0000
,
1000
0100
0001
0000
0001
0010
1000
0010
,
0001
0010
0100
1000
0100
0010
0001
0010
,
0100
0010
2000
0000
,
3200
0000
2300
0000
,
0000
3000
0002
0000
,
0203
0000
0020
0000
,
0000
0000
0330
0000
1000
0000
0000
0100
,
0000
0000
0010
0000
0000
0001
0000
0000
,
0100
0001
0100
0001
0100
0000
0000
0001
,
0000
0000
0010
0000
0000
1000
0000
0000
,
1000
0100
0010
0001
0010
0000
0000
0001
,
0000
0000
0100
0000
0000
0010
0000
0000
,
1000
0100
0010
0001
0010
0000
0000
0100
,
0000
1000
1001
0110
,
0010
0100
0000
0100
1000
0000
1000
0100
,
0000
1000
0100
0010
0001
0100
0001
0000
,
0001
0100
0000
0010
1000
0000
0001
0100
,
0000
1000
0100
0010
0001
0010
0100
0000
,
0001
0100
0000
0010
1000
0000
0010
0100
,
0000
0001
1000
0001
1000
0001
1000
0000
,
1000
0100
0000
0010
0001
0000
0011
0000
,
1100
0110
0000
1001
,
0001
1000
0000
1000
0010
0000
0010
0100
,
0000
0100
0010
0100
0010
0100
0001
0000
,
0001
0010
0000
1000
0001
0000
0100
0010
,
0000
1000
0100
0010
0001
0010
0100
0000
,
0001
0100
0000
0010
1000
0000
0001
1000
,
0000
0100
1000
0100
0010
0001
0011
0000
,
0000
1100
0000
0101
,
1010
0000
0000
0000
1100
0000
0000
0000
0001
0000
0000
0000
1000
0000
0000
0100
,
0000
0000
1000
0000
0100
0000
0010
0000
0001
0000
0010
0000
0100
0000
0000
0010
,
0000
0000
0100
0000
0010
0000
0100
0000
0010
0000
0100
0000
0001
0000
0000
1000
,
0000
0000
0001
0000
1000
0000
0010
0000
1000
0000
0010
0000
1000
0000
0000
1000
,
0000
0000
0100
0000
1000
0000
0100
0000
0010
0000
0001
0000
0010
0000
0000
0100
,
0000
0000
0010
0000
1000
0000
0010
0000
1000
0000
0010
0000
0100
0000
0000
0001
,
0000
0000
0100
0000
0001
0000
0100
0000
0001
0000
0100
0000
0001
0000
0000
1000
,
0000
0100
0010
0001
0010
0100
1000
0000
,
0001
0000
0100
0000
0010
0000
0100
0010
,
1000
0001
1000
0100
0010
0001
0010
0100
,
0001
0100
0010
1000
0010
1000
0001
0100
,
1000
0100
0010
0001
0010
0100
0001
0100
,
0010
1000
0010
0100
1000
0100
0010
0000
,
0010
0001
0010
1100
,
1100
0010
1000
1010
,
0010
0110
0010
0011
,
1100
0110
1001
2000
,
0000
0000
0000
0000
,
0000
0000
0001
0001
,
0000
0000
0000
0000
,
0000
0000
0000
0000
0000
0001
0001
0000
,
0000
0000
0000
0000
,
0000
0000
0001
0001
,
0000
0000
0000
0000
0000
0000
3001
1000
,
0000
0100
0000
0010
0100
0000
2002
0000
,
0000
0000
3003
0000
;

//---------------dance-single - ----------------
#NOTES:
     dance-single:
     :
     Medium:
     6:
     0.387,0.553,0.250,0.105,0.000:
0000
0000
0000
0000
,
0000
0000
0001
0000
,
0000
0000
0000
0000
,
0000
1000
1000
0000
,
0000
0000
0000
0000
,
0000
0000
0000
0010
0100
0000
0000
0000
,
0000
0000
0000
0000
,
0000
0100
0100
0000
,
0000
0000
0000
0000
1000
0001
0000
1000
,
0000
0001
0000
0000
1000
0000
0100
0000
,
0010
0001
0010
0000
0100
0000
0001
0000
,
0010
1000
0010
0000
1000
0000
0100
0000
,
0010
0001
0010
0000
0001
0000
0100
0000
,
0001
0100
0002
0000
0103
0000
0010
0000
,
1000
0010
0001
0100
,
0001
0010
0001
0100
,
1000
0010
2000
0002
,
0000
0000
3003
0000
0010
1000
0010
0000
,
0100
0000
0010
0000
0001
0100
0001
0000
,
0010
0001
0010
0000
0100
1000
0100
0000
,
0010
0000
1000
0000
0001
1000
0001
0000
,
0010
1000
0010
0000
0001
0000
0100
0000
,
1000
0100
1000
0000
0010
0000
0100
0000
,
0001
0100
0001
0000
0010
0000
0001
0000
,
0010
1000
0010
0000
0001
0000
0001
0000
,
0001
0000
1001
0000
1000
0001
1000
0000
,
1000
0000
0100
0000
0010
0001
0010
0000
,
0100
0000
0001
0000
0010
1000
0010
0000
,
0100
1000
0010
0100
,
0010
0001
0011
0100
,
1100
0010
0110
0001
,
1100
0010
1010
0110
,
0011
1100
1001
0110
,
0101
1100
0012
0000
,
2003
0000
0002
0000
,
0000
3003
0020
0000
,
0230
0000
0020
0000
,
0000
0330
1001
0000
,
0000
0000
0000
0000
,
1000
0010
0101
0000
,
0000
0000
1000
0000
,
0010
0100
1001
0000
,
0000
0000
1100
0000
,
0010
0001
0101
0000
,
1000
0000
1001
0001
,
0000
1000
0000
0000
0100
0000
0000
0010
,
0000
0000
0001
0100
0001
0100
0001
0000
,
0000
0001
0000
0000
0100
0000
0000
0010
,
0000
0000
1000
0100
1000
0100
1000
0000
,
0000
0010
0000
0000
0001
0000
0000
1000
,
0000
0000
1000
0100
0010
0001
0010
0000
,
0000
0001
0000
0000
0200
0000
1000
0000
,
1000
1300
0000
1100
,
0000
0100
0000
0000
0010
0000
0000
0001
,
0000
0000
1000
0001
1000
0001
0100
0000
,
0000
0001
0000
0000
0010
0000
0000
1000
,
0000
0000
0100
1000
0100
1000
0100
0000
,
0000
0010
0000
0000
1000
0000
0000
0001
,
0000
0000
0100
0001
0100
0001
0010
0000
,
0000
1000
0000
0001
,
0001
0000
0001
0000
0001
0000
1000
0001
,
1000
0000
0100
0000
0010
0000
0001
0010
,
0001
0000
0100
0000
0001
0000
0010
1000
,
0010
0000
1000
0000
0100
0000
1000
0100
,
1000
0000
0010
0000
0001
0000
1000
0001
,
1000
0000
0001
0000
0100
0000
0010
0001
,
0010
0000
0100
0000
1000
0000
0010
1000
,
0010
0001
1000
0100
,
0010
0000
0001
0000
1000
0000
0001
1000
,
0001
0000
1000
0100
1000
0000
0010
0001
,
0010
0000
0001
0000
0100
0000
0001
0100
,
0001
0000
1000
0100
1000
0000
0010
1000
,
0010
1000
0001
0101
,
0101
1000
0100
0011
,
0011
0001
0100
1001
,
0100
0101
0010
0110
,
1100
0011
0110
2000
,
0000
0000
0000
0000
,
0000
3000
0001
0001
,
0000
0000
0000
0000
,
0000
0000
0000
0000
0000
0010
0010
0000
,
0000
0000
0000
0000
,
0000
0000
0100
0010
,
0000
0000
0000
0000
0000
0000
0001
1000
,
0000
0100
0000
0010
0000
0002
2000
0000
,
0000
0000
3003
0000
;

//---------------dance-single - ----------------
#NOTES:
     dance-single:
     :
     Easy:
     4:
     0.298,0.479,0.097,0.202,0.000:
0000
0000
0000
0000
,
0000
0000
0001
0000
,
0000
0000
0000
0000
,
0000
1000
1000
0000
,
0000
0000
0000
0000
,
0000
0000
0010
0000
,
0000
0000
0000
0000
,
0000
0100
0100
0000
,
0000
0000
0000
0000
,
0000
0000
1000
1000
,
1000
0000
0001
0001
,
0001
0000
0010
0010
,
0010
0000
0100
0100
,
0100
0000
1000
0100
,
0010
0000
0001
0100
,
0010
0000
1000
0001
,
0100
0000
0020
0002
,
0000
0033
1000
0001
,
1000
0001
0100
0001
,
0100
0001
0010
1000
,
0100
0001
0100
1000
,
0001
1000
1010
1000
,
0010
1000
0001
0100
,
0001
0010
0001
0010
,
0100
1000
0002
1000
,
1000
1003
1000
0001
,
1000
0001
0100
0010
,
0100
0010
1000
0100
,
0010
0001
0010
0100
,
1000
0001
0101
0000
,
1100
0000
0011
0000
,
1010
0000
1000
1000
,
0001
0001
0100
0100
,
0010
0110
1000
0000
,
0001
0000
0100
0000
,
0000
0000
0010
0000
,
0001
0000
1000
0000
,
0000
0000
2000
0000
,
0000
0000
0000
0000
,
0000
0000
3002
0000
,
0000
0000
0000
0000
,
0000
0000
0203
0000
,
0000
0000
0000
0000
,
0000
0000
0320
0000
,
0000
0000
1030
0001
,
1000
0001
1000
0001
,
1000
0001
1000
0001
,
0100
0001
0100
0001
,
0100
0001
0100
0010
,
1000
0010
1000
0010
,
1000
0010
0100
1000
,
0100
1000
0100
1000
,
1000
1000
0000
0001
,
0001
1000
1000
0100
,
0100
0010
0010
0100
,
0100
0010
0010
1000
,
1000
0001
0001
0100
,
0001
0010
1000
1000
,
0100
1000
0100
0101
,
0000
1100
0000
0101
,
1100
1010
0011
2000
,
3100
0001
0100
0002
,
0103
0001
0010
0002
,
0013
1000
0010
2000
,
3010
1000
0001
0200
,
0301
0010
1000
0200
,
1300
0100
0001
0020
,
1030
0001
1000
0002
,
0000
0000
0003
2000
,
3100
0020
0031
0200
,
0301
0020
1030
0200
,
1300
0020
0031
0200
,
0301
2000
3100
1000
,
0000
0000
0000
0001
,
0000
0000
0000
1000
,
0000
0001
0000
1000
,
1000
0001
0001
2000
,
0000
0000
0000
0000
,
0000
3000
0001
0001
,
0000
0000
0000
0000
,
0000
0000
0000
0010
,
0000
0000
0000
0000
,
0000
0000
0100
0100
,
0000
0000
0000
2000
,
0000
0000
0000
3000
;

//---------------dance-single - ----------------
#NOTES:
     dance-single:
     :
     Beginner:
     2:
     0.072,0.240,0.048,0.000,0.000: // measure 1
0000
0000
0000
0000
,  // measure 2
0000
0000
0000
0000
,  // measure 3
0000
0000
0000
0000
,  // measure 4
0000
0000
0000
0000
,  // measure 5
0000
0000
0000
0000
,  // measure 6
0000
0000
0000
0000
,  // measure 7
0000
0000
0000
0000
,  // measure 8
0000
0000
0000
0000
,  // measure 9
0000
0000
0000
0000
,  // measure 10
0000
0000
0010
0000
,  // measure 11
0000
0000
0010
0000
,  // measure 12
0000
0000
0010
0000
,  // measure 13
0000
0000
0010
0000
,  // measure 14
0000
0000
0100
0000
,  // measure 15
0000
0000
0100
0000
,  // measure 16
0000
0000
0100
0000
,  // measure 17
0000
0000
0000
0000
,  // measure 18
0000
0000
1000
0000
,  // measure 19
0000
0000
0000
0000
,  // measure 20
0000
0000
0001
0000
,  // measure 21
0000
0000
0000
0000
,  // measure 22
0000
0000
0010
0000
,  // measure 23
0000
0000
0000
0000
,  // measure 24
0000
0000
0100
0000
,  // measure 25
0000
0000
0000
0000
,  // measure 26
0000
0000
1001
0000
,  // measure 27
0000
0000
0000
0000
,  // measure 28
0000
0000
0100
0000
,  // measure 29
0000
0000
0000
0000
,  // measure 30
0000
0000
0110
0000
,  // measure 31
0010
0000
0110
0000
,  // measure 32
0010
0000
0110
0000
,  // measure 33
0100
0000
1001
0000
,  // measure 34
1001
0000
1000
0000
,  // measure 35
0000
0000
0000
0000
,  // measure 36
0000
0000
0001
0000
,  // measure 37
0000
0000
0000
0000
,  // measure 38
0000
0000
0100
0000
,  // measure 39
0000
0000
0000
0000
,  // measure 40
0000
0000
0000
0000
,  // measure 41
0000
0000
0000
0000
,  // measure 42
0000
0000
0010
0000
,  // measure 43
0000
0000
0000
0000
,  // measure 44
0000
0000
1000
0000
,  // measure 45
0000
0000
0001
0001
,  // measure 46
0000
0000
0000
0000
,  // measure 47
0000
0000
0000
1000
,  // measure 48
0000
0000
0000
0000
,  // measure 49
0000
0000
0000
0010
,  // measure 50
0000
0000
0000
0000
,  // measure 51
0000
0000
0000
0100
,  // measure 52
0000
0000
0000
0001
,  // measure 53
0001
0001
0000
1000
,  // measure 54
0000
0000
0000
0000
,  // measure 55
0000
0000
0000
0001
,  // measure 56
0000
0000
0000
0000
,  // measure 57
0000
0000
0000
0010
,  // measure 58
0000
0000
0000
0000
,  // measure 59
0000
0000
0000
0100
,  // measure 60
0000
0000
0000
0000
,  // measure 61
0000
0000
0000
1000
,  // measure 62
0000
0000
0000
1000
,  // measure 63
0000
0000
0000
1000
,  // measure 64
0000
0000
0000
1000
,  // measure 65
0000
0000
0000
0001
,  // measure 66
0000
0000
0000
0001
,  // measure 67
0000
0000
0000
0001
,  // measure 68
0000
0000
0000
0001
,  // measure 69
0000
0000
0000
0100
,  // measure 70
0000
0000
0000
0100
,  // measure 71
0000
0000
0000
0100
,  // measure 72
0000
0000
0000
0100
,  // measure 73
0000
0000
0000
0010
,  // measure 74
0000
0000
0000
0010
,  // measure 75
0000
0000
0000
0010
,  // measure 76
0000
0000
0000
0010
,  // measure 77
0000
0000
0000
1000
,  // measure 78
0000
0000
0000
0000
,  // measure 79
0000
0000
0000
0000
,  // measure 80
0000
0000
0000
0000
,  // measure 81
0000
0000
0000
0000
,  // measure 82
0000
0000
0000
0000
,  // measure 83
0000
0000
0000
0000
,  // measure 84
0000
0000
0000
0000
,  // measure 85
0000
0000
0000
0001
;
