#TITLE:together 4ever;
#SUBTITLE:;
#ARTIST:Sota Fujimori feat. yoshiko;
#TITLETRANSLIT:;
#SUBTITLETRANSLIT:;
#ARTISTTRANSLIT:;
#CREDIT:;
#BANNER:bn.PNG;
#BACKGROUND:bg.bmp;
#LYRICSPATH:;
#CDTITLE:;
#MUSIC:together 4ever.mp3;
#OFFSET:-6.880;
#SAMPLESTART:61.717;
#SAMPLELENGTH:13.200;
#SELECTABLE:YES;
#BPMS:0.000=140.000;
#STOPS:;
#BGCHANGES:;

//---------------dance-single - ----------------
#NOTES:
     dance-single:
     :
     Hard:
     7:
     0.419,0.536,0.075,0.320,0.193:
2100
0000
0100
0000
0010
0000
3001
1000
,
0000
0001
0000
2000
0000
0000
3000
0000
,
0000
0000
0110
0000
0100
0000
1000
0100
,
0000
0000
0010
0000
0000
0000
0001
0000
0100
0000
0000
0100
0000
0000
0100
0000
,
1000
0000
0100
0000
0010
0000
0001
1000
,
0000
0002
0000
2000
0000
0000
3003
0000
,
0010
0000
0100
0000
1000
0000
0100
1000
,
0000
0000
0100
0000
0000
0000
0010
0000
0001
0000
0000
0001
0000
0000
1000
0000
,
0001
0000
0100
0000
0010
0000
1000
0200
,
0000
1000
0000
2000
0000
0000
3300
0000
,
0010
0000
1000
0000
0001
0000
1000
0010
,
0000
0000
1000
0000
0000
0000
0100
0000
0010
0000
0000
0001
0000
0000
0010
0000
,
0100
0000
1000
0000
0001
0000
0100
0010
,
0000
0100
0000
0020
0000
0000
0000
0000
,
0200
0030
0020
0330
,
2002
0000
0000
3003
,
1000
0000
0000
0000
0100
0000
0000
0010
0000
0000
0000
0000
0001
0000
0100
0000
,
0001
0000
0010
1000
0010
0000
0100
0000
,
1000
0000
0000
0000
0100
0000
0000
0010
0000
0000
0001
0000
0100
0000
0001
0000
,
0000
0000
0010
0000
0000
0000
0000
0000
1000
0000
0000
0100
0000
0000
0010
0000
,
0001
0000
0000
0000
1000
0000
0000
0001
0000
0000
0000
0000
0010
0000
0100
0000
,
1000
0100
0010
0001
0100
0001
0100
0001
,
1000
0000
0000
0010
0100
0000
1000
0100
,
0000
0020
0000
0000
0001
0000
0100
0000
,
2030
3100
0002
0103
,
0020
0031
0200
0310
,
2000
3100
0020
1030
,
0002
0000
0000
0000
0103
0000
0000
0000
0020
0000
0000
0030
0001
0000
0000
0011
,
0000
0002
0103
2000
,
3100
0020
0130
2000
,
3100
0020
0130
0002
,
0013
0020
0230
0320
,
1030
0000
0001
1000
0001
0000
0010
0000
,
1010
0000
1000
0100
0010
0001
0010
0100
,
2000
3001
0200
0310
,
2000
3100
0010
0001
,
0101
0000
0010
0100
0010
0000
1000
0000
,
0001
0000
0100
0000
0010
0000
1000
0001
,
0100
0010
1000
0100
,
0010
0000
0001
0000
0100
1000
0100
0010
,
0001
0000
1000
0000
0001
0000
0100
0010
,
0100
0000
1000
0000
0100
0010
0001
0000
,
1000
0001
0100
0010
,
0100
1000
1100
0010
,
0011
0000
0100
0001
0100
0000
0010
0000
,
1000
0100
0010
0001
,
1000
0000
0000
0000
0001
0000
0000
0000
0100
0000
0000
0000
0010
0000
0000
1000
,
0000
0100
0000
0010
0000
0001
0000
0000
0010
0000
0000
0100
0000
1000
0000
0000
,
0001
0000
0000
1000
0000
0100
0000
0010
0001
0000
0000
0000
0000
0000
0000
0000
,
0010
0000
0000
0100
0000
0010
0000
0100
0010
0000
0000
0000
0100
0000
0000
0000
,
1000
0000
0000
0100
0000
1000
0000
0100
1000
0000
0000
0000
0010
0000
0000
0000
,
0100
0000
0000
0001
0000
0100
0000
0001
0100
0000
0000
0000
0010
0000
0000
0000
,
1000
0000
1000
0100
0000
1000
0000
1000
0001
0000
0000
0000
0010
0000
0100
0000
,
0010
0000
0010
0100
0000
0010
0000
0010
0100
0000
0000
0000
0010
0000
1000
0000
,
0001
0000
0001
1000
0000
0001
0000
0001
1000
0000
0001
0000
1000
0000
0010
0000
,
1000
0000
0100
1000
0000
0010
0000
0100
0000
0001
0000
1000
0010
0000
0100
0020
,
0200
0000
0000
0000
,
0330
0000
0000
0000
;

//---------------dance-single - ----------------
#NOTES:
     dance-single:
     :
     Medium:
     5:
     0.329,0.342,0.056,0.254,0.005:
1000
0000
0001
0000
1000
0000
0001
1000
,
0000
0001
0000
2000
0000
0000
3000
0000
,
0000
0000
0001
0000
0100
0000
0001
0100
,
0000
0001
0000
0200
0002
0000
0000
0000
,
0303
0000
0001
0000
1000
0000
0001
2000
,
0000
0001
0000
0002
0000
0000
3003
0000
,
0000
0000
0010
0000
0100
0000
0010
0100
,
0000
1000
0000
0001
2000
0000
0000
0000
,
3001
0000
0100
0000
0001
0000
0100
0002
,
0000
1000
0000
2000
0000
0000
3003
0000
,
0000
0000
1000
0000
0100
0000
0010
0002
,
0000
0010
0000
0010
0000
0010
0000
0013
,
0001
0000
0100
0000
1000
0000
0001
2000
,
0000
0100
0000
0200
0000
0000
3300
0000
,
0002
0000
2003
0000
,
3100
0000
0000
0000
0001
0010
0100
0000
,
2000
0000
3001
0000
0100
0000
0001
0100
,
0001
0100
0001
0100
,
1000
0010
0001
0100
,
1000
0100
0002
0000
,
2003
0000
0100
0000
3010
0000
0001
0100
,
0001
0100
1000
0100
,
0001
0010
1000
0100
,
0001
1000
0001
1000
,
2000
0100
0100
0100
,
3100
0002
0100
0100
,
0010
0020
0000
0033
,
1100
0000
0000
0000
0000
0000
0000
0000
0001
0000
0000
0000
1000
0000
0000
0001
,
0000
0100
0001
0010
,
1000
0100
0010
0001
,
0100
0000
0101
0000
0000
0000
0000
1000
,
0200
0000
0000
2000
0000
0000
3300
0000
,
0000
1000
0001
0100
,
0010
0000
1000
0100
1000
0000
0001
0000
,
0010
0001
0100
1000
,
0010
0100
0001
2000
,
3100
0000
0010
0001
0010
0000
0100
0000
,
0001
0000
1000
0000
0010
0000
0100
1000
,
0100
0010
0001
1000
,
0001
0000
0100
0000
0010
1000
0010
0000
,
0001
0101
1000
0100
,
0010
0000
0001
0000
1000
0001
1000
0000
,
0100
0010
0001
1000
,
1100
0010
0011
0100
,
0101
0000
0001
0100
0001
0000
0100
0000
,
0010
1000
0100
0010
,
0001
1000
0001
0100
,
0010
0000
1000
0000
0001
0000
1000
0100
,
0020
0000
0030
0000
,
0002
0000
0003
1000
,
2000
0000
3000
0100
,
0200
0000
0000
0300
,
0001
0000
1000
0000
0001
1000
0001
0000
,
0010
0000
1000
0000
0001
0100
0001
0000
,
1000
0000
0100
0000
0010
0001
0010
0000
,
1000
0100
0010
0001
1000
0000
0002
0000
,
1003
0000
0000
0000
;

//---------------dance-single - ----------------
#NOTES:
     dance-single:
     :
     Easy:
     3:
     0.278,0.290,0.056,0.273,0.000:
1000
0100
0010
0001
,
0100
0002
0200
0303
,
1000
0100
0010
0001
,
0100
1000
0020
0000
,
1030
0100
0010
0001
,
2000
0001
0002
3003
,
0100
0001
0100
0010
,
1000
0100
2000
0000
,
3001
0100
0010
1000
,
0100
0020
0002
0033
,
0001
0100
0010
1000
,
0100
0010
0002
0000
,
1003
0001
0100
0010
,
1000
0100
0010
0001
,
2000
0000
3001
0000
,
0200
0000
0020
0330
,
1001
1000
1000
0000
,
0001
0000
1000
0000
,
0100
0000
0010
0001
,
0100
0000
2000
0000
,
3001
0100
0010
0000
,
0010
0100
0001
1000
,
1100
0000
0010
0001
,
0100
0001
1000
0000
,
0002
1003
1000
0100
,
0010
0001
0100
1000
,
0020
2000
0000
3030
,
1000
0000
0001
0001
,
1001
0100
0010
1000
,
0100
0001
1000
0100
,
0020
0000
0000
0000
,
0200
0000
0000
0330
,
1100
0100
0010
0001
,
0100
1000
0001
1000
,
0100
0010
1000
0001
,
1000
0100
0010
0001
,
0101
0001
0010
0100
,
1000
0001
1000
0100
,
0010
0001
0100
1000
,
0001
0100
0010
0100
,
0110
0010
0010
0100
,
0100
0001
1000
0100
,
0010
0001
0100
0010
,
2000
0100
0010
0001
,
3001
0001
0100
0010
,
1000
0100
0010
0001
,
0100
0010
1000
0001
,
2000
3001
0002
1003
,
0200
0000
0300
0000
,
0020
0000
0030
0000
,
0200
0000
0300
0000
,
0020
0000
0030
0000
,
2000
0000
0000
0000
,
3002
0000
0000
0000
,
0203
0000
0000
0000
,
0320
0000
0000
0000
,
0030
0000
0000
0000
;

//---------------dance-single - ----------------
#NOTES:
     dance-single:
     :
     Beginner:
     1:
     0.066,0.158,0.047,0.000,0.000: // measure 1
0001
0000
0000
0000
,  // measure 2
0000
0000
0000
0000
,  // measure 3
1000
0000
0000
0000
,  // measure 4
0000
0000
0000
0000
,  // measure 5
0010
0000
0000
0000
,  // measure 6
0000
0000
0000
0000
,  // measure 7
0100
0000
0000
0000
,  // measure 8
0000
0000
0000
0000
,  // measure 9
1000
0000
0000
0000
,  // measure 10
0000
0000
0000
0000
,  // measure 11
0001
0000
0000
0000
,  // measure 12
0000
0000
0000
0000
,  // measure 13
0010
0000
0000
0000
,  // measure 14
0000
0000
0000
0000
,  // measure 15
0100
0000
0000
0000
,  // measure 16
0000
0000
1000
0000
,  // measure 17
1001
0000
0000
0000
,  // measure 18
0000
0000
0000
0000
,  // measure 19
0001
0000
0000
0000
,  // measure 20
0000
0000
0010
0000
,  // measure 21
0010
0000
0000
0000
,  // measure 22
0100
0000
0000
0000
,  // measure 23
0100
0000
0000
0000
,  // measure 24
0000
0000
0000
0000
,  // measure 25
1000
0000
0000
0000
,  // measure 26
0000
0000
0000
0000
,  // measure 27
0001
0000
0000
0000
,  // measure 28
0000
0000
0000
0100
,  // measure 29
0000
0100
0000
0000
,  // measure 30
0000
0000
0000
0000
,  // measure 31
0000
0000
0000
0000
,  // measure 32
0010
0000
0000
0000
,  // measure 33
0110
0000
0000
0000
,  // measure 34
0100
0000
0000
0000
,  // measure 35
0010
0000
0000
0000
,  // measure 36
0010
0000
0000
0000
,  // measure 37
0010
0000
0000
0000
,  // measure 38
0000
0000
0000
0000
,  // measure 39
1000
0000
0000
0000
,  // measure 40
0001
0000
0000
0000
,  // measure 41
1001
0000
0000
0000
,  // measure 42
0000
0000
0000
0000
,  // measure 43
0100
0000
0000
0000
,  // measure 44
0010
0000
0000
0000
,  // measure 45
1000
0000
0000
0000
,  // measure 46
0000
0000
0000
0000
,  // measure 47
0001
0000
0000
0000
,  // measure 48
1001
0000
0110
0000
,  // measure 49
0100
0000
0000
0000
,  // measure 50
0100
0000
0000
0000
,  // measure 51
0100
0000
0000
0000
,  // measure 52
0100
0000
0000
0000
,  // measure 53
1000
0000
0000
0000
,  // measure 54
1000
0000
0000
0000
,  // measure 55
0001
0000
0000
0000
,  // measure 56
0001
0000
0000
0100
,  // measure 57
0100
0000
0000
0000
;
