#TITLE:the shadow;
#SUBTITLE:;
#ARTIST:kors k;
#TITLETRANSLIT:;
#SUBTITLETRANSLIT:;
#ARTISTTRANSLIT:;
#CREDIT:;
#BANNER:bn.bmp;
#BACKGROUND:bg.bmp;
#LYRICSPATH:;
#CDTITLE:14 Gold.png;
#MUSIC:the shadow.mp3;
#OFFSET:-6.170;
#SAMPLESTART:24.632;
#SAMPLELENGTH:12.000;
#SELECTABLE:YES;
#BPMS:0.000=156.000;
#STOPS:;
#BGCHANGES:;

//---------------dance-single - ----------------
#NOTES:
     dance-single:
     :
     Hard:
     9:
     0.707,0.743,0.350,0.170,0.425:
0001
1000
0010
0100
1000
0100
0010
1000
,
0001
0100
0010
0001
0010
0100
1000
0001
,
1000
0001
0010
1000
0001
0100
0010
0100
,
0001
0010
0001
0010
0001
0010
0100
1000
0100
1000
0100
1000
0200
0000
0000
0000
,
0301
1000
0001
0100
1000
0100
0010
0001
,
0010
1000
0001
1000
0001
0010
0000
0000
,
0011
0010
0001
0010
1000
0100
0010
1000
,
0100
1000
0101
0000
0010
0100
0110
0000
,
1000
0000
0000
0100
0000
0000
0000
0000
0000
0000
0000
0000
0000
0000
0010
0001
,
0010
0000
0000
1100
0000
0100
1000
0001
,
0010
0100
0010
1000
0010
0100
0001
1000
,
1000
0100
1000
0100
1000
0100
1000
0100
0010
0001
0010
0001
0020
0000
0000
0000
,
1030
0001
1000
0100
0001
1000
0100
0010
,
0100
1000
0010
1000
0001
0010
1000
0100
,
0001
1000
0100
0010
0001
0100
1000
0100
,
0001
0100
0001
0100
1000
0010
1000
0100
,
1001
0000
0101
0000
0100
0001
1000
0100
,
0010
0001
0010
0001
1000
0001
0010
1000
,
0100
0001
0100
1000
0010
1000
0010
0001
,
0100
0000
0001
1000
0000
1000
0001
0000
0010
0100
0010
1000
0010
1000
0010
1000
,
0010
0001
1000
0100
0010
1000
0010
0001
,
0010
0100
1000
0100
0011
0011
1100
1100
,
0001
1000
0010
0100
1000
0100
0010
1000
,
0001
1000
0001
1000
0001
1000
0001
1000
0001
1000
0001
1000
0001
1000
0001
1000
,
0001
0000
0010
0100
0010
0000
1000
0000
0010
0000
0010
1000
0010
0000
0100
0000
,
0010
0001
0010
0000
0010
0000
1000
0000
0010
0000
0100
0000
1000
0001
0100
0010
,
0000
0001
0000
1100
0000
0011
0000
1001
0000
1100
0000
0011
0000
2000
0002
0000
,
0000
0000
0000
3003
,
0220
0000
0000
0000
0000
0030
0000
0000
0310
0000
0000
0100
0000
0000
1000
0000
,
0000
0010
0000
0000
0100
0000
0000
0000
0000
0000
0000
0000
1000
0000
0100
0000
,
0000
0010
0000
0000
0001
0000
0000
0000
0000
0000
0000
0000
0010
0000
0100
0000
,
0000
1000
0000
0000
0010
0000
0000
0000
0001
0000
0000
0000
0100
0000
0000
0000
,
0010
0100
1100
1000
0100
1000
0100
0010
,
1000
0010
0110
0010
1000
0001
0100
0010
,
1000
0010
0011
0001
0100
0010
0100
0001
,
1000
0010
0110
0010
1000
0010
0100
0010
,
1000
0010
1001
0010
0100
0010
0110
0010
,
1000
0010
1010
0010
1000
0100
0011
0010
,
1001
0010
1010
0010
0011
0010
0001
0100
,
1000
1000
1000
1000
1000
1000
2000
3000
,
1000
0000
0100
0000
0010
0000
0002
0000
0000
1000
0000
0000
0000
0000
0000
1003
0000
0000
0000
0000
0000
0001
0000
0000
,
0022
0000
0000
0000
0000
0000
0000
0000
0000
0000
0000
0000
0000
0033
0000
0001
,
1000
0000
0000
1000
0100
0000
0000
0100
0010
0000
0000
0010
0001
0000
0000
0001
,
1000
0000
0000
1000
0010
0000
0000
0010
0100
0000
0000
0100
1000
0000
0000
1000
,
0010
0000
0000
0010
0001
0000
0000
0001
1000
0000
0000
1000
0100
0000
0000
0100
,
0010
0000
0000
0010
1000
0000
0000
1000
0001
0000
0000
0001
0010
0000
0000
0010
,
0100
0000
0000
0100
1000
0000
0000
1000
0010
0000
0000
0010
0100
0000
0000
0100
,
0001
0000
0000
0001
1000
0000
0000
1000
0100
0000
0000
0100
0010
0000
0000
0000
,
0001
0000
0010
0000
1000
0000
0001
0000
0100
1000
0100
0010
0001
0010
1000
0001
,
0100
0200
0000
0000
0000
0300
2002
3003
,
0010
1000
0100
1000
0010
0001
0010
0100
,
0001
0000
1000
0000
0010
0000
0100
0000
0010
0000
1000
0100
1000
0000
0010
0000
,
1000
0000
0001
0000
0100
0000
1000
0000
0100
0000
0010
0000
1000
0000
0001
0010
,
0001
0000
1000
0000
0100
0000
0010
0000
1001
0000
0000
0000
1001
0000
0000
0001
,
0010
1000
0100
1000
0010
0100
0001
1000
,
0000
0000
0110
0000
0000
0000
1100
0000
0011
0000
0000
1000
0100
0010
0000
0001
,
0010
0100
0000
1000
0001
0010
0000
2000
0002
0000
0000
0000
0000
0000
0000
0000
,
0000
0000
0000
0000
0000
0000
0000
3003
,
1000
0000
0000
0100
0000
0000
0010
0000
1000
0000
0001
0000
0100
0000
0000
0000
,
2002
0000
3003
0000
;

//---------------dance-single - ----------------
#NOTES:
     dance-single:
     :
     Medium:
     7:
     0.558,0.624,0.320,0.200,0.015:
0001
1000
0020
0000
0100
0000
1000
0000
,
0100
0001
0100
1030
,
0010
0100
1000
0010
,
0001
0100
0010
1000
0100
0010
1000
0010
,
1001
0010
2002
0000
0000
0000
0000
3003
,
0010
0100
0010
0000
1000
0000
1100
0000
,
0010
0100
0001
0000
0010
1000
0100
0000
,
0000
0110
0100
0000
0010
1000
0010
0000
,
0101
0000
0000
0001
0000
0000
0000
0000
0000
0000
0000
0000
0000
0000
0000
0000
,
0110
0000
0000
0110
0000
0000
0000
0000
0000
0000
0000
0000
0000
0000
0000
0000
,
1000
0001
1000
0001
1000
0001
1000
0001
,
0100
1000
0010
0100
0001
0100
0010
0100
,
0001
1000
0020
0000
0100
0000
0001
0000
,
0100
0000
1000
0000
0130
0010
0100
0000
,
0010
1000
0010
0000
0001
0100
1000
0000
,
0010
1000
0010
1000
0010
0100
0010
0100
,
0101
0010
0012
0000
0010
0000
0010
0000
,
0013
0100
1000
0001
0100
0010
1000
0000
,
0010
1000
0100
0000
0010
1000
0001
0000
,
0010
0100
0001
0100
0010
1000
0001
0100
,
1001
0010
1020
0000
0100
0000
0001
0000
,
0100
0000
1000
0000
0130
0100
0010
0010
,
0110
0000
0011
0000
1100
0010
0100
0000
,
0001
0000
1000
0000
1000
0100
1000
0100
,
1000
0100
0020
0031
0010
0100
2000
3100
,
0001
1000
0010
0100
0010
1000
0010
0000
,
0001
1000
0010
0100
1000
0100
0010
1000
,
0002
0000
0000
0000
,
2003
0000
0000
0000
,
3200
0000
0000
0000
,
0320
0000
0000
0000
,
0032
0000
0000
0000
,
1003
0001
1001
0001
1000
0001
1000
0001
,
1000
0001
1001
0001
1000
0001
1000
0001
,
1000
0001
1001
0001
1000
0001
1000
0001
,
1000
0001
1001
1000
0001
1000
0001
1000
,
0001
1000
1001
0001
1000
0001
1001
1000
,
0001
1000
1001
0001
1000
0001
1001
1000
,
0001
1000
0110
0000
1010
0000
0011
0000
,
1100
0000
0110
0001
1000
0010
0200
0000
,
0000
0000
0310
0000
0000
0001
0000
0010
,
2000
0000
0200
0000
0000
0000
0000
3300
,
0110
0000
0010
0000
0001
0100
0010
0000
,
1000
0100
0010
1000
0001
0100
0010
0000
,
0001
0100
0010
0000
1000
0100
0010
0000
,
0001
1000
0010
0100
0010
1000
0100
1000
,
0010
0100
0001
0000
0010
0100
0001
1000
,
0010
0100
1000
0000
0010
1000
0100
0000
,
1000
0100
1000
0100
0010
0100
0010
1000
,
0002
0000
0000
0023
,
0130
1000
0100
1000
0100
1000
0100
1000
,
0100
0010
0100
0010
0100
0010
0100
0010
,
0100
0001
0100
0001
0100
0001
0100
0001
,
0010
0001
0010
0001
0010
0001
0010
0000
,
0100
1000
0100
1000
0010
0100
0001
0100
,
0010
0000
0000
0011
1100
0000
0110
0000
,
0001
1000
0010
0100
0010
1000
0010
0100
,
0001
1000
0100
0010
1000
0001
0100
1000
,
0001
0000
0000
1000
0000
0000
0001
0000
0100
0000
0010
0000
1000
0000
0000
0000
,
2002
0000
3003
0000
;

//---------------dance-single - ----------------
#NOTES:
     dance-single:
     :
     Easy:
     5:
     0.463,0.535,0.610,0.300,0.010:
0001
1000
0002
0000
0100
0000
0010
0000
,
0100
1000
0103
1100
,
0010
1000
0100
0010
,
0002
0203
0320
1030
,
0001
2000
0002
0000
0000
0000
3003
0000
,
0010
0100
1000
1100
,
0010
0100
1000
0010
,
0000
0001
0100
0000
1000
0010
0001
0000
,
2200
0000
0000
3300
,
0022
0000
0000
0033
,
1000
0100
0010
0001
,
1000
0100
0010
0001
1000
0100
0010
0000
,
0001
0000
0202
0000
0000
0000
0000
0303
,
0010
1000
0100
1000
,
0100
0110
0001
0010
,
0001
1000
0002
0000
1000
0000
1003
0000
,
1010
0000
0102
0000
0100
0000
0100
0003
,
1100
0010
0011
0100
,
0001
1000
0100
0010
,
1000
0001
1000
0000
0100
1000
0100
0000
,
0010
0010
0100
1100
,
0010
0011
0100
1100
,
0010
0100
0001
1000
,
0200
0000
1000
0000
0010
0000
0001
0300
,
0001
1000
0010
0000
0100
1000
0100
1000
,
0000
1100
0000
0010
0011
0000
0010
0000
,
0100
1000
0100
1000
0010
0100
0010
2000
,
0002
0000
0000
3003
,
2002
0000
3003
0000
,
0000
0000
0000
0000
0000
0000
0000
0000
0000
0000
0000
2000
0000
0000
0000
0000
,
0000
0000
0000
0000
3000
0000
0000
0000
0000
0000
0000
0002
0000
0000
0000
0000
,
0000
0000
0000
0003
,
0000
1001
0010
1000
,
0100
1100
0010
0100
,
0010
0011
0100
1000
,
0001
0110
1000
0100
,
0001
0110
1000
1100
,
0010
0011
1100
0101
,
1010
1100
0011
0110
,
1010
0110
0011
1100
,
0001
1000
0010
0100
0000
0100
0000
2000
,
0200
0000
0000
3300
,
1001
1010
0110
0011
,
0110
1010
1010
0101
,
0011
1100
0010
0110
,
1000
1100
0010
0001
,
1001
1010
0101
1100
,
0011
0110
1010
0101
,
1100
0011
1010
0110
,
1002
0000
0000
0000
,
1003
0100
0020
0000
0100
0000
0031
0000
,
0001
0100
2000
0000
0100
0000
3010
0000
,
0010
1000
0002
0000
0100
0000
0013
0000
,
0100
1000
0200
0000
1000
0000
1300
0000
,
0010
1000
0010
0000
0001
0100
0010
0100
,
0000
1100
0000
0011
0011
0000
0010
0000
,
0001
1000
0100
1000
0100
1000
0100
1000
,
0010
0100
0001
1000
0010
0100
0010
0000
,
0002
0000
0000
0000
,
0020
0000
0000
0000
0000
0000
0000
0000
0000
0000
0000
0000
0000
0000
0000
0000
0000
0000
0000
0000
0000
0000
0000
0000
0000
0000
0000
0000
0000
0000
0000
0000
0000
0000
0000
0000
0000
0000
0000
0000
0000
0000
0000
0000
0000
0000
0000
0000
0000
0000
0000
0000
0000
0000
0000
0000
0000
0000
0000
0000
0000
0000
0000
0000
0000
0000
0000
0000
0000
0000
0000
0000
0000
0000
0000
0000
0000
0000
0000
0000
0000
0000
0000
0000
0000
0000
0000
0000
0000
0000
0000
0000
0000
0000
0000
0000
0003
0030
0000
0000
0000
0000
0000
0000
0000
0000
0000
0000
0000
0000
0000
0000
0000
0000
0000
0000
0000
0000
0000
0000
0000
0000
0000
0000
0000
0000
0000
0000
0000
0000
0000
0000
0000
0000
0000
0000
0000
0000
0000
0000
0000
0000
0000
0000
0000
0000
0000
0000
0000
0000
0000
0000
0000
0000
0000
0000
0000
0000
0000
0000
0000
0000
0000
0000
0000
0000
0000
0000
0000
0000
0000
0000
0000
0000
0000
0000
0000
0000
0000
0000
0000
0000
0000
0000
0000
0000
0000
0000
0000
0000
0000
0000
;

//---------------dance-single - ----------------
#NOTES:
     dance-single:
     :
     Beginner:
     2:
     0.113,0.236,0.080,0.000,0.000: // measure 1
1000
1000
0000
0000
,  // measure 2
0000
0000
0000
0001
,  // measure 3
0000
0000
0000
0010
,  // measure 4
0010
0000
0000
0000
,  // measure 5
0110
0000
0000
0000
,  // measure 6
0100
0000
0000
0001
,  // measure 7
0000
0000
0000
0000
,  // measure 8
0000
0000
0000
0000
,  // measure 9
1000
0000
0000
0000
,  // measure 10
0001
0000
0000
0000
,  // measure 11
0100
0000
0000
0000
,  // measure 12
0010
0000
0000
0000
,  // measure 13
0100
0000
0000
0000
,  // measure 14
0000
0000
0000
0000
,  // measure 15
0001
0000
0000
0000
,  // measure 16
1000
0000
0000
0000
,  // measure 17
1001
0000
0000
0000
,  // measure 18
0000
0000
0000
0000
,  // measure 19
0100
0000
0000
0000
,  // measure 20
1000
0000
0000
0000
,  // measure 21
0001
0001
0000
0000
,  // measure 22
0000
0000
1001
1001
,  // measure 23
1001
0000
0000
0000
,  // measure 24
0100
0000
0000
0000
,  // measure 25
0010
0000
0010
0000
,  // measure 26
0010
0000
0000
0000
,  // measure 27
0100
0000
0000
0000
,  // measure 28
0000
0000
0000
0000
,  // measure 29
1000
0000
0000
0000
,  // measure 30
0000
0000
0000
0000
,  // measure 31
0000
0000
0000
0000
,  // measure 32
0000
0000
0000
0000
,  // measure 33
0000
0001
0000
0000
,  // measure 34
0000
0001
0000
0000
,  // measure 35
0000
0001
0000
0000
,  // measure 36
0000
0001
0000
0000
,  // measure 37
0000
1000
0000
1000
,  // measure 38
0000
0100
0000
0100
,  // measure 39
1000
0001
1000
0001
,  // measure 40
1000
0001
1000
0001
,  // measure 41
0000
1001
0000
0000
,  // measure 42
0100
0000
0000
0000
,  // measure 43
0001
0000
0000
0000
,  // measure 44
1000
0000
0000
0000
,  // measure 45
0100
0000
0000
0000
,  // measure 46
0010
0000
0000
0000
,  // measure 47
1000
0000
0000
0000
,  // measure 48
0001
0000
0000
0000
,  // measure 49
0100
0000
0010
0000
,  // measure 50
1000
0000
0000
1001
,  // measure 51
0001
0000
0000
0000
,  // measure 52
1000
0000
0000
0000
,  // measure 53
0100
0000
0000
0010
,  // measure 54
0010
0000
0100
0100
,  // measure 55
0100
0000
1000
0000
,  // measure 56
0001
0000
0000
0000
,  // measure 57
1000
0000
0000
0000
,  // measure 58
0001
0000
0000
0000
,  // measure 59
0100
0000
0000
0000
,  // measure 60
0110
0000
0000
0000
;
