#TITLE:snow storm;
#SUBTITLE:;
#ARTIST:dj TAKA;
#TITLETRANSLIT:;
#SUBTITLETRANSLIT:;
#ARTISTTRANSLIT:;
#CREDIT:;
#BANNER:snow_storm-bn4.png;
#BACKGROUND:snow storm-bg4.png;
#LYRICSPATH:;
#CDTITLE:14 Gold.png;
#MUSIC:snow storm.mp3;
#OFFSET:-0.259;
#SAMPLESTART:1.866;
#SAMPLELENGTH:15.000;
#SELECTABLE:YES;
#DISPLAYBPM:145.000;
#BPMS:0.000=145.000,132.000=72.500,156.000=145.000;
#STOPS:220.000=1.241
;
#BGCHANGES:;

//---------------dance-single - ----------------
#NOTES:
     dance-single:
     :
     Hard:
     8:
     0.467,0.872,0.297,0.163,0.211:
0000
0000
0000
0000
,
0000
0000
0000
0000
,
0000
0000
0000
0000
,
0000
0000
0000
0000
,
0000
0000
0000
0000
,
0000
0000
0000
0000
,
0000
0000
0000
0000
,
0000
0000
0000
0000
,
0000
0000
0000
0000
,
1001
0000
0010
0000
,
0100
0000
0000
0000
0000
0000
0000
0000
0001
0000
0000
0000
0000
0000
0010
0001
,
0010
0000
0000
0000
0000
0000
0000
0100
1000
0000
0000
0000
0000
0000
0000
0001
,
0100
0000
0000
1000
0100
0000
0000
0010
0001
0000
0000
0010
0100
0000
1000
0001
,
1000
0000
0000
0000
0000
0000
0000
0010
1000
0000
0000
0000
0000
0000
0000
0001
,
0100
0000
0000
0000
0000
0000
0000
1000
0010
0000
0000
0000
0000
0000
0100
1000
,
0100
0000
0001
0000
,
0100
1000
0000
0000
0010
0001
0000
0000
0010
0100
0000
0000
0001
1000
0000
0000
,
0010
0110
1000
1100
,
0010
0000
0000
0000
0011
0000
0000
0000
0001
0000
0000
0000
0011
0000
0010
0100
,
0010
0110
1000
1100
,
0010
0000
0000
0000
0110
0000
0000
0000
0010
0000
0000
0000
0011
0000
0001
0100
,
0001
0110
0010
1010
,
0100
0000
0000
0000
0110
0000
0000
0000
1000
0000
0000
0000
1100
0000
1000
0100
,
1000
0000
0000
0000
0100
0000
0000
0000
0010
0000
0000
0000
0110
0000
0000
0001
,
0010
0000
0000
0010
0100
0000
0000
1000
0100
0000
0000
0010
0001
0000
0000
1000
,
0001
0101
0100
0110
,
1000
0000
0000
0000
0011
0000
0000
0000
0010
0000
0000
0000
0110
0000
0010
0100
,
0010
0000
0000
0000
0110
0000
0000
1000
0100
0000
0000
0000
0011
0000
0000
0001
,
0100
0000
0000
0010
1000
0000
0000
0010
0100
0000
0000
0001
1000
0000
0000
1000
,
0100
0000
0000
0000
0110
0000
0000
0001
0010
0000
0000
0000
0110
0000
0000
0100
,
1000
0000
0000
0000
0110
0000
0000
0001
1000
0000
0000
0000
1010
0000
0000
0010
,
0100
0110
1100
0011
,
0001
0100
0000
0000
0100
1000
0000
0000
0010
0001
0000
0000
0010
0100
0000
0000
,
2002
0000
0000
0000
,
0000
0000
0000
3003
,
0010
0000
0000
0000
0001
0000
0010
0000
0100
0000
0000
0000
1000
0001
0010
0100
,
0010
0000
0100
0000
1000
0000
0100
0000
0010
0001
0010
0100
1000
0100
1000
0000
0100
0000
0000
0000
0000
0000
0001
0010
0001
0000
0000
0000
0100
0000
0000
0000
,
2000
3200
0320
0032
2003
3020
0230
0302
,
2003
3200
2300
3002
0013
0100
1000
0100
,
1000
0000
0000
0001
0000
0000
0100
0000
0100
0000
0000
0100
0000
0000
0001
0000
,
1000
0000
0000
0100
0000
0000
1000
0000
0100
0000
0000
0010
0000
0000
0001
0000
,
0100
0000
0000
0010
0000
0000
1000
0000
0100
0000
0000
1000
0000
0000
0100
0000
,
0010
0001
0010
0100
0000
0010
0001
1000
,
0100
1000
0100
0010
0001
0010
0100
1000
,
0100
1000
0100
0010
0001
0010
0100
1000
,
0001
1000
0100
0001
0010
0100
0010
1000
,
0001
0010
0100
1000
0100
1000
0100
0010
,
1001
0100
1100
0010
,
0011
0100
0110
1000
,
1000
0010
1000
0100
,
1000
0010
0001
0100
,
0001
0001
1000
1000
0001
1000
1001
0000
,
0010
0010
0100
0100
0010
0100
0110
0000
,
1000
0100
0010
0001
,
0001
0010
0100
1000
0100
0010
1000
0001
,
0000
0000
0000
0000
1000
0000
0000
0100
0000
0000
1000
0000
0100
0000
0010
0000
,
0001
0000
0010
0000
0100
0000
0000
0100
0000
0000
1000
0000
0100
0000
0010
0000
,
0001
0010
0100
1000
0100
0001
0010
0001
,
0010
0100
1000
0100
0010
1000
0010
1000
,
0010
0001
1000
0100
0010
0001
0010
0100
,
0001
1000
0010
1000
0010
0001
1000
0100
,
0010
0001
0010
0100
0001
0100
0010
0001
,
0010
0100
1000
0100
0010
1000
0100
0010
,
0001
0010
0110
0000
1000
0000
1100
0000
,
0010
0011
0100
0101
,
1000
1200
2300
3020
,
0230
0302
0023
0230
,
2300
0000
3100
0100
0010
0010
1000
0001
,
1001
0000
1000
1000
0001
0001
0010
0100
,
1000
0100
0010
0001
0010
0100
0001
1000
,
0010
0100
0001
1000
0100
0010
0001
0010
,
0100
1000
0001
0000
0000
0000
0000
0000
;

//---------------dance-single - ----------------
#NOTES:
     dance-single:
     :
     Medium:
     5:
     0.332,0.423,0.356,0.096,0.000:
0000
0000
0000
0000
,
0000
0000
0000
0000
,
0000
0000
0000
0000
,
0000
0000
0000
0000
,
0000
0000
0000
0000
,
0000
0000
0000
0000
,
0000
0000
0000
0000
,
0000
0000
0000
0000
,
0000
0000
0000
0000
,
0010
0000
1000
0000
,
0100
0000
0000
0000
1000
0000
0000
0010
,
0100
0000
0000
0010
0100
0000
0000
0000
,
0110
0000
0110
0000
0110
0000
0010
1000
,
0001
0000
0001
0000
,
0001
0000
0000
0000
0100
0000
0000
0010
,
1000
0000
0100
0000
,
0010
0010
0010
0010
,
1010
0000
0110
0000
,
0101
0000
0011
0000
,
1100
0000
1010
0000
,
1001
0000
1100
0000
,
0101
0000
1001
0000
,
1100
0000
1001
0000
,
0101
0000
0110
0000
,
0010
1000
0100
0010
,
0011
0000
1001
0000
,
1010
0000
0000
0000
1001
0000
0000
0001
,
0011
0000
1100
0000
,
1000
0000
0001
0000
0100
0000
0010
1000
,
0010
0000
1010
0000
,
0110
0000
0000
0000
0101
0000
0000
0001
,
0100
0000
0011
0000
,
0002
0023
0230
2300
,
0002
0000
0000
0000
,
0000
0000
0000
0000
0000
3003
0000
0000
,
0001
0000
1000
0001
0100
0000
0001
1000
,
0010
0010
0100
0010
1000
0000
0010
1000
,
0002
2003
3002
0203
,
0320
0000
2030
0000
3100
1000
0010
0100
,
0001
0000
0000
0001
1000
0000
0000
1000
,
0001
0000
0000
0001
0100
0000
0000
0100
,
0001
0000
0000
0010
1000
0000
0000
1000
,
0100
0000
0000
0010
0001
0000
1000
0000
,
0001
0100
0010
0100
,
0001
1000
0010
1000
,
0100
1000
0010
0100
,
0001
0010
0100
1000
,
1001
0000
0100
0000
0001
0001
0001
0000
,
0101
0000
1010
0000
0010
0010
0010
0000
,
1000
0010
0100
0010
,
1000
0001
0100
0010
,
1000
0001
1000
0001
1000
0001
1000
0000
,
0001
1000
0001
1000
0001
1000
0001
0000
,
1001
0101
1010
1100
,
1000
0100
0010
0001
1000
0100
1000
0010
,
0000
1010
0102
0010
,
0103
0101
1020
0100
,
0130
0000
0010
1000
0001
0000
0010
1000
,
0001
0000
0001
1000
0001
0000
1000
0100
,
1000
0000
1000
0010
1000
0000
0001
0100
,
0010
0000
0010
0100
0010
0000
1000
0001
,
0100
0000
0001
1000
0100
1000
0010
0000
,
1010
0000
1000
0010
0100
0001
0100
0001
,
0010
0001
0001
0000
0010
0000
0001
0010
,
0001
0000
1000
0000
1100
0000
1000
0010
,
1000
0010
0100
0010
,
1000
0001
0100
0010
,
1000
0000
0010
1000
0010
1000
0010
1000
,
0010
0000
0001
0100
0001
0100
0001
0100
,
0101
0101
0011
1100
,
1000
1010
0101
0110
,
1010
0100
0000
0000
;

//---------------dance-single - ----------------
#NOTES:
     dance-single:
     :
     Easy:
     4:
     0.244,0.423,0.015,0.134,0.000:
0000
0000
0000
0000
,
0000
0000
0000
0000
,
0000
0000
0000
0000
,
0000
0000
0000
0000
,
0000
0000
0000
0000
,
0010
0000
0010
0000
,
0010
0000
0010
0000
,
1000
0000
0001
0000
,
1000
0001
0100
0010
,
1010
0000
0010
0000
,
0100
0000
0010
0000
,
1000
0000
0001
0000
,
1000
0001
0100
0010
,
1000
0000
0001
0000
,
0100
0000
0010
0000
,
0100
0000
0010
0000
,
1000
0001
1000
0001
,
0100
0000
0010
0000
,
0100
0000
0000
0000
0010
0000
0000
0100
,
0010
0000
0010
0000
,
1000
0000
0000
0000
0001
0000
0000
0001
,
1000
0000
0001
0000
,
0100
0000
0000
0000
0010
0000
0000
0010
,
1000
0000
0010
0000
,
0100
0100
0100
0100
,
0010
0000
1000
0000
,
0001
0000
0000
0000
1000
0000
0000
0100
,
1000
0000
0010
0000
,
0001
0100
0010
1000
,
0001
0000
1000
0000
,
0001
0000
0000
0000
0100
0000
0000
0010
,
0100
0000
0010
0000
,
1000
0001
0100
0010
,
1001
0000
0000
0000
,
0000
0000
0000
0000
,
1000
0000
0001
1000
0001
0000
0001
0100
,
0010
1000
0010
0100
0010
0000
1000
0001
,
2000
3002
2003
3002
,
2003
3002
2003
3002
,
2003
0000
3002
0000
,
2003
0000
3002
0000
,
0203
0000
0302
0000
,
0203
0000
0320
0000
,
0130
0010
0100
0010
,
1000
0010
1000
0001
,
1000
0100
0010
0001
,
0010
0100
1000
0010
,
2000
0000
0010
0010
,
3020
0000
0100
0100
,
0130
0010
0100
0010
,
1000
0001
1000
0010
,
1000
1000
1000
1000
,
0001
0001
0001
0001
,
0100
0100
0010
0010
,
0100
0010
1000
0001
,
0000
1000
1000
1000
,
1000
0001
0001
0001
,
0001
0010
0010
0100
,
0100
0010
0100
0010
,
0100
0010
1000
0010
,
0100
0010
1000
0001
,
0100
0001
0010
0001
,
0100
0010
0010
0100
,
0100
0010
0000
1000
,
0000
0001
0000
1000
,
0000
0001
1000
0001
,
0100
0010
1000
0010
,
0100
0010
0010
0010
,
0010
0100
0100
0100
,
0100
0010
1000
0001
,
0100
0010
1000
0001
,
0100
0010
0000
0000
;

//---------------dance-single - ----------------
#NOTES:
     dance-single:
     :
     Beginner:
     1:
     0.082,0.132,0.007,0.000,0.000: // measure 1
0000
0000
0000
0000
,  // measure 2
0000
0000
0000
0000
,  // measure 3
0000
0000
0000
0000
,  // measure 4
0000
0000
0000
0000
,  // measure 5
0000
0000
0000
0000
,  // measure 6
0010
0000
0000
0000
,  // measure 7
0000
0000
0000
0000
,  // measure 8
0010
0000
0000
0000
,  // measure 9
0000
0000
0000
0000
,  // measure 10
1000
0000
0000
0000
,  // measure 11
1000
0000
0000
0000
,  // measure 12
0001
0000
0000
0000
,  // measure 13
0001
0000
0001
0000
,  // measure 14
0001
0000
0000
0000
,  // measure 15
1000
0000
0000
0000
,  // measure 16
0010
0000
0000
0000
,  // measure 17
0100
0000
0000
0000
,  // measure 18
0010
0000
0000
0000
,  // measure 19
0010
0000
0000
0000
,  // measure 20
1000
0000
0000
0000
,  // measure 21
1000
0000
0000
0000
,  // measure 22
0001
0000
0000
0000
,  // measure 23
0001
0000
0000
0000
,  // measure 24
0100
0000
0000
0000
,  // measure 25
0010
0000
0010
0000
,  // measure 26
0010
0000
0000
0000
,  // measure 27
1000
0000
0000
0000
,  // measure 28
0001
0000
0000
0000
,  // measure 29
0100
0000
0100
0000
,  // measure 30
0100
0000
0000
0000
,  // measure 31
0010
0000
0000
0000
,  // measure 32
1000
0000
0000
0000
,  // measure 33
0001
0000
1000
0000
,  // measure 34
1001
0000
0000
0000
,  // measure 35
0000
0000
0000
0000
,  // measure 36
0010
0000
0010
0000
,  // measure 37
0010
0010
0010
0000
,  // measure 38
1000
0000
0000
0000
,  // measure 39
0001
0000
0000
0000
,  // measure 40
0100
0000
0000
0000
,  // measure 41
0100
0000
0000
0000
,  // measure 42
1000
0000
0010
0000
,  // measure 43
0100
0000
0000
0000
,  // measure 44
0010
0000
0000
0000
,  // measure 45
0010
0000
0000
0000
,  // measure 46
1000
0000
0000
0000
,  // measure 47
0001
0000
0000
0000
,  // measure 48
1000
0000
0000
0000
,  // measure 49
0001
0000
0000
0000
,  // measure 50
0100
0000
0100
0000
,  // measure 51
0100
0000
0000
0000
,  // measure 52
0010
0000
0000
0000
,  // measure 53
0010
0000
0000
0000
,  // measure 54
1000
0000
0000
0000
,  // measure 55
0001
0000
1000
0000
,  // measure 56
0000
0100
0000
0000
,  // measure 57
0000
0010
0000
0000
,  // measure 58
0000
1000
0000
0000
,  // measure 59
0000
0001
0000
0000
,  // measure 60
0000
1000
0000
0000
,  // measure 61
0000
0010
0000
0000
,  // measure 62
0000
0100
0000
0000
,  // measure 63
0000
0010
0000
0000
,  // measure 64
0000
0001
0000
0000
,  // measure 65
0000
1000
0000
0000
,  // measure 66
0000
0001
0000
0000
,  // measure 67
0000
0100
0000
0000
,  // measure 68
0000
0010
0000
0000
,  // measure 69
0000
1000
0000
0000
,  // measure 70
0000
0010
0000
0100
,  // measure 71
0000
0010
0000
0100
,  // measure 72
0000
0001
0000
0000
;
