#TITLE:satfinal;
#SUBTITLE:;
#ARTIST:RAM;
#TITLETRANSLIT:;
#SUBTITLETRANSLIT:;
#ARTISTTRANSLIT:;
#CREDIT:;
#BANNER:bn.png;
#BACKGROUND:bg.png;
#LYRICSPATH:;
#CDTITLE:;
#MUSIC:satfinal.mp3;
#OFFSET:-0.540;
#SAMPLESTART:33.880;
#SAMPLELENGTH:12.000;
#SELECTABLE:YES;
#BPMS:0.000=180.000;
#STOPS:;
#BGCHANGES:;

//---------------dance-single - ----------------
#NOTES:
     dance-single:
     :
     Hard:
     7:
     0.415,0.490,0.190,0.147,0.000:
0000
0000
0000
0000
,
0000
0000
0000
0000
,
0000
0000
0000
0000
,
0000
0000
0000
0000
,
0000
0000
0000
0000
,
1000
0000
0000
0000
0000
0001
0000
0000
,
1001
0000
0000
0000
0000
1000
0000
0000
,
1100
0000
0000
0000
0000
0010
0000
0000
,
0011
0000
0000
0000
0000
1000
0000
0000
,
1001
1000
0001
0000
,
0001
0100
0010
0000
,
0001
1000
0100
0000
,
0100
1000
0010
0000
,
2000
0010
3010
0000
,
0002
0100
0103
0000
,
0002
0010
0013
0000
,
2020
0000
0000
3030
,
1010
0000
1000
0000
0000
1000
0000
0000
,
0001
0000
1000
0000
0000
0001
0000
0000
,
0100
0000
0010
0000
0000
0010
0000
0000
,
0010
0000
1000
0000
0000
0001
0000
0000
,
1000
0000
0001
0000
0000
0100
0000
0000
,
0010
0000
0010
0000
0000
0010
0000
0000
,
0010
0000
1000
0000
0000
0001
0000
0000
,
1000
0000
0001
0000
0100
0100
0010
1000
,
0001
0000
1000
0001
0100
0000
0101
0000
,
0001
0000
1000
0001
1000
0000
0000
0000
,
0001
0000
1000
0100
1000
0000
1000
0000
,
0001
0000
0100
0010
1000
0000
0001
0000
,
1000
0002
0100
0100
,
0103
0000
0001
0000
1000
0100
0010
0000
,
1001
0000
1001
0000
0001
1000
0010
0000
,
0020
0000
0000
0030
,
0100
0000
0010
0000
0000
0010
0100
0000
,
0010
0000
0010
1000
0000
0001
0000
1000
,
0100
0000
0010
0001
0000
0010
0000
0001
,
0010
0000
0100
1000
0000
0010
0000
0010
,
0100
0000
0010
1000
0000
0001
0000
1000
,
0001
0000
0100
0001
0000
0100
0000
0010
,
0100
0000
0100
0000
0000
0001
0000
0100
,
0010
0000
0010
0000
0000
0100
0000
0000
,
0001
0000
0000
1000
0100
0010
0000
0100
,
0000
0000
0000
0010
0100
1000
0001
0000
,
1000
0000
0000
0001
0000
0001
0000
0000
,
1000
0000
0000
0010
0000
0010
0000
0000
,
1001
0000
0000
0100
0000
0100
0000
0000
,
0010
0000
0000
1000
0000
0001
0000
1000
,
0001
0000
0000
0001
0000
0001
0000
0001
,
0100
0000
0000
0010
0000
1000
0000
1000
,
0001
0001
1000
0001
0000
0001
0001
0000
,
0100
0001
0001
0001
0000
0001
0100
0000
,
0010
0100
0100
0100
0000
0010
0100
0000
,
1000
0001
0001
0001
0000
1000
0001
0000
,
0001
0000
0100
0001
0000
0001
0100
0000
,
0110
0000
0010
0100
0000
0010
1000
0000
,
0001
0001
0001
0000
1000
1000
1000
0000
,
1001
0000
0000
0000
,
0010
0010
0020
0000
,
0100
0100
0200
0030
,
0010
0010
0020
0300
,
1000
1000
2000
0030
,
0010
0010
0020
3000
,
0100
0100
0200
0030
,
0001
0001
0002
0300
,
1000
1000
2000
3003
,
1000
0000
1001
0000
0001
1000
0001
0000
,
0100
0000
0110
0000
0010
0100
0010
0000
,
1000
0000
1010
0000
0010
1000
0010
0000
,
0100
0000
0101
0000
0001
0100
0010
0000
,
0100
0000
0110
0000
0010
1000
0001
0000
,
1001
0000
1001
0000
0001
0100
0010
0000
,
1000
0000
1100
0000
1000
0001
0100
0000
,
0020
0000
0000
0030
,
0100
0000
0010
0100
0000
0010
0000
0100
,
0010
0000
0010
1000
0000
0001
1000
0001
,
1000
0000
0001
0000
0100
0001
0100
0000
,
0010
0000
0100
0010
0000
0010
1000
0000
,
1001
0000
1001
0000
0001
0100
0001
0000
,
1000
0000
1000
0000
0001
1000
0010
0000
,
1000
0000
1000
0000
0000
0001
0000
0100
,
0010
0000
0010
0000
0000
2000
0000
3001
;

//---------------dance-single - ----------------
#NOTES:
     dance-single:
     :
     Medium:
     5:
     0.302,0.385,0.061,0.130,0.000:
0000
0000
0000
0000
,
0000
0000
0000
0000
,
0000
0000
0000
0000
,
0000
0000
0000
0000
,
0000
0000
0000
0000
,
1000
0000
0000
0000
,
0001
0000
0000
0000
,
0100
0000
0000
0000
,
0010
0000
0000
0000
,
0010
0000
0000
0000
0000
0010
0000
0000
,
0010
0000
0000
0000
0000
1000
0000
0000
,
1000
0000
0000
0000
0000
0001
0000
0000
,
0001
0000
0000
0000
0000
1000
0000
0000
,
1000
0000
0000
0000
0000
0001
0000
0000
,
0001
0000
0000
0000
0000
1000
0000
0000
,
1000
0000
0000
0000
0000
0001
0000
0000
,
0200
0000
0000
0000
,
0301
0000
0000
0000
,
0001
0000
0000
0000
,
1000
0000
0000
0000
,
1000
0000
0000
0000
,
0020
0000
0000
0000
0000
0000
0000
0030
,
0200
0000
0000
0300
,
0020
0000
0000
0030
,
2000
0000
0000
3000
,
0001
0000
1000
0000
0001
1000
0001
0000
,
0100
0000
0001
0000
0100
0001
0100
0000
,
0010
0000
1000
0000
0010
1000
0010
0000
,
1000
0000
0001
1000
0000
0001
0000
0001
,
1000
0000
0001
0000
0100
0001
0100
0000
,
0010
0000
1000
0000
0010
1000
0010
0000
,
1000
0000
0001
0000
1000
0001
0100
0000
,
0002
0000
0000
0003
,
1000
1000
1000
0000
,
0001
0000
0001
0000
0001
1000
0001
0000
,
0001
0001
0001
0000
,
0100
0000
0100
0000
0001
0100
0001
0000
,
0001
0001
0001
0000
,
1000
0000
0001
0000
0100
0010
1000
0000
,
0010
0000
0010
0000
0000
0010
0000
0000
,
0010
0000
0010
0000
0000
0010
0000
0000
,
2000
0000
0000
3000
,
0001
0000
0001
0000
,
0001
0000
0001
0000
,
1000
0000
0000
1000
0000
1000
0000
0000
,
1001
0000
0000
0001
0000
0001
0000
0000
,
1001
0000
0000
1000
0000
1000
0000
0000
,
0110
0000
0000
0010
0000
0010
0000
0000
,
0110
0000
0000
0100
0000
0100
0000
0000
,
0010
0000
0010
0100
0000
0100
0000
0000
,
0010
0000
0000
1000
0000
1000
0000
0000
,
1010
0000
0101
0000
,
1100
0000
0000
0010
0000
0010
0000
0001
,
0010
0001
0100
0010
,
1000
0000
0010
1000
0010
0000
1000
0000
,
0010
1000
0001
0100
,
0000
0000
0000
0000
,
0002
0000
0000
0003
,
0002
0000
0000
0003
,
0002
0000
0000
0003
,
0002
0000
0000
0000
0000
0003
0000
0000
,
2000
0000
0000
0000
,
0002
0000
3003
0000
,
0002
0000
0000
0000
,
0200
0000
0000
0303
,
0001
0001
0001
0001
,
1000
0000
1000
0000
1000
0000
1000
0001
,
0100
0100
0100
0100
,
0010
0000
0010
0000
0010
0000
0010
1000
,
0001
0001
0001
0001
,
1000
0000
1000
0000
1000
0000
0001
0100
,
0001
0000
0001
0000
0001
0000
0001
0100
,
0010
0010
0010
0010
,
0010
0100
0010
0000
1000
0000
0010
0000
,
1000
0010
1000
0000
0010
0000
0100
0000
,
0010
0100
0010
0000
0010
0000
1000
0000
,
0001
1000
0001
0000
0001
0000
1000
0000
,
0001
0100
0001
0000
0001
0000
0100
0000
,
0001
0100
0001
0000
0001
0000
0100
0000
,
0010
1000
0001
0000
0000
1000
0000
1000
,
0001
0000
0100
0000
0000
0010
0000
0010
;

//---------------dance-single - ----------------
#NOTES:
     dance-single:
     :
     Easy:
     3:
     0.213,0.315,0.026,0.104,0.000:
0000
0000
0000
0000
,
0000
0000
0000
0000
,
0000
0000
0000
0000
,
0000
0000
0000
0000
,
0000
0000
0000
0000
,
1000
0000
0000
0000
,
1000
0000
0000
0000
,
0001
0000
0000
0000
,
0001
0000
0000
0000
,
1000
1000
0000
0000
,
0001
0001
0000
0000
,
0010
0010
0000
0000
,
0100
0100
0000
0000
,
0010
0010
0000
0000
,
1000
1000
0000
0000
,
0001
0000
0000
0000
,
0001
0000
0000
0000
,
1000
0000
0000
0000
,
1000
0000
0000
0000
,
0001
0000
0000
0000
,
0001
0000
0000
0000
,
0010
0000
0000
0000
,
0100
0000
0000
0000
,
0010
0000
0000
0000
,
2000
0000
0000
3000
,
0001
0001
0001
0000
,
1000
1000
1000
0000
,
0010
0010
0010
0000
,
0100
0100
0100
0000
,
0010
0010
0010
0000
,
1000
1000
1000
0000
,
0001
0001
0001
0000
,
2002
0000
0000
3003
,
0001
0001
0001
0000
,
1000
1000
1000
0000
,
0010
0010
0010
0000
,
0100
0100
0100
0000
,
0010
1000
0010
0000
,
0100
0001
0100
0000
,
0001
0010
0001
0000
,
1000
0100
1000
0000
,
0001
0000
0000
0000
,
0001
0000
0000
0000
,
0001
0000
0000
0000
,
0001
0000
0000
0000
,
1000
0000
0000
0000
,
1000
0000
0000
0000
,
1000
0000
0000
0000
,
1000
0000
0000
0000
,
0010
0000
0000
0000
,
0010
0000
0000
0000
,
0010
0000
0010
0000
,
0010
0010
0010
0000
,
1001
0000
1000
0000
,
0001
1000
0100
0000
,
1000
1000
1000
1000
,
0000
0000
0000
0000
,
0002
0000
0003
0000
,
2000
0000
3000
0000
,
0020
0000
0030
0000
,
0200
0000
0300
0000
,
0020
0000
0030
0000
,
0020
0000
0030
0000
,
0020
0000
0030
0000
,
0020
0000
0030
0000
,
1001
0001
1000
0000
,
1000
0001
0100
0000
,
0001
0000
0100
0000
,
0100
0100
0100
0000
,
1000
0001
0100
0000
,
0010
1000
0001
0000
,
1000
0001
0100
0010
,
2000
0000
0000
3000
,
0001
1000
0001
0100
,
0001
0001
0001
0001
,
0001
1000
0001
0100
,
0010
0010
0010
0010
,
0010
1000
0010
1000
,
0010
0010
0010
0010
,
0010
0000
0010
0000
0000
0010
0000
0000
,
0010
0000
0010
0000
0000
0010
0000
0010
;

//---------------dance-single - ----------------
#NOTES:
     dance-single:
     :
     Beginner:
     1:
     0.082,0.138,0.026,0.000,0.000: // measure 1
0000
0000
0000
0000
,  // measure 2
0000
0000
0000
0000
,  // measure 3
0000
0000
0000
0000
,  // measure 4
0000
0000
0000
0000
,  // measure 5
0000
0000
0000
0000
,  // measure 6
0010
0000
0000
0000
,  // measure 7
0010
0000
0000
0000
,  // measure 8
0010
0000
0000
0000
,  // measure 9
0010
0000
0000
0000
,  // measure 10
0100
0000
0000
0000
,  // measure 11
0000
0000
0000
0000
,  // measure 12
0100
0000
0000
0000
,  // measure 13
0000
0000
0000
0000
,  // measure 14
1000
0000
0000
0000
,  // measure 15
0000
0000
0000
0000
,  // measure 16
0001
0000
0000
0000
,  // measure 17
0001
0000
0000
0000
,  // measure 18
1000
0000
0000
0000
,  // measure 19
0000
0000
0000
0000
,  // measure 20
0010
0000
0000
0000
,  // measure 21
0000
0000
0000
0000
,  // measure 22
0100
0000
0000
0000
,  // measure 23
0000
0000
0000
0000
,  // measure 24
0001
0000
0000
0000
,  // measure 25
0000
0000
0000
0000
,  // measure 26
1000
0000
0000
0000
,  // measure 27
0001
0000
0000
0000
,  // measure 28
0001
0000
0000
0000
,  // measure 29
1000
0000
0000
0000
,  // measure 30
0010
0000
0000
0000
,  // measure 31
0100
0000
0000
0000
,  // measure 32
0010
0000
0000
0000
,  // measure 33
0000
0000
0000
0000
,  // measure 34
1001
0000
0000
0000
,  // measure 35
0010
0000
0000
0000
,  // measure 36
0100
0000
0000
0000
,  // measure 37
0010
0000
0000
0000
,  // measure 38
1000
0000
0000
0000
,  // measure 39
0001
0000
0000
0000
,  // measure 40
1000
0000
0000
0000
,  // measure 41
1000
0000
0000
0000
,  // measure 42
0001
0000
0000
0000
,  // measure 43
0000
0000
0000
0000
,  // measure 44
0010
0000
0000
0000
,  // measure 45
0010
0000
0000
0000
,  // measure 46
0010
0000
0000
0000
,  // measure 47
0000
0000
0000
0000
,  // measure 48
1000
0000
0000
0000
,  // measure 49
1000
0000
0000
0000
,  // measure 50
1001
0000
0000
0000
,  // measure 51
0010
0000
0000
0000
,  // measure 52
0010
0000
0010
0000
,  // measure 53
0010
0000
0000
0000
,  // measure 54
1001
0000
0000
0000
,  // measure 55
0100
0000
0000
0000
,  // measure 56
0100
0000
0100
0000
,  // measure 57
0000
0000
0000
0000
,  // measure 58
1000
0000
0000
0000
,  // measure 59
0000
0000
0000
0000
,  // measure 60
0001
0000
0000
0000
,  // measure 61
0000
0000
0000
0000
,  // measure 62
0010
0000
0000
0000
,  // measure 63
0000
0000
0000
0000
,  // measure 64
0100
0000
0000
0000
,  // measure 65
0000
0000
0000
0000
,  // measure 66
0010
0000
0000
0000
,  // measure 67
0010
0000
0000
0000
,  // measure 68
0010
0000
0000
0000
,  // measure 69
0010
0000
0000
0000
,  // measure 70
1000
0000
0000
0000
,  // measure 71
1000
0000
0000
0000
,  // measure 72
1000
0000
0000
0000
,  // measure 73
1000
0000
0000
0000
,  // measure 74
0001
0000
0000
0000
,  // measure 75
0001
0000
0000
0000
,  // measure 76
0001
0000
0000
0000
,  // measure 77
0001
0000
0000
0000
,  // measure 78
0100
0000
0000
0000
,  // measure 79
0100
0000
0000
0000
,  // measure 80
0100
0000
0000
0000
,  // measure 81
0100
0000
0000
0000
;
