#TITLE:quasar;
#SUBTITLE:;
#ARTIST:OutPhase;
#TITLETRANSLIT:;
#SUBTITLETRANSLIT:;
#ARTISTTRANSLIT:;
#CREDIT:;
#BANNER:bn.PNG;
#BACKGROUND:bg.PNG;
#LYRICSPATH:;
#CDTITLE:Beatmania IIDX.png;
#MUSIC:222_-_[trance]_-_quasar.mp3;
#OFFSET:0.000;
#SAMPLESTART:71.980;
#SAMPLELENGTH:12.000;
#SELECTABLE:YES;
#BPMS:0.000=155.000,121.500=77.500,153.500=155.000,250.000=77.500,262.000=38.750,264.000=77.500;
#STOPS:249.750=3.250
;
#BGCHANGES:;

//---------------dance-single - ----------------
#NOTES:
     dance-single:
     :
     Hard:
     7:
     0.420,0.447,0.128,0.497,0.218:
0000
0000
0000
0000
,
0000
0000
0000
0000
,
0000
0000
0000
0001
1000
0000
1000
0000
,
1000
1000
0001
0001
,
0001
0001
0100
0100
,
0010
0010
0220
0300
,
0130
0010
0110
0000
0002
0000
1003
0000
,
1000
0100
1000
0000
0020
0000
0130
0000
,
0010
0100
0010
0000
1000
0000
1100
0000
,
0010
0011
0010
0110
,
0010
0000
0001
0001
0001
0000
1000
0000
,
0001
0100
0010
0000
0100
0000
0110
0000
,
0010
0100
0010
0000
1000
0000
0100
0000
,
1000
0200
0000
0000
0010
0000
0000
0020
,
0000
0330
0101
1100
,
0010
1000
0001
0000
0100
0000
0101
0000
,
0001
1000
0010
0000
0100
0000
0010
0100
,
0010
0100
0000
1000
0100
0000
0010
0001
,
0000
0001
0100
0010
1000
0000
1010
0000
,
1000
0100
0001
0000
0001
0000
1001
0000
,
0001
0010
1000
0000
0020
0000
2030
0000
,
3200
0000
0310
2000
0002
0000
0000
0000
,
0000
0000
0000
0000
3003
0000
0000
0000
0010
0000
0000
0100
0000
0000
0010
0000
,
0000
1000
0000
0000
0100
0000
1000
0000
0100
0000
1000
0000
0000
0100
0000
0000
,
0010
0000
0000
0001
0000
0000
0010
0000
0100
0000
0000
0001
0000
0000
0100
0000
,
0000
0010
0000
0000
0001
0000
1000
0000
0010
0000
1000
0000
0000
0010
0000
0000
,
1000
0000
0000
0010
0000
0000
0100
0000
0001
0000
0000
1000
0000
0000
0001
0000
,
0000
1000
0000
0000
0001
0000
0100
0000
0001
0000
0100
0000
0000
0010
0000
0000
,
1000
0000
0000
0100
0000
0000
0010
0000
0001
0000
0000
0010
0000
0000
0001
0000
,
0000
0100
0000
0000
0010
0000
2000
0000
0002
0000
0000
0000
0000
0000
0000
0000
,
3003
0000
0000
0000
0000
0000
0000
0000
0000
0000
0000
0000
2000
0000
0000
0000
0000
0000
0000
0000
0000
3200
0000
0000
0000
0000
0000
0000
0000
0320
0000
0000
,
0000
0000
0000
0000
0000
0032
0000
0000
0000
0000
0000
0000
0000
2003
0000
0000
0000
0000
0000
0000
0000
3002
0000
0000
0000
0000
0000
0000
0000
0203
0000
0000
,
0000
0000
0000
0000
0000
0320
0000
0000
0000
0000
0000
0000
0000
0230
0000
0000
0000
0000
0000
0000
0000
0320
0000
0000
0000
0000
0000
0000
0000
2030
0000
0000
,
0000
0000
0000
0000
0000
3200
0000
0000
0000
0000
0000
0000
0000
0320
0000
0000
0000
0000
0000
0000
0000
0032
0000
0000
0000
0000
0000
0000
0000
2003
0000
0000
,
0000
0000
0000
0000
0000
3002
0000
0000
0000
0000
0000
0000
0000
0003
2000
0000
0000
0000
0000
0000
0000
0000
3002
0000
0000
0000
0000
0000
0000
0000
0203
0000
,
0000
0000
0000
0320
0000
0000
0000
0230
0000
0000
0000
0320
0000
0000
0000
2030
,
0000
0000
0000
3002
0000
0000
0000
2003
0000
0000
0000
3200
0000
0000
0000
0320
,
0000
0000
0000
0032
0000
0000
0000
0203
0000
0000
0000
0320
0000
0000
0000
2030
,
0000
0000
0000
0000
0000
0000
0002
0000
0000
0000
0000
0000
0000
3003
0000
0000
0010
0000
0000
0000
0000
0000
0000
0000
0100
0000
0000
0000
0000
0000
0000
0000
,
1000
0100
1000
0000
0010
0000
0100
0000
,
0010
0000
1000
0001
0100
0000
0101
0000
,
0001
0100
0010
0000
2000
0000
3100
0000
,
0020
0031
0100
0110
,
0010
1000
0001
0000
2000
0000
3100
0000
,
0020
0031
0200
0310
,
2000
3100
0020
0000
,
0002
0000
0033
0000
1000
0100
0010
0001
,
0010
0100
0010
0000
0001
1000
0010
1000
,
0001
0100
0001
0000
0010
1000
0010
0100
,
0001
1000
0001
0000
1000
0100
1000
0000
,
0001
0100
0001
0000
0010
0100
0001
1000
,
0010
0100
1000
0000
1000
0100
0010
0001
,
1000
0001
1000
0000
0010
1000
0010
0100
,
0001
1000
0010
0100
0002
0000
0000
0000
,
0200
0000
0000
0000
0000
0303
0000
0000
1000
0000
0000
0000
0100
0000
0000
1000
,
0100
0000
0000
0000
0110
0000
0000
0000
0001
0000
0000
0000
0100
0000
0000
0010
,
0100
0000
0000
0000
0110
0000
0000
0000
1000
0000
0000
0000
0100
0000
0000
0010
,
0001
0000
0000
0000
0101
0000
0000
0000
0010
0000
0000
0000
0100
0000
0000
0010
,
0100
0000
0000
0000
0100
0000
0000
0000
1000
0000
0000
0000
0100
0000
0000
1000
,
0100
0000
0000
0000
0010
0000
0000
0001
0100
0000
0000
0000
0010
0000
0000
0001
,
1000
0000
0000
0000
0010
0000
0000
1000
0100
0000
0000
0000
0001
0000
0000
0010
,
0001
0000
0000
0000
0101
0000
0000
0000
0001
0000
0000
0001
1000
0000
0000
0010
,
0100
0000
0000
0000
0001
1000
0001
1000
0002
0000
0000
0000
2003
0000
0000
0000
,
3020
0230
0320
2030
,
3002
0203
0320
0000
,
2030
0000
0200
0000
,
3300
0000
0000
0000
;

//---------------dance-single - ----------------
#NOTES:
     dance-single:
     :
     Medium:
     5:
     0.315,0.373,0.023,0.249,0.117:
0000
0000
0000
0000
,
0000
0000
0000
0000
,
0000
0000
1000
1000
,
1000
1000
1000
1000
,
1000
1000
1000
1000
,
1000
1000
2000
0000
,
3001
1001
0001
0100
,
0001
0100
0010
1000
,
0010
1000
0001
1000
,
0100
0010
0001
0010
,
0100
0000
0001
1000
0001
0000
1000
0000
,
1000
0100
0010
0001
,
0010
0100
1000
0100
,
1000
0200
0000
0000
0010
0000
0000
0020
,
0000
0330
0001
0100
,
0010
1000
0010
0100
,
0001
1000
0001
0100
,
0010
1000
0100
0100
,
0100
0100
1000
0100
,
0010
0001
0010
0100
,
1000
0100
1000
0010
,
0100
0000
0010
0001
0020
0000
0000
0000
,
0030
0000
0001
1000
,
0001
0000
0100
0010
0100
0000
0010
0000
,
1000
0001
1000
0000
1000
0000
0100
0000
,
1000
0000
0100
1000
0100
0000
0010
0000
,
0010
1000
0001
0000
0100
0000
0101
0000
,
0010
1000
0001
0000
0100
0000
1000
0000
,
0100
1000
0010
0000
0110
0000
0010
0000
,
0100
0000
1000
0200
0020
0000
0000
0000
,
0330
0000
0000
0000
0000
0000
0000
0000
0000
0000
0000
0000
1000
0000
0000
0000
0000
0000
0000
0000
0000
0100
0000
0000
0000
0000
0000
0000
0000
0010
0000
0000
,
0000
0000
0000
0000
0000
0001
0000
0000
0000
0000
0000
0000
0000
1000
0000
0000
0000
0000
0000
0000
0000
0001
0000
0000
0000
0000
0000
0000
0000
0100
0000
0000
,
0000
0000
0000
0000
0000
0010
0000
0000
0000
0000
0000
0000
0000
0100
0000
0000
0000
0000
0000
0000
0000
0010
0000
0000
0000
0000
0000
0000
0000
1000
0000
0000
,
0000
0000
0000
0000
0000
0100
0000
0000
0000
0000
0000
0000
0000
0010
0000
0000
0000
0000
0000
0000
0000
0001
0000
0000
0000
0000
0000
0000
0000
1000
0000
0000
,
0000
0000
0000
0000
0000
0001
0000
0000
0000
0000
1000
0000
0000
0000
0000
0000
0000
0000
0001
0000
0000
0000
0000
0000
0000
0000
0100
0000
0000
0000
0000
0000
,
0000
0010
0000
0000
0000
0100
0000
0000
0000
0010
0000
0000
0000
1000
0000
0000
,
0000
0001
0000
0000
0000
1000
0000
0000
0000
0100
0000
0000
0000
0010
0000
0000
,
0000
0001
0000
0000
0000
0100
0000
0000
0000
0010
0000
0000
0000
1000
0000
0000
,
0000
0001
0000
0000
0000
0000
0000
0000
1000
0000
0000
0000
1000
0000
0000
0000
,
0100
1000
0100
0000
0010
0000
0010
0000
,
0001
0010
0001
0000
0100
0000
0100
0000
,
0010
0100
0010
0000
1000
0000
1000
0000
,
0001
0000
1000
0001
0100
0000
0010
0000
,
0010
0100
0001
0000
0010
0000
1000
0000
,
0001
1000
0001
0000
1000
0000
0100
0000
,
0010
0000
0001
0010
0200
0000
0000
0000
,
0020
0330
0001
1000
,
0001
0100
0010
0000
1000
0000
0001
0000
,
1000
0001
0100
0000
0001
0000
1000
0000
,
0010
0100
0010
0000
0010
0000
0010
0000
,
0100
0000
0100
0010
1000
0000
0001
0000
,
0001
1000
0001
0000
0001
0000
1000
0000
,
1000
0001
0100
0000
0010
0000
0100
0000
,
0010
1000
0001
0000
2000
0000
0000
0000
,
0200
0000
3300
0000
0010
1000
0010
0000
,
0200
0000
0310
0000
0001
1000
0001
0000
,
0200
0000
0310
0000
1000
0100
1000
0000
,
0020
0000
0130
0000
0001
0010
0001
0000
,
0200
0310
2000
0000
,
3002
0000
0203
0000
,
0320
0000
2030
0000
,
3200
0000
0320
0000
,
0032
0000
0000
0003
0002
0000
0203
0000
,
0320
2030
3020
0230
,
0302
2003
3200
0000
,
2300
0000
0020
0000
,
3030
0000
0000
0000
;

//---------------dance-single - ----------------
#NOTES:
     dance-single:
     :
     Easy:
     3:
     0.247,0.273,0.000,0.414,0.000: // measure 1
0000
0000
0000
0000
,  // measure 2
0000
0000
0000
0000
,  // measure 3
0000
0000
0001
0001
,  // measure 4
0001
0001
1000
1000
,  // measure 5
1000
1000
0010
0010
,  // measure 6
0010
0010
0020
0000
,  // measure 7
0100
0130
0020
0000
,  // measure 8
0230
0000
0320
0000
,  // measure 9
2000
0000
0000
0000
,  // measure 10
0000
0000
0000
0000
,  // measure 11
3030
0000
0001
1000
0002
0000
0000
0000
,  // measure 12
0203
0000
0320
0000
,  // measure 13
2000
0000
0000
0000
,  // measure 14
3030
0010
0000
0000
0001
0000
0000
1000
,  // measure 15
0000
0000
0002
1003
,  // measure 16
2000
3100
0020
0031
,  // measure 17
0200
0310
0020
0000
,  // measure 18
0000
0100
0000
0000
0100
0000
0000
0200
,  // measure 19
0000
0330
0001
0000
,  // measure 20
1000
0000
0001
0000
,  // measure 21
0100
0010
1000
0100
,  // measure 22
0010
0000
0001
0200
0020
0000
0000
0000
,  // measure 23
0000
0330
0001
0001
,  // measure 24
1000
0001
0200
0000
,  // measure 25
0320
0000
1030
0001
,  // measure 26
1000
0000
0100
1000
0200
0000
0000
0000
,  // measure 27
2300
0000
3010
0100
,  // measure 28
0001
1000
0001
0100
,  // measure 29
0010
1000
0100
0010
,  // measure 30
0001
0000
1000
0002
2000
0000
0000
0000
,  // measure 31
3000
0003
0000
2000
0000
0000
0000
0000
,  // measure 32
0000
0000
0000
3002
0000
0000
0000
0000
,  // measure 33
0000
0000
0000
0203
0000
0000
0000
0000
,  // measure 34
0000
0000
0000
0320
0000
0000
0000
0000
,  // measure 35
0000
0000
0000
2030
0000
0000
0000
0000
,  // measure 36
0000
0000
0000
3002
0000
0000
0000
0000
,  // measure 37
0000
0000
0000
0203
0000
0000
0000
0000
,  // measure 38
0000
0000
0000
0320
0000
0000
0000
2000
,  // measure 39
0000
3030
0000
0000
1000
0000
1000
0000
,  // measure 40
0001
1000
0001
0100
,  // measure 41
0010
1000
0010
0100
,  // measure 42
0001
1000
0001
0100
,  // measure 43
0020
0030
0100
0010
,  // measure 44
0100
0010
1000
0001
,  // measure 45
0100
0010
1000
0100
,  // measure 46
0010
0001
0020
0000
,  // measure 47
0002
0033
0001
1000
,  // measure 48
0001
0100
0010
1000
,  // measure 49
0010
0100
0010
1000
,  // measure 50
0001
1000
0001
1000
,  // measure 51
0001
1000
0001
0010
,  // measure 52
0100
1000
0100
1000
,  // measure 53
0010
0100
0010
1000
,  // measure 54
0001
0200
0020
0000
,  // measure 55
0000
0330
0010
0100
,  // measure 56
0010
2000
3100
0010
,  // measure 57
0002
0103
0010
1000
,  // measure 58
0002
0103
0010
1000
,  // measure 59
0200
1300
0020
0000
,  // measure 60
2030
0000
3020
0000
,  // measure 61
0230
0000
0302
0000
,  // measure 62
2003
0000
3020
0000
,  // measure 63
0200
0330
0002
0000
,  // measure 64
2003
0000
3020
0000
,  // measure 65
0200
0330
0002
0000
,  // measure 66
2000
0000
0003
0000
,  // measure 67
3000
0000
0000
0000
;

//---------------dance-single - ----------------
#NOTES:
     dance-single:
     :
     Challenge:
     9:
     0.530,0.547,0.060,0.354,0.474:
0000
0000
0000
0000
,
0000
0000
0000
0000
,
0000
0000
0000
0001
0001
1000
0001
1000
,
0001
1000
0001
1000
0001
0100
0001
0100
,
0001
0100
0001
0100
0010
0100
0010
0100
,
0010
0000
0100
0000
0010
0000
2000
0000
0200
0000
0000
0000
3300
0000
0001
1000
,
0100
0010
0011
0000
1000
0100
2000
0000
,
0100
0000
0100
0000
3100
1000
0200
0000
,
0010
0000
0010
0000
0310
0100
0020
0000
,
0100
0000
0100
0000
0130
0010
2000
0000
,
3001
0000
0000
0000
0001
1000
0010
1000
0002
0000
0000
0000
1000
0000
0000
0000
,
1000
1000
1003
0000
2000
0000
0100
0000
,
0100
0000
0100
3000
0100
0000
0000
0000
0010
0000
0000
0000
0100
0000
0000
0000
,
0010
2000
0000
0000
0100
0000
0000
0002
,
0000
0000
3003
0000
0001
0100
0010
1000
,
0010
0100
0010
0000
0001
1000
0010
0100
,
0001
0100
0001
0000
0101
0000
0000
0000
0001
0000
1000
0000
0010
0000
0100
0000
,
0010
2000
0000
0000
0100
0000
0000
0010
,
0000
0000
3010
0100
0010
0100
0001
1000
,
0001
0100
0001
0000
0100
0000
0000
0000
0010
0000
1000
0000
0001
0000
0100
0000
,
1000
0100
1000
0000
0010
0000
0000
0000
0010
0000
1000
0000
0001
0000
0100
0000
,
0010
0000
1000
0000
0100
0001
0000
0010
1000
0000
0000
0000
0000
0000
0000
0000
,
0000
0000
0000
0000
0000
0000
0000
0000
1000
0000
0000
1000
0000
0000
0010
0000
,
0000
1000
0000
0000
0100
0010
0000
0010
0100
0000
0010
0000
0000
1000
0000
0000
,
0100
0000
0000
0010
0000
0000
0001
0000
0100
0000
0000
0010
0000
0000
1000
0000
,
0000
0001
0000
0000
0001
0100
0000
0001
0100
0000
0010
0000
0000
1000
0000
0000
,
0100
0000
0000
0010
0000
0000
0001
0000
1000
0000
0000
0001
0000
0000
0010
0000
,
0000
1000
0000
0000
0001
0000
0100
0000
0010
0000
1000
0000
0010
0000
0100
0000
,
0001
0000
1000
0000
0010
0000
0100
0000
0001
0000
0000
1000
0000
0000
0010
0000
,
0000
0100
0000
0000
0010
1000
0001
0200
0020
0000
0000
0000
0000
0000
0000
0000
,
0000
0000
0000
0000
0000
0000
0000
0000
0330
0000
0000
0000
0002
0000
0000
0000
0000
0000
0000
0000
0000
0023
0000
0000
0000
0000
0000
0000
0000
0230
0000
0000
,
0000
0000
0000
0000
0000
2300
0000
0000
0000
0000
0000
0000
0000
3002
0000
0000
0000
0000
0000
0000
0000
2003
0000
0000
0000
0000
0000
0000
0000
3020
0000
0000
,
0000
0000
0000
0000
0000
0230
0000
0000
0000
0000
0000
0000
0000
0320
0000
0000
0000
0000
0000
0000
0000
0230
0000
0000
0000
0000
0000
0000
0000
0302
0000
0000
,
0000
0000
0000
0000
0000
0023
0000
0000
0000
0000
0000
0000
0000
0230
0000
0000
0000
0000
0000
0000
0000
2300
0000
0000
0000
0000
0000
0000
0000
3002
0000
0000
,
0000
0000
0000
0000
0000
2003
0000
0000
0000
0000
0000
0000
0000
3000
0001
0000
0000
0000
0001
0000
0000
0000
0100
0000
0000
0000
0100
0000
0000
0000
0010
0000
,
0000
0010
0000
0100
0000
0100
0000
1000
0000
1000
0000
0010
0000
0010
0000
0100
,
0000
0000
0100
0000
0000
0000
0010
0000
0000
0000
0010
0000
1000
0000
0010
0000
0000
1000
0000
0000
0100
0000
0000
0010
0000
0000
1000
0000
0000
0000
0001
0000
,
0000
0100
0000
0000
0010
0000
0000
1000
0000
0000
0001
0000
1000
0000
0010
0000
0000
1000
0000
0000
0001
0000
0000
1000
0000
0000
0010
0000
1000
0000
0020
0000
,
0000
0000
0000
0200
0000
0330
0001
0000
1001
0000
0010
0100
0000
0010
0100
0000
,
0010
0100
0000
0010
0100
0000
0010
0000
1000
0000
0100
0000
0010
0000
0001
0000
,
0010
0000
0100
0000
0010
0000
1000
0000
0010
0000
0010
1000
0000
0010
1000
0000
,
0010
0100
0000
0010
1000
0000
0001
0000
0100
0000
1000
0000
0100
0000
0000
0000
,
1000
0000
0001
0000
1000
0100
1000
0100
1000
0000
0100
0010
0000
0100
0010
0000
,
0100
0010
0000
0100
0010
0000
0100
0000
0001
0000
0010
0000
0100
0000
1000
0000
,
0100
0000
0010
0000
0100
0000
0001
0000
0100
0000
0100
0001
0000
0100
0001
0000
,
0100
0010
0000
0100
0001
0000
1000
0000
0200
0000
0000
0000
0000
0000
0000
0000
,
0020
0000
0330
0000
0010
1000
0010
0100
,
0001
1000
0001
0000
1001
0000
0000
0000
0010
0000
0100
0000
0010
0000
1000
0000
,
0001
1000
0001
0000
0101
0000
0000
0000
1000
0000
0100
0000
0010
0000
0001
0000
,
0010
0001
0010
0000
1100
0000
0000
0000
0010
0000
1000
0000
0010
0000
0100
0000
,
0010
0000
1000
0000
0010
0000
0001
1000
0001
0000
1000
0000
0100
0000
0010
0000
,
0010
0100
0010
0000
0110
0000
0000
0000
0010
0000
1000
0000
0001
0000
0100
0000
,
0010
0100
0010
0000
0110
0000
0000
0000
1000
0000
0100
0000
0010
0000
0001
0000
,
0010
0000
0100
0000
0010
1000
0001
0100
0020
0000
0000
0000
0000
0000
0000
0000
,
2000
0000
3030
0000
1000
0100
0010
0001
,
0010
0000
0100
0000
0001
0000
0100
0000
0010
0100
0010
0100
0010
0100
0001
1000
,
0001
1000
0001
1000
0001
0000
0000
0000
0010
0000
1000
0000
0001
0000
0100
0000
,
0010
0000
1000
0000
0010
0000
0100
0000
0100
0001
0100
0001
0100
0001
0100
0001
,
1000
0001
1000
0001
1000
0000
0000
1000
0100
0000
0000
0010
0100
0000
0000
0001
,
1000
0000
0000
0010
1000
0000
0000
0001
0100
0000
0000
0010
0100
0000
0000
1000
,
0100
0000
0000
0010
0001
0000
0000
0010
0100
0000
0000
0001
1000
0000
0000
1000
,
0100
0000
0000
0010
0001
0000
0000
0010
0100
0000
0000
0001
1000
0000
0000
0010
,
0100
0000
0000
0000
0001
1000
0100
0020
0032
0000
0000
0000
0200
0000
0300
0000
,
0020
0030
0200
0300
0020
0030
2000
3000
,
0200
0300
0020
0030
0200
0000
0300
0000
,
0020
0030
2000
0000
,
3003
0000
0000
0000
;

//---------------dance-single - ----------------
#NOTES:
     dance-single:
     :
     Beginner:
     1:
     0.052,0.074,0.000,0.000,0.004: // measure 1
0000
0000
0000
0000
,  // measure 2
0000
0000
0000
0000
,  // measure 3
0000
0000
0000
0000
,  // measure 4
0000
0000
0000
0000
,  // measure 5
0000
0000
0000
0000
,  // measure 6
0000
0000
0000
0000
,  // measure 7
0000
0000
0010
0000
,  // measure 8
0000
0000
0000
0000
,  // measure 9
0000
0000
0000
0000
,  // measure 10
0000
0000
0000
0000
,  // measure 11
0000
0000
0100
0000
,  // measure 12
0000
0000
0000
0000
,  // measure 13
0000
0000
0000
0000
,  // measure 14
0000
0000
0000
0000
,  // measure 15
0000
0000
0001
0000
,  // measure 16
0000
0000
0000
0000
,  // measure 17
0000
0000
1000
0000
,  // measure 18
0000
0000
0000
0000
,  // measure 19
0000
0000
0100
0000
,  // measure 20
0000
0000
0000
0000
,  // measure 21
0000
0000
0010
0000
,  // measure 22
0000
0000
1000
0000
,  // measure 23
0000
0000
0001
0000
,  // measure 24
0000
0000
1000
0000
,  // measure 25
0000
0000
0001
0000
,  // measure 26
0000
0000
0100
0000
,  // measure 27
0000
0000
0010
0000
,  // measure 28
0000
0000
1000
0000
,  // measure 29
0000
0000
0001
0000
,  // measure 30
0000
0000
1000
0000
,  // measure 31
0000
0000
0000
0000
,  // measure 32
0000
0000
0000
0000
,  // measure 33
0000
0000
0000
0000
,  // measure 34
0000
0000
0000
0000
,  // measure 35
0000
0000
0000
0000
0000
0000
0000
1000
0000
0000
0000
0000
0000
0000
0000
0000
,  // measure 36
0000
0000
0000
0000
,  // measure 37
0000
0000
0000
0000
,  // measure 38
0000
0000
0000
0000
,  // measure 39
0000
0000
0001
0000
,  // measure 40
0000
0000
0000
0000
,  // measure 41
0000
0000
1000
0000
,  // measure 42
0000
0000
0010
0000
,  // measure 43
0100
0000
0010
0000
,  // measure 44
0000
0000
1000
0000
,  // measure 45
0000
0000
0001
0000
,  // measure 46
0000
0000
1000
0000
,  // measure 47
0000
0000
0010
0000
,  // measure 48
0000
0000
0100
0000
,  // measure 49
0000
0000
1000
0000
,  // measure 50
0000
0000
0001
0000
,  // measure 51
0001
0000
0001
0000
,  // measure 52
0000
0000
1000
0000
,  // measure 53
0000
0000
0010
0000
,  // measure 54
0000
0000
0100
0000
,  // measure 55
0000
0000
1000
0000
,  // measure 56
0000
1000
1000
0000
,  // measure 57
0000
0000
0001
0000
,  // measure 58
0000
0001
0001
0000
,  // measure 59
0000
0000
0010
0000
,  // measure 60
0000
0000
0100
0000
,  // measure 61
0000
0000
1000
0000
,  // measure 62
0000
0000
0001
0000
,  // measure 63
0000
0100
0001
0000
,  // measure 64
0000
0000
0000
0000
,  // measure 65
0000
0000
1000
0000
,  // measure 66
1000
0000
0100
0000
;
