#TITLE:over there;
#SUBTITLE:;
#ARTIST:vox;
#TITLETRANSLIT:;
#SUBTITLETRANSLIT:;
#ARTISTTRANSLIT:;
#CREDIT:;
#BANNER:bn.PNG;
#BACKGROUND:bg.PNG;
#LYRICSPATH:;
#CDTITLE:cdtitle_gfdm.png;
#MUSIC:over there.ogg;
#OFFSET:-0.140;
#SAMPLESTART:55.960;
#SAMPLELENGTH:12.000;
#SELECTABLE:YES;
#BPMS:0.000=96.000,72.000=250.001;
#STOPS:;
#BGCHANGES:;

//---------------dance-single - ----------------
#NOTES:
     dance-single:
     :
     Hard:
     9:
     0.580,0.697,0.271,0.140,0.017:
0000
0000
0000
0000
,
0000
0000
0000
0000
,
0000
0000
0000
0000
,
0000
0000
0000
0000
,
1000
0100
0010
0010
0001
0000
0010
0000
,
0001
0001
0010
0010
0200
0000
1300
0000
,
0010
0010
1000
1000
0002
0000
0103
0000
,
0010
0000
0000
0100
0000
0000
1000
0000
0000
0000
0100
0000
0000
0000
0000
0000
,
0001
0000
0000
1000
0000
0000
0100
0000
0000
0000
0010
0000
0000
0000
0000
0000
,
0001
0100
0001
0100
0001
0100
0001
0100
,
0010
0100
0010
0100
0010
0100
0010
0100
,
0010
1000
0001
1000
0001
0010
0100
1000
,
0100
0010
0001
1000
0001
0010
1000
0100
,
0010
0001
1000
0001
0100
0010
1000
0001
,
1000
0010
0100
1000
0100
0010
0001
0010
,
0001
0010
0100
1000
0100
0010
1000
0010
,
1001
0000
0000
0110
0000
0000
0010
0000
0000
0000
0010
0000
0000
0000
0000
0000
,
1100
0000
0000
0010
0000
0000
2002
0000
0000
0000
0000
0000
3003
0000
0000
0000
,
0001
0100
0001
0100
0001
0000
1000
0100
,
1000
0100
1000
0000
0001
1000
0001
1000
,
0001
0100
0001
0100
0001
0100
0001
0100
,
0010
0100
0010
0100
0010
0000
0100
0001
,
0100
0001
0100
0000
0010
0100
0010
0100
,
0010
0000
1000
0001
0000
0010
0000
2000
,
0002
0000
3003
0000
0001
0010
0000
0100
,
0000
2000
0200
0000
3300
0000
1000
0000
,
0000
0100
0000
0000
0010
0000
0000
0001
,
0000
2002
0000
0000
,
0000
0000
0000
3003
,
0000
0000
0000
1000
0100
0010
0001
0010
,
0001
0010
0100
1000
,
0000
2000
0000
0000
0000
0000
0000
0000
,
3000
0000
0000
0001
1000
0001
0010
0100
,
0010
1000
0010
0001
,
0000
2002
0000
0000
0000
0000
0000
3003
,
0000
0000
0000
1000
0100
1000
0010
0001
,
0010
0100
0010
1000
,
0000
1001
0000
0000
0001
0000
0000
0110
,
0000
0000
0100
0000
0000
1100
0000
0000
,
0010
0000
0000
0011
0000
0000
1100
0000
,
0000
2002
0000
0000
0000
0000
0000
0000
,
3003
0000
1000
0000
0100
1000
0100
0000
,
0010
0000
0001
0010
0001
0000
0100
0000
,
0001
0100
0001
0000
0010
0000
1000
0010
,
1000
0000
0000
1000
0100
0010
0001
0010
,
0100
1000
0001
1000
0100
0010
0100
1000
,
0100
0010
0001
0010
0200
0000
0000
0000
,
0000
0000
0000
0000
,
0000
0000
0000
0000
1300
0100
0000
0010
,
0000
0001
0010
0000
0100
0000
0000
0000
,
0001
1000
0000
0001
0000
0010
0100
0000
,
0001
0000
0000
0000
1000
0100
0000
0010
,
0000
0010
0001
0000
0010
0000
0000
0000
,
0010
1000
0000
0001
0000
0001
1000
0000
,
0001
0000
0000
0000
0100
0010
0000
0010
,
0000
0010
0100
0000
0010
0000
0000
0000
,
1000
0100
0000
0010
0000
0001
0010
0000
,
0001
0000
0000
0000
0001
0100
0000
0001
,
0000
0001
0100
0000
0001
0000
0000
0000
,
1010
0000
0000
0110
0000
0000
0001
0010
,
0000
0100
0000
1000
0000
0000
0001
0000
,
1000
0001
0010
0100
,
1000
0100
1000
0100
,
0010
0000
0001
0000
0110
0000
0000
1001
,
0000
0000
1100
0000
0000
0011
0000
0000
,
0101
0000
0000
1010
0000
0000
1001
0000
,
0000
1100
0000
0000
0011
0000
1000
0001
,
1000
0000
0101
0000
0001
0010
0001
0000
,
1100
0000
0001
1000
0100
0000
0110
0000
,
0100
0010
0001
0000
1001
0000
0001
0010
,
0100
0000
1100
0000
1000
0100
0010
0000
,
0001
1000
0001
1000
0001
0010
0100
1000
,
0100
0010
0001
0000
0010
0100
1000
0001
,
0010
0000
0001
0010
0100
1000
0100
0000
,
1000
0001
1000
0001
1000
0100
0010
0001
,
0010
0100
1000
0100
1000
0010
0001
0010
,
0001
0000
1000
0100
1000
0100
1000
0000
,
0001
0010
0001
0010
0001
0010
0001
0010
,
0100
1000
0001
1000
0100
0010
1000
0100
,
0010
0000
0010
0100
1000
0100
0010
0000
,
0001
1000
0001
1000
0001
0010
0100
1000
,
0100
0010
0001
0100
0001
0100
0010
1000
,
0100
0000
0010
0100
0001
1000
0001
0000
,
0001
0010
0100
1000
0100
0010
0001
1000
,
0000
0100
0000
1000
0100
0000
0000
0000
,
0100
0010
0000
0010
0000
0010
1000
0000
,
0000
0000
0010
1000
0000
0001
0000
0100
,
0010
0000
0000
0000
1100
0000
0000
0011
,
0000
0000
0001
1000
0001
1001
0000
0000
;

//---------------dance-single - ----------------
#NOTES:
     dance-single:
     :
     Medium:
     7:
     0.396,0.581,0.096,0.105,0.017: // measure 1
0000
0000
0000
0000
,  // measure 2
0000
0000
0000
0000
,  // measure 3
0000
0000
0000
0000
,  // measure 4
0000
0000
0000
0000
,  // measure 5
1000
1000
1000
1000
,  // measure 6
0001
0001
0001
0001
,  // measure 7
0010
0000
0010
0000
0010
0000
0010
0100
,  // measure 8
0010
0000
0000
0010
0000
0000
0010
0000
0000
0000
0010
0000
0000
0000
0000
0000
,  // measure 9
0001
0000
0000
1000
0000
0000
0200
0000
0000
0000
0000
0000
0000
0000
0000
0000
,  // measure 10
0310
0000
1000
0000
0100
1000
0100
0000
,  // measure 11
0010
0000
0001
0000
0100
0001
0100
0000
,  // measure 12
0010
0000
1000
0000
0001
0100
0001
0000
,  // measure 13
0010
0000
0001
0000
0010
0001
0010
0000
,  // measure 14
0100
0000
1000
0000
0001
1000
0001
0000
,  // measure 15
0100
0000
0010
0000
0100
1000
0100
0000
,  // measure 16
1000
0000
0100
0000
0010
0001
0010
0000
,  // measure 17
0001
0000
0000
0010
0000
0000
0100
0000
0000
0000
1000
0000
0000
0000
0000
0000
,  // measure 18
1000
0000
0000
0100
0000
0000
0010
0000
0000
0000
0000
0000
0000
0000
0000
0000
,  // measure 19
1000
0100
1000
0001
,  // measure 20
0100
0001
0010
0001
,  // measure 21
0010
0100
1000
0100
,  // measure 22
0001
1000
0001
0010
,  // measure 23
1000
0010
1000
0001
,  // measure 24
0100
0000
0001
1000
0000
1000
0000
1000
,  // measure 25
0002
0000
0000
0000
0013
0100
0000
0100
,  // measure 26
0000
0100
0020
0000
0000
0000
1030
0000
,  // measure 27
0000
0001
0000
0000
0010
0000
0000
0200
,  // measure 28
0000
2000
0000
0000
,  // measure 29
0000
0000
0000
3300
,  // measure 30
0000
0000
0010
0001
,  // measure 31
0010
0100
1000
0100
,  // measure 32
0000
2000
0000
0000
0000
0000
0000
0000
,  // measure 33
3000
0000
0010
1000
,  // measure 34
0010
0100
0001
0200
,  // measure 35
0000
0002
0000
0000
0000
0000
0000
0000
,  // measure 36
0303
0000
0010
0001
,  // measure 37
0010
0100
1000
0100
,  // measure 38
0000
1000
0000
0000
0100
0000
0000
0010
,  // measure 39
0000
0000
0001
0000
0000
0100
0000
0000
,  // measure 40
1000
0000
0000
0100
0000
0000
0020
0000
,  // measure 41
0000
0200
0000
0000
0000
0000
0000
0000
,  // measure 42
0300
0130
0000
1000
,  // measure 43
0000
0100
1000
0100
,  // measure 44
0000
0010
0000
0001
,  // measure 45
0100
0000
0000
1000
0001
1000
0001
1000
,  // measure 46
0001
1000
0001
1000
0001
1000
0001
1000
,  // measure 47
0001
1000
0001
1000
0002
2000
0000
0000
,  // measure 48
0000
0000
0000
0000
,  // measure 49
0000
3003
1000
0100
,  // measure 50
0010
0001
0010
0000
,  // measure 51
0001
0100
0001
0100
,  // measure 52
0001
0000
0010
1000
,  // measure 53
0010
1000
0010
0000
,  // measure 54
1000
0100
0010
0001
,  // measure 55
0010
0000
0001
1000
,  // measure 56
0001
1000
0001
0000
,  // measure 57
0010
0100
0010
0100
,  // measure 58
0010
0000
1000
0100
,  // measure 59
0010
0001
0010
0000
,  // measure 60
0100
1000
0100
0010
,  // measure 61
0001
0000
0000
0110
,  // measure 62
0000
0010
0100
0000
,  // measure 63
0000
0100
0010
0100
,  // measure 64
1000
0000
0000
0000
1000
0000
0000
0100
,  // measure 65
0000
0000
0010
0000
0000
0001
0000
0000
,  // measure 66
0010
0000
0000
0100
0000
0000
1000
0000
,  // measure 67
0000
0100
0000
0000
0010
0000
0001
0000
,  // measure 68
0010
0001
0010
0000
,  // measure 69
1000
0100
0010
0001
,  // measure 70
0010
0000
0010
0100
,  // measure 71
0010
1000
0010
0000
,  // measure 72
1001
1001
1001
1001
,  // measure 73
1001
1001
0001
0100
,  // measure 74
0001
0010
1000
0010
,  // measure 75
0001
1000
0001
1000
,  // measure 76
0001
0010
0100
1000
,  // measure 77
0100
0010
1000
0010
,  // measure 78
0001
0100
0001
0010
,  // measure 79
0001
0010
0100
1000
,  // measure 80
0100
0010
1000
0010
,  // measure 81
0001
0100
0001
0010
,  // measure 82
0001
0010
0100
1000
,  // measure 83
0100
0010
0001
0010
,  // measure 84
0100
0000
1000
0000
0010
0000
0100
0010
,  // measure 85
0000
0010
0000
0010
0100
0000
0000
0000
,  // measure 86
1000
0100
0000
0010
0000
0001
0010
0000
,  // measure 87
0000
0000
0001
0100
0000
0001
0000
0001
,  // measure 88
1000
0000
0000
0000
1010
0000
0000
0011
,  // measure 89
0000
0000
1100
0000
0000
0110
0000
0000
;

//---------------dance-single - ----------------
#NOTES:
     dance-single:
     :
     Beginner:
     1:
     0.080,0.116,0.000,0.000,0.000: // measure 1
0000
0000
0000
0000
,  // measure 2
0000
0000
0000
0000
,  // measure 3
0000
0000
0000
0000
,  // measure 4
0000
0000
0000
0000
,  // measure 5
0001
0000
0000
0000
,  // measure 6
0001
0000
0000
0000
,  // measure 7
0001
0000
0000
0000
,  // measure 8
1000
0000
0000
0000
,  // measure 9
0000
0000
0000
0000
,  // measure 10
0010
0000
0000
0000
,  // measure 11
0010
0000
0000
0000
,  // measure 12
0100
0000
0000
0000
,  // measure 13
0100
0000
0000
0000
,  // measure 14
1000
0000
0000
0000
,  // measure 15
0001
0000
0000
0000
,  // measure 16
0100
0000
0000
0000
,  // measure 17
0010
0000
0000
0000
,  // measure 18
0100
0000
0000
0000
,  // measure 19
1000
0000
0000
1000
,  // measure 20
0000
0000
1000
0000
,  // measure 21
0000
0000
0000
0000
,  // measure 22
0001
0000
0000
0001
,  // measure 23
0000
0000
0001
0000
,  // measure 24
0000
0000
0000
0000
,  // measure 25
0000
0000
0000
0000
,  // measure 26
0000
0000
0000
0000
,  // measure 27
0000
0000
0000
0000
,  // measure 28
0000
0010
0000
0000
,  // measure 29
0000
0000
0000
0000
,  // measure 30
0000
0000
1000
0000
,  // measure 31
0000
0000
0000
0000
,  // measure 32
0000
0000
0000
0000
,  // measure 33
0000
0000
0001
0000
,  // measure 34
0000
0000
0000
0000
,  // measure 35
0000
0000
0000
0000
,  // measure 36
0000
0000
0010
0000
,  // measure 37
0000
0000
0000
0100
,  // measure 38
0000
0000
0100
0000
,  // measure 39
0000
0100
0000
0000
,  // measure 40
0100
0000
0000
0100
,  // measure 41
0000
0000
0000
0000
,  // measure 42
0000
1000
0000
0000
,  // measure 43
0000
0000
0000
0000
,  // measure 44
0000
0000
0000
0000
,  // measure 45
0000
0000
0001
0000
,  // measure 46
0000
0000
0000
0000
,  // measure 47
0000
0000
1000
0000
,  // measure 48
0000
0000
0000
0000
,  // measure 49
0000
0000
1000
0000
,  // measure 50
0000
0000
0000
0000
,  // measure 51
0100
0000
0000
0000
,  // measure 52
0000
0000
0010
0000
,  // measure 53
0000
0000
0000
0000
,  // measure 54
0001
0000
0000
0000
,  // measure 55
0000
0000
1000
0000
,  // measure 56
0000
0000
0000
0000
,  // measure 57
0001
0000
0000
0000
,  // measure 58
0000
0000
0100
0000
,  // measure 59
0000
0000
0000
0000
,  // measure 60
0010
0000
0000
0000
,  // measure 61
0000
0000
0000
0100
,  // measure 62
0000
0000
0000
0000
,  // measure 63
0000
1000
0000
0000
,  // measure 64
0000
0000
0001
0000
,  // measure 65
0000
0000
0000
0000
,  // measure 66
1000
0000
0000
0000
,  // measure 67
0000
0000
0100
0000
,  // measure 68
0000
0000
0000
0000
,  // measure 69
0010
0000
0000
0000
,  // measure 70
0000
0000
0000
0100
,  // measure 71
0000
0000
0000
0000
,  // measure 72
1000
0000
0000
0000
,  // measure 73
0000
0000
0001
0000
,  // measure 74
0000
0001
0000
0000
,  // measure 75
0001
0000
0000
0000
,  // measure 76
0000
0000
1000
0000
,  // measure 77
0000
1000
0000
0000
,  // measure 78
1000
0000
0000
0000
,  // measure 79
0000
0000
0010
0000
,  // measure 80
0000
0010
0000
0000
,  // measure 81
0010
0000
0000
0000
,  // measure 82
0000
0000
0100
0000
,  // measure 83
0000
0100
0000
0000
,  // measure 84
0100
0000
0000
1000
,  // measure 85
0000
0000
0000
0000
,  // measure 86
0001
0000
0000
0000
,  // measure 87
0000
0100
0000
0000
,  // measure 88
0000
0000
0010
0000
,  // measure 89
0000
0100
0000
0000
;

//---------------dance-single - ----------------
#NOTES:
     dance-single:
     :
     Easy:
     4:
     0.247,0.348,0.157,0.044,0.000: // measure 1
0000
0000
0000
0000
,  // measure 2
0000
0000
0000
0000
,  // measure 3
0000
0000
0000
0000
,  // measure 4
0000
0000
0000
0000
,  // measure 5
1000
0000
0000
0000
,  // measure 6
0001
0000
0000
0000
,  // measure 7
0010
0000
0000
0000
,  // measure 8
0200
0000
0000
0000
,  // measure 9
2000
0000
0000
3300
0000
0000
0000
0000
,  // measure 10
0010
0001
1000
0100
,  // measure 11
0010
0001
0100
1000
,  // measure 12
0010
0001
0010
1000
,  // measure 13
0100
1000
0010
1000
,  // measure 14
0001
0100
1000
0010
,  // measure 15
0001
0010
0100
1000
,  // measure 16
0001
1000
0100
0010
,  // measure 17
0002
0000
0000
0000
,  // measure 18
2000
0000
0000
3003
0000
0000
0000
0000
,  // measure 19
1000
0000
0000
1000
,  // measure 20
0000
0000
1000
0000
,  // measure 21
0000
1000
0100
0010
,  // measure 22
0001
0000
0000
0001
,  // measure 23
0000
0000
0001
0000
,  // measure 24
0000
0001
0000
0000
,  // measure 25
0000
0000
1000
0000
,  // measure 26
0000
0000
0000
0100
,  // measure 27
0000
0100
0000
0000
0100
0000
0000
0100
,  // measure 28
0000
0200
0000
0000
,  // measure 29
0000
0000
0000
0300
,  // measure 30
0000
0000
1000
0001
,  // measure 31
1000
0001
1000
0001
,  // measure 32
0000
0001
0000
0000
0000
0000
0000
0000
,  // measure 33
0000
0000
1000
0100
,  // measure 34
0010
0001
0010
0001
,  // measure 35
0000
0010
0000
0000
0000
0000
0000
0000
,  // measure 36
0000
0000
0100
0001
,  // measure 37
0100
0001
0100
0001
,  // measure 38
0000
1000
0000
0000
0001
0000
0000
1000
,  // measure 39
0000
0000
0010
0000
0000
0100
0000
0000
,  // measure 40
0010
0000
0000
0100
0000
0000
1000
0000
,  // measure 41
0000
0100
0000
0000
0000
0000
0000
0000
,  // measure 42
0000
1001
0000
0000
,  // measure 43
0000
0000
0000
0000
,  // measure 44
0000
0000
0000
0000
,  // measure 45
0000
0000
0001
0100
,  // measure 46
1000
0100
0010
0001
,  // measure 47
0010
0100
1000
0000
,  // measure 48
0000
0000
0000
0000
,  // measure 49
0000
0000
0001
0000
,  // measure 50
0100
0000
1000
0000
,  // measure 51
1000
0000
0100
0000
,  // measure 52
0010
0001
0010
0000
,  // measure 53
0100
0000
1000
0000
,  // measure 54
0001
0000
0100
0010
,  // measure 55
0100
0000
1000
0000
,  // measure 56
0001
0000
0100
0001
,  // measure 57
0100
0000
1000
0000
,  // measure 58
0010
0000
0100
0000
,  // measure 59
1000
0000
1100
0000
,  // measure 60
0010
0000
0011
0000
,  // measure 61
0001
0000
0000
0010
,  // measure 62
0000
0100
1000
0000
,  // measure 63
0100
0000
1000
0100
,  // measure 64
1000
0000
0000
0000
0010
0000
0000
0100
,  // measure 65
0000
0000
1000
0000
0000
0100
0000
0000
,  // measure 66
0010
0000
0000
0001
0000
0000
0010
0000
,  // measure 67
0000
0100
0000
0000
1000
0000
0000
0000
,  // measure 68
0100
1000
0100
0000
,  // measure 69
0010
0000
0001
0100
,  // measure 70
0001
0000
0100
0000
,  // measure 71
0010
0000
1000
0000
,  // measure 72
1100
0000
0011
0000
,  // measure 73
0110
0000
1100
0000
,  // measure 74
0000
0011
0000
0000
,  // measure 75
0110
0000
0000
1000
,  // measure 76
0100
0010
0001
0000
,  // measure 77
0000
0011
0000
0000
,  // measure 78
1100
0000
0000
1000
,  // measure 79
0001
1000
0100
0000
,  // measure 80
0000
0110
0000
0000
,  // measure 81
1001
0000
1000
0100
,  // measure 82
0010
0001
1001
0000
,  // measure 83
0000
0110
0000
0000
,  // measure 84
1100
0000
0000
0010
,  // measure 85
0000
0000
0000
0000
,  // measure 86
0011
0000
0000
0000
,  // measure 87
0000
1100
0000
0000
,  // measure 88
0000
0000
0000
0000
0010
0000
0000
1000
,  // measure 89
0000
0000
0001
0000
0000
1000
0000
0000
;
