#TITLE:orion;
#SUBTITLE:;
#ARTIST:Ryu*;
#TITLETRANSLIT:;
#SUBTITLETRANSLIT:;
#ARTISTTRANSLIT:;
#CREDIT:Azn_Punk_07/Frozen_Heat;
#BANNER:bn.PNG;
#BACKGROUND:bg.PNG;
#LYRICSPATH:;
#CDTITLE:!cdtitle.png;
#MUSIC:orion.mp3;
#OFFSET:-1.199;
#SAMPLESTART:32.980;
#SAMPLELENGTH:12.000;
#SELECTABLE:YES;
#BPMS:0.000=181.001,192.000=90.501,208.000=45.250,209.000=181.001;
#STOPS:;
#BGCHANGES:;

//---------------dance-single - ----------------
#NOTES:
     dance-single:
     :
     Hard:
     10:
     0.689,1.000,0.126,0.149,0.499:
0000
0000
0000
0000
,
0000
0000
0000
0000
,
0000
0000
0000
0000
,
0000
0000
0000
0000
,
1000
0100
0000
0010
0001
0100
0001
0100
,
0010
1000
0010
0100
0010
1000
0001
0001
,
0000
1000
0000
0001
0100
0001
1000
0010
,
2000
0000
0000
0000
0000
0000
0100
3100
,
0001
0000
0000
0100
0000
0000
0001
0000
0100
0000
0000
1000
0000
0000
0100
0000
,
0010
0000
0000
1000
0000
0000
0001
0000
0100
0000
0000
1000
0000
0000
0100
0000
,
1000
0000
0000
0100
0000
0000
1000
0000
0100
0000
0000
0010
0000
0000
0001
0000
,
0100
0000
0000
0010
0000
0000
1000
0000
0010
0000
0100
0010
0000
0100
0010
0000
,
0100
0000
0000
0100
0000
0000
1000
0000
0100
0000
0000
0010
0000
0000
0001
0000
,
0100
0000
0000
1000
0000
0000
0100
0000
0010
0000
0000
1000
0000
0000
0001
0000
,
1000
0000
0000
0010
0000
0000
1000
0000
0010
0000
0000
0100
0000
0000
0010
0000
,
0001
0000
0001
0100
0000
0001
0100
0000
0010
0000
1000
0010
0000
1000
0010
0000
,
0100
0000
0000
0100
0000
0000
0010
0000
1000
0000
0000
0010
0000
0000
1000
0000
,
0010
0000
0000
0100
0000
0000
0010
0000
0100
0000
0010
0100
0000
0001
1000
0000
,
0001
0000
0000
0010
0000
0000
0100
0000
1000
0000
0000
0100
0000
0000
1000
0000
,
0100
0000
0000
0010
0000
0000
0001
0000
0100
0000
0010
0100
0000
0100
0010
0000
,
1000
0000
0000
0100
0000
0000
0010
0000
0001
0000
0000
0010
0000
0000
0100
0000
,
1000
0000
0000
0001
0000
0000
1000
0000
0100
0000
0000
1000
0000
0000
0100
0000
,
1000
0100
0010
0001
0010
0100
1000
0100
,
0002
1000
0100
0013
,
0001
0001
0000
0001
0010
0100
1000
0100
,
0010
0001
0010
0100
0010
1000
0001
1001
,
0000
1010
0000
0010
0100
0010
0100
0001
,
1000
0100
0010
0001
0010
0100
0001
0101
,
0000
0110
0000
0010
0100
0010
1000
0001
,
0100
1000
0100
0010
0001
0010
0100
0110
,
0000
1000
0000
1000
0100
0010
0001
0010
,
0100
1000
0100
0010
0100
0001
0100
0100
,
0000
0101
0000
0010
1000
0010
1000
0001
,
0100
0010
1000
0001
0100
0010
1000
1100
,
0000
1100
0000
1000
0100
0010
0001
0010
,
0100
1000
0100
0010
0001
0010
0100
0110
,
0000
0010
0000
0010
0100
1000
0100
0010
,
0001
0010
1000
0001
0100
0010
1000
1100
,
0000
0110
0000
0001
1000
0100
0010
0001
,
0100
0010
0100
0001
1000
0010
1000
1000
,
0002
0103
2000
3100
,
0020
1030
0200
0310
,
0002
0013
0200
1300
,
0020
1030
0200
1300
,
1000
0100
0010
0001
0010
0100
1000
0100
,
0010
1000
0010
1000
0001
0100
0001
0100
,
1000
0100
1000
0100
1000
0100
1000
0100
1000
0100
1000
0100
1000
0100
1000
0100
,
0020
0000
0000
0000
,
0130
0000
0000
0010
0000
0000
0100
0000
1000
0000
0000
0100
0000
0000
0010
0000
0001
0000
0000
0010
0000
0000
0100
0000
1000
0000
0000
0100
0000
0000
1000
0000
,
0100
0000
0000
0010
0000
0000
0001
0000
0100
0000
0000
0010
0000
0000
0100
0000
1000
0000
0000
0100
0000
0000
0010
0000
0001
0000
0000
0010
0000
0000
0100
0000
,
1000
0000
0000
0100
0000
0000
0010
0000
0001
0000
0000
0010
0000
0000
1000
0000
0001
0000
0000
1000
0000
0000
0001
0000
0100
0000
0000
0010
0000
0000
0100
0000
,
1000
0100
0010
0001
0010
0100
1000
0100
0010
1010
0000
0011
0000
1100
0011
0000
,
1000
0001
0010
0200
1000
0010
0301
0020
0031
0000
0000
0000
0000
0000
0001
0000
0000
0000
0100
0000
0001
0000
0000
0000
0100
0000
0000
0000
0000
0000
0010
0000
,
0000
0100
0010
0000
1000
0000
0000
0100
0000
0100
0010
0000
0001
0000
0000
1000
,
0000
0001
0100
0000
0010
0000
0000
0010
0000
0001
0010
0000
0001
0000
0000
1000
,
0000
0001
1000
0000
0100
0000
0000
0001
0000
0001
1000
0000
0010
0000
0000
0100
,
0000
0010
0001
0010
0100
0000
0000
1000
0000
0010
1000
0000
0010
0000
0000
0100
,
0000
0010
0100
0000
0001
0000
0000
0010
0000
0010
0100
0000
1000
0000
0000
0001
,
0000
1000
0010
0000
0001
0000
0000
0001
0000
0100
0001
0000
0100
0000
0000
0010
,
0000
0100
0010
0000
1000
0000
0000
0100
0000
0100
0010
0000
0001
0000
0000
1000
,
0000
0001
0100
0000
1000
0000
0100
0000
0010
0000
0001
0000
0010
0000
0100
0000
,
0001
0100
0010
1000
0010
1000
0010
1000
,
0001
0100
0001
0100
0010
0001
0010
0100
,
1000
0100
0010
0001
0010
0100
1000
0100
,
0010
0100
0001
0100
0001
0100
0010
1000
,
0010
1000
0010
0100
0010
0100
0010
0001
,
0010
0100
1000
0100
0010
0001
0010
0100
,
0010
1000
0002
0000
0010
0000
0100
0000
,
1000
0000
0000
0000
1003
0000
0000
1000
0000
0000
1000
0000
1000
0000
0000
1000
,
0000
0000
1000
0000
0100
0000
0000
0100
0000
0000
0100
0000
0100
0000
0000
0100
,
0000
0000
0100
0000
0010
0000
0000
0010
0000
0000
0010
0000
0010
0000
0000
0010
,
0000
0000
0010
0000
0001
0000
0000
0001
0000
0000
0001
0000
0001
0000
0000
0001
,
0000
0000
0001
0000
1000
0000
0000
0001
0000
0000
0100
0000
0010
0000
0000
0100
,
0000
0000
0010
0000
1000
0000
0000
0100
0000
0000
0010
0000
0001
0000
0000
0100
,
0000
0000
0010
0000
1000
0000
0000
0010
0000
0000
0100
0000
0001
0000
0000
0100
,
0000
0000
0010
0000
0100
0000
0000
0010
0000
0000
0100
0000
1000
0000
0000
0100
,
0000
0010
0011
0001
0000
0010
0100
1000
,
0100
0010
0001
0010
0100
0001
1000
0020
,
0100
0130
0000
0010
0000
0010
0100
0010
,
0100
0001
1000
0010
1000
0010
0100
0002
,
0100
0103
0000
0010
0000
0100
0010
0100
,
1000
0100
0010
0001
0010
0100
1000
0200
,
0010
0301
0000
0010
0000
0100
1000
0100
,
0010
0001
0010
0100
0010
1000
0010
0200
,
0001
0002
0000
0000
0000
0000
0000
0000
,
0000
0000
0000
0000
,
0303
0000
0000
0000
;

//---------------dance-single - ----------------
#NOTES:
     dance-single:
     :
     Medium:
     8:
     0.573,0.710,0.008,0.401,0.263:
0000
0000
0000
0000
,
0000
0000
0000
0000
,
0000
0000
0000
0000
,
0000
0000
0000
0000
,
0000
1000
0000
0000
0100
0000
1000
0000
,
0100
0000
0010
0000
0001
0100
0001
0100
,
0001
0100
1000
0010
,
2002
0000
0000
3003
,
0001
0000
0000
1000
0000
0000
0001
0000
1000
0000
0000
0001
0000
0000
1000
0000
,
0001
0000
0000
1000
0000
0000
0001
0000
1000
0000
0000
0001
0000
0000
1000
0000
,
0100
0000
0000
1000
0000
0000
0100
0000
1000
0000
0000
0100
0000
0000
1000
0000
,
0100
0000
0000
1000
0000
0000
0100
0000
1000
0000
0000
0100
0000
0000
1000
0000
,
0100
0000
0000
0010
0000
0000
0100
0000
0010
0000
0000
0100
0000
0000
0010
0000
,
0100
0000
0000
0010
0000
0000
0100
0000
0010
0000
0000
0100
0000
0000
0010
0000
,
0100
0000
0000
0001
0000
0000
0100
0000
0001
0000
0000
0100
0000
0000
0001
0000
,
0100
0000
0000
0001
0000
0000
0100
0000
0001
0000
0000
0100
0000
0000
0001
0000
,
0010
0000
0000
0100
0000
0000
0010
0000
0100
0000
0000
0010
0000
0000
0100
0000
,
0001
0000
0000
1000
0000
0000
0001
0000
1000
0000
0000
0100
0000
0000
0010
0000
,
0001
0000
0000
0010
0000
0000
0100
0000
0001
0000
0000
0100
0000
0000
0001
0000
,
0100
0000
0000
0010
0000
0000
1000
0000
0010
0000
0000
1000
0000
0000
0010
0000
,
1000
0000
0000
0100
0000
0000
1000
0000
0100
0000
0000
0010
0000
0000
0001
0000
,
0100
0000
0000
0001
0000
0000
0100
0000
0001
0000
0000
0100
0000
0000
0010
0000
,
0100
0000
0000
0010
0000
0000
0100
0000
1000
0000
0000
0100
0000
0000
1000
0000
,
0100
0000
0000
0010
0000
0000
0001
0000
0010
0000
0000
0100
0000
0000
1000
0000
,
0001
1000
0100
0010
,
0001
0000
0010
0000
0002
0203
0302
0203
,
0301
0100
1000
0010
,
0100
0000
1000
0000
2000
3200
2300
3200
,
1300
0100
0010
0001
,
0100
0000
1000
0000
0020
0230
0320
0230
,
0310
0001
0100
1000
,
0010
0000
1000
0000
0001
0010
0100
1000
,
0100
0010
0001
0100
,
1000
0000
0100
0000
0002
0203
0320
2030
,
3001
0010
0100
1000
,
0001
0000
0100
0000
2000
3200
0320
0032
,
0013
0001
0010
0100
,
1000
0000
0100
0000
0002
0023
0230
2300
,
3100
0010
0001
0100
,
1000
0000
0100
0000
0020
0230
0302
2003
,
3002
1003
0002
1003
,
0002
1003
0002
1003
,
2000
3001
2000
3001
,
2000
3001
2000
3001
,
0020
0130
0020
0130
,
0200
0310
0200
0310
,
1000
0100
0010
0001
0010
0100
0010
1000
,
0002
0000
0000
0000
,
2003
0100
0100
0100
3200
0010
0010
0010
,
0320
0001
0001
0001
0032
0010
0010
0010
,
0023
0100
0100
0100
0230
1000
1000
1000
,
1300
0001
0100
0010
1000
0100
0010
0001
,
1000
0000
0100
0000
0010
0000
1000
0001
1000
0000
0000
0000
0000
0000
0001
0000
0000
0000
0000
0000
1000
0000
0000
0000
0001
0000
0000
0000
0000
0000
1000
0000
,
0000
0000
0001
0000
1000
0000
0000
0001
0000
0000
1000
0000
0001
0000
0000
1000
,
0000
0000
0001
0000
0010
0000
0000
0001
0000
0000
0010
0000
0001
0000
0000
0010
,
0000
0000
0001
0000
0010
0000
0000
0001
0000
0000
0010
0000
0001
0000
0000
0010
,
0000
0000
0001
0000
0010
0000
0000
0100
0000
0000
0010
0000
0100
0000
0000
0010
,
0000
0000
0100
0000
0010
0000
0000
0100
0000
0000
0010
0000
0100
0000
0000
0010
,
0000
0000
0100
0000
0010
0000
0000
1000
0000
0000
0010
0000
1000
0000
0000
0010
,
0000
0000
1000
0000
0010
0000
0000
1000
0000
0000
0010
0000
1000
0000
0000
0010
,
0000
0000
1000
0000
0100
0000
0000
0010
0000
0000
0100
0000
0010
0000
0000
0100
,
0000
0000
0010
0000
1000
0000
0000
0001
0000
0000
1000
0000
0001
0000
0000
0010
,
0000
0000
0100
0000
1000
0000
0000
0100
0000
0000
0010
0000
1000
0000
0000
0010
,
0000
0000
1000
0000
0010
0000
0000
0100
0000
0000
0001
0000
0100
0000
0000
0001
,
0000
0000
0100
0000
0001
0000
0000
0010
0000
0000
0001
0000
0010
0000
0000
0100
,
0000
0000
1000
0000
0010
0000
0000
1000
0000
0000
0010
0000
1000
0000
0000
0010
,
0000
0000
0100
0000
0010
0000
0000
0100
0000
0000
0010
0000
0001
0000
0000
0010
,
0000
0000
0001
0000
0010
0000
0000
0100
0000
0000
1000
0000
0100
0000
0000
0010
,
0000
0001
1000
0100
1000
0000
0001
0100
,
0001
0000
0010
0001
0010
0000
0010
1000
,
0010
0000
0001
1000
0001
0000
0010
0100
,
0010
0000
1000
0100
1000
0000
0010
0001
,
0010
0000
0100
0001
0100
0000
0010
1000
,
0010
0000
1000
0100
1000
0000
0010
0001
,
0010
0000
0100
0001
0100
0000
0010
1000
,
0010
0000
1000
0001
1000
0000
0100
1000
,
0100
0000
1000
0100
0000
0010
0001
0010
,
0001
0000
0010
0100
0010
0100
0010
0100
,
0010
0100
0000
1000
0000
0100
1000
0100
,
1000
0000
0010
0001
0010
0001
0010
0001
,
0010
0100
0000
0001
0000
0100
0001
0100
,
0001
0000
0010
1000
0010
1000
0010
1000
,
0010
1000
0000
1000
0000
1000
0100
0010
,
0001
0000
0001
0100
0001
0100
0001
1000
,
0010
2000
0002
0000
0000
0000
0000
0000
,
0000
0000
0000
0000
,
3003
0000
0000
0000
;

//---------------dance-single - ----------------
#NOTES:
     dance-single:
     :
     Easy:
     6:
     0.460,0.608,0.314,0.354,0.000:
0000
0000
0000
0000
,
0000
0000
0000
0000
,
0000
0000
0000
0000
,
0000
0000
0000
0000
,
1000
0001
1000
0001
,
0100
0000
0010
0000
1000
0000
0100
1000
,
0100
0010
0001
0100
,
2002
0000
0000
3003
,
1000
0001
0100
0010
,
1000
0000
0100
0000
0010
0000
0001
0100
,
0001
0100
1000
0100
,
0001
0000
0010
0000
1000
0000
0100
1000
,
0100
1000
0010
0001
,
0100
1000
0010
0001
,
1000
0100
0010
0001
,
0100
0000
1000
0000
0010
0000
0001
1000
,
0001
1000
0001
0100
,
0010
1000
0100
1100
,
0011
0001
0100
0010
,
1000
0001
0100
1010
,
0101
0001
0010
0100
,
1000
0001
0100
0101
,
1001
1000
0100
0010
,
0001
1000
0001
0100
,
1000
0100
0010
0001
,
0100
0000
0001
0000
1000
0000
0001
1000
,
0001
1000
0100
0010
,
0001
0000
0100
0000
1000
0000
0010
1000
,
0010
1000
0100
0010
,
0001
0000
0100
0000
1000
0000
0010
0001
,
0010
0100
1000
0100
,
0010
0000
0001
0000
0100
0000
1000
0100
,
1000
0100
0010
0001
,
0100
0000
1000
0000
0001
0000
0100
0001
,
0100
0010
1000
0100
,
0010
0000
0001
0000
0100
0000
1000
0100
,
1000
0100
0010
0001
,
0100
0000
1000
0000
0010
0000
0001
0100
,
0001
0010
0100
1000
,
0100
0000
0010
0000
0001
0000
0100
0001
,
0200
0000
0000
0000
,
0000
0000
0000
0010
,
0000
0010
0000
0010
,
0000
0010
0000
0310
,
0010
0010
0010
0010
,
0010
0010
0010
0010
,
0010
0100
0010
0100
0010
0100
0010
0100
,
0220
0000
0000
0330
,
2000
0000
3002
0000
,
2003
0000
3200
0000
,
2300
0000
0000
0000
,
3020
0000
0200
0000
,
0330
0002
1003
0200
,
1300
0020
0031
0200
,
0301
0100
0002
0000
0103
0000
2000
0000
,
3100
0020
1030
0020
,
0130
0010
0200
0000
0310
0000
2000
0000
,
3100
0020
0031
0200
,
0301
0100
0002
0000
0103
0000
2000
0000
,
3100
0020
0031
0200
,
0301
2000
3100
0020
,
0031
0200
0310
0200
,
1300
0100
2000
0000
3100
0000
0020
0000
,
0031
0200
0310
2000
,
3100
1000
0200
0000
0310
0000
0002
0000
,
0103
0020
1030
0200
,
0301
0100
0002
0000
0103
0000
0020
0000
,
0031
0200
1300
0100
,
1000
1100
1100
0011
,
0011
0101
0101
1010
,
1010
0110
0110
1001
,
1001
1100
0011
1010
,
0101
0110
1001
1100
,
0011
0101
1100
0101
,
1100
1010
0011
0101
,
1010
1100
0011
0101
,
1010
1000
0001
0100
,
0010
0000
0100
0000
0001
0000
0010
1000
,
0100
0001
0010
0000
0001
0000
1000
0000
,
0100
0000
0010
0000
0001
0000
1000
0100
,
1000
0100
1000
0000
0001
0000
1000
0000
,
0100
0000
0010
0000
0001
0000
1000
0100
,
0010
0001
1000
0000
0001
0000
1000
0000
,
0100
0010
0001
1000
,
0010
2000
0002
0000
0000
0000
0000
0000
,
0000
0000
0000
0000
,
3003
0000
0000
0000
;

//---------------dance-single - ----------------
#NOTES:
     dance-single:
     :
     Beginner:
     2:
     0.108,0.199,0.063,0.000,0.000: // measure 1
0000
0000
0000
0000
,  // measure 2
0000
0000
0000
0000
,  // measure 3
0000
0000
0000
0000
,  // measure 4
0000
0000
0000
0000
,  // measure 5
1000
0000
0000
0000
,  // measure 6
0000
0000
0000
0000
,  // measure 7
0001
0000
0000
0000
,  // measure 8
0000
0000
0000
0000
,  // measure 9
0100
0000
0000
0000
,  // measure 10
0100
0000
0000
0000
,  // measure 11
0100
0000
0000
0000
,  // measure 12
0001
0000
0000
0000
,  // measure 13
1000
0000
0000
0000
,  // measure 14
0010
0000
0000
0000
,  // measure 15
0001
0000
0000
0000
,  // measure 16
1000
0000
0000
0000
,  // measure 17
1001
0000
0000
0000
,  // measure 18
0100
0000
0000
0000
,  // measure 19
0010
0000
0000
0000
,  // measure 20
0001
0000
0000
0000
,  // measure 21
1000
0000
0000
0000
,  // measure 22
1000
0000
0000
0000
,  // measure 23
1000
0000
0000
0000
,  // measure 24
0001
0000
0000
0000
,  // measure 25
0100
0000
0100
0000
,  // measure 26
0100
0000
0100
0000
,  // measure 27
0010
0000
0010
0000
,  // measure 28
0010
0000
0010
0000
,  // measure 29
0100
0000
0100
0000
,  // measure 30
0100
0000
0100
0000
,  // measure 31
0010
0000
0000
0000
,  // measure 32
1000
0000
0000
0000
,  // measure 33
1001
0000
0001
0000
,  // measure 34
0001
0000
0001
0000
,  // measure 35
1000
0000
1000
0000
,  // measure 36
1000
0000
1000
0000
,  // measure 37
0100
0000
0010
0000
,  // measure 38
0100
0000
0010
0000
,  // measure 39
0001
0000
0000
0000
,  // measure 40
1000
0000
0000
0000
,  // measure 41
0110
0000
0000
0000
,  // measure 42
0000
0000
0000
0000
,  // measure 43
0000
0000
0000
0000
,  // measure 44
0000
0000
0000
0000
,  // measure 45
1000
0000
0000
0000
,  // measure 46
0000
0000
0000
0000
,  // measure 47
0001
0000
0000
0000
,  // measure 48
1000
0000
0000
0000
,  // measure 49
0100
0000
0100
0000
,  // measure 50
0100
0000
0100
0000
,  // measure 51
0100
0000
0000
0000
,  // measure 52
0001
0000
1000
0000
,  // measure 53
0000
1001
0000
0000
,  // measure 54
0000
1000
0000
0000
,  // measure 55
0000
0001
0000
0000
,  // measure 56
0000
0100
0000
0000
,  // measure 57
0000
0010
0000
0000
,  // measure 58
0000
0000
0000
0000
,  // measure 59
0000
0010
0000
0000
,  // measure 60
0000
0100
0000
0000
,  // measure 61
0000
1001
0000
0000
,  // measure 62
0000
1000
0000
0000
,  // measure 63
0000
0001
0000
0000
,  // measure 64
0000
0100
0000
0000
,  // measure 65
0000
0010
0000
0000
,  // measure 66
0000
0100
0000
0000
,  // measure 67
0000
0100
0000
0000
,  // measure 68
0000
1000
0000
0000
,  // measure 69
0000
0001
0000
0000
,  // measure 70
0000
0001
0000
0000
,  // measure 71
0000
0001
0000
0000
,  // measure 72
0000
0001
0000
0000
,  // measure 73
0000
1000
0000
0000
,  // measure 74
0000
1000
0000
0000
,  // measure 75
0000
1000
0000
0000
,  // measure 76
0000
1000
0000
0000
,  // measure 77
0000
0010
0000
0000
,  // measure 78
0000
0000
0000
0000
,  // measure 79
0110
0100
0000
0000
,  // measure 80
0000
0000
0000
0000
,  // measure 81
1001
0001
0000
0000
,  // measure 82
0000
0000
0000
0000
,  // measure 83
0110
0100
0000
0000
,  // measure 84
0000
0000
0000
0000
,  // measure 85
0000
0001
0000
0000
;
