#TITLE:neu EX;
#SUBTITLE:;
#ARTIST:少年ラジオ;
#TITLETRANSLIT:;
#SUBTITLETRANSLIT:;
#ARTISTTRANSLIT:SHOUNEN RADIO;
#CREDIT:DMAxel;
#BANNER:bn.PNG;
#BACKGROUND:bg.png;
#LYRICSPATH:;
#CDTITLE:pop'n music.png;
#MUSIC:neu EX.mp3;
#OFFSET:-0.340;
#SAMPLESTART:32.961;
#SAMPLELENGTH:18.600;
#SELECTABLE:YES;
#BPMS:0.000=198.500,12.000=99.240,44.000=198.500,56.000=198.490,58.000=198.500,108.000=99.240,122.000=99.250,156.000=198.490,170.000=198.500,380.000=99.240,394.000=99.250;
#STOPS:;
#BGCHANGES:;

//---------------dance-single - ----------------
#NOTES:
     dance-single:
     :
     Hard:
     9:
     0.560,0.591,0.335,0.087,0.027:
0000
0000
0000
0000
,
0000
0000
0000
0000
,
0000
0000
0000
0000
,
0000
0000
0000
0000
,
0000
0000
0000
0000
0000
0000
0000
0000
0000
0000
0000
0000
0000
0000
0001
1000
,
1001
0000
0000
0000
,
0000
0000
0000
0000
,
1000
1000
0001
0100
,
0010
1000
0100
0010
,
0001
0100
0010
1000
0100
0010
0001
1000
,
1000
1000
0001
0100
0020
0000
0100
0100
,
0130
0010
1000
0001
1000
0010
1000
0001
,
0100
0001
0100
0001
0100
0010
0100
0001
,
1000
0010
1000
0001
0010
0100
1000
0100
,
0010
0001
1000
0001
1000
0001
1000
0000
,
0010
1000
0010
0100
0010
0100
0001
1000
,
0010
0100
0010
1000
0010
0100
0001
0100
,
1000
0100
0010
1000
0010
1000
0001
0100
,
0010
1000
0001
0100
0010
1000
0010
1000
,
0001
1001
1100
0011
,
0110
0000
1001
0000
0110
0000
0010
0100
,
0010
1100
0011
0110
,
1001
1100
0011
0110
,
0001
0000
0001
0100
0000
0100
0010
0000
,
0010
0000
0010
0100
0010
0000
1000
0100
,
1100
0011
0110
1001
,
0110
0000
1100
0000
0010
0001
0010
0100
,
1000
0000
0100
0000
0000
0010
0000
0000
0000
0000
0001
0000
1000
0000
0100
0000
,
0010
0000
0001
0000
0010
0000
0100
0000
0001
0000
1000
0000
0010
0000
0001
0100
,
0001
0000
1000
0100
0010
0001
1000
0001
,
1000
0000
0100
0100
0000
0000
0010
0010
,
0100
0000
0010
0000
1000
0000
0000
0100
1000
0000
0000
0000
0010
0000
0010
0000
,
0000
0001
0100
0000
0100
0010
0000
0000
,
1000
0000
0001
0100
0000
0010
0100
0010
,
1000
0000
0001
0000
0100
0000
0010
0000
1000
0001
1000
0000
0100
0000
0010
0000
,
0000
0001
1000
0000
0000
0000
0000
1000
,
0001
0000
0000
0000
0100
0000
0100
0000
0000
0000
0010
0100
0010
1000
0001
0100
,
0001
0000
0000
0000
1000
0000
0001
0001
,
0000
0000
0000
0000
2002
0000
0000
0003
,
3001
0000
1000
0100
0000
0010
0100
0000
,
0010
0100
0000
0010
0100
0000
0110
0000
,
0001
0000
0001
0100
0000
0100
0010
0000
,
0010
1000
0000
1000
0100
0000
1100
0000
,
1000
0000
1000
0100
0000
0100
0010
0000
,
0010
0001
0000
0001
0010
0000
0011
0000
,
0001
0000
0001
0010
0000
0010
0100
0000
,
0100
1000
0000
1000
0100
0000
1100
0000
,
0010
0000
0100
0100
0000
0010
0010
0000
,
0100
0100
0000
0010
0100
0000
0110
0000
,
0001
0000
1000
1000
0000
0001
0001
0000
,
1000
1000
0000
0001
1000
0000
1001
0000
,
0001
0000
0001
0100
0000
0100
0010
0000
,
0010
1000
0000
1000
0100
0000
0010
0000
,
0011
0000
0001
0010
0000
0010
0100
0000
,
1000
0100
0000
0010
0001
1000
0001
0000
,
1002
1000
1000
1003
,
2001
0001
0001
3001
,
0120
0100
0100
0130
,
0210
0010
0010
0310
,
0102
0100
0100
0103
,
2100
0100
0100
3100
,
0120
0000
0000
0000
,
0200
0000
0000
0330
,
0001
1000
0001
1000
0001
1000
0001
1000
,
0001
0100
0001
0100
0001
0100
0001
0100
,
0010
0100
0010
0100
0010
1000
0010
1000
,
0001
1000
0010
1000
0001
1000
0010
1000
,
0001
0100
0010
0100
0010
1000
0001
1000
,
0001
1000
0010
0001
0100
0001
0100
0001
,
1000
0010
1000
0010
1000
0100
0010
0001
,
0010
0100
0010
1000
0010
1000
0001
0000
,
1000
0000
0100
0000
0010
0100
0001
0100
,
0010
0000
1000
0000
0001
1000
0001
1000
,
0001
0000
0100
0000
0010
0100
0001
1000
,
0001
0000
0001
0000
1000
0100
0010
0001
,
0010
0000
0001
0100
0000
0100
0010
0000
,
0010
0000
0001
1000
0001
0000
1000
0100
,
1100
0100
0100
0001
,
0100
1100
0110
0101
,
1000
0100
0010
0001
0010
0100
0010
0100
,
0001
0100
0010
1000
0001
1000
0010
0000
,
1000
0100
0010
0001
0010
0100
0001
0100
,
0001
1000
0001
1000
0010
1000
0010
1000
,
0100
0010
0001
0010
0100
0001
1000
0001
,
1000
0001
1000
0001
1000
0000
0001
1000
,
1001
1001
1001
1001
,
1001
1001
1001
1001
,
0001
1000
0001
1000
0001
0100
0001
0100
,
0010
0100
0010
1000
0010
1000
0100
0010
,
0001
0010
0100
1000
0100
0010
0001
0100
,
0001
1000
0001
1000
0010
1000
0010
0100
,
0010
1000
0100
0010
0001
0010
0100
0001
,
1000
0010
0100
0001
1000
0100
0010
0001
,
0010
0100
0001
1000
0010
0100
0010
0100
,
0101
0000
1100
0000
,
2002
0000
0000
0000
,
0000
0000
0000
0000
,
0000
0000
0000
0000
,
0000
3003
0000
0000
0000
0000
0000
0000
;

//---------------dance-single - ----------------
#NOTES:
     dance-single:
     :
     Challenge:
     11:
     0.732,0.956,0.428,0.067,0.355:
0000
0000
0000
0000
,
0000
0000
0000
0000
,
0000
0000
0000
0000
,
0000
0000
0000
0000
,
0000
0000
0000
0000
0000
0000
0000
0000
0000
0000
0000
0000
0000
0000
0101
1100
,
0110
0000
0000
0000
,
0000
0000
0000
0000
0000
0000
0001
1000
0000
0100
0001
0000
0001
1000
0001
1000
,
1001
0001
1001
1000
1100
0100
0110
0010
,
0011
0010
0110
0100
1100
0010
0110
0010
,
1001
1001
1100
1100
0011
0011
0110
0110
,
0010
1000
0001
1000
0010
1000
0100
0010
0002
0000
0000
0000
1003
0100
0010
0001
,
1000
0100
0010
0010
0001
0010
0100
1000
,
0001
1000
0001
0100
0010
1000
0100
0010
,
0001
0010
0100
1000
0001
1000
0100
0001
,
0001
0001
1000
1000
0001
0100
0010
1000
,
0010
1000
0100
0010
0001
0010
0100
1000
,
0001
1000
0001
0100
0010
1000
0100
0010
,
0001
0010
0100
1000
0001
0100
0010
1000
,
0100
0100
0010
0010
1000
0001
0100
0010
,
1001
0000
0000
1000
0100
0000
0000
1000
0001
0000
0000
1000
0010
0000
0000
1000
,
0001
0000
0000
1000
0010
0000
0000
1000
0100
0000
0000
0000
0001
0000
1000
0000
,
0001
0000
0000
0100
1000
0000
0000
1000
0100
0000
0000
0100
0010
0000
0000
0010
,
0001
0000
0000
0001
1000
0000
0000
1000
0100
0000
0000
0100
0010
0000
0000
0010
,
0001
0000
1000
0010
0000
1000
0100
0000
,
0001
1000
0001
0100
0010
0000
0001
0100
,
0001
0000
0000
0010
0001
0000
0000
0001
1000
0000
0000
0100
1000
0000
0000
1000
,
0100
0000
0000
0100
0010
0000
0000
0010
0001
0000
0000
0001
1000
0000
0000
0000
,
1000
0000
0001
0100
0001
0000
0010
0000
0100
0000
0010
0000
1000
0000
0100
0000
,
0010
0000
0001
0000
1000
0000
0010
1000
0001
0000
0100
0000
0010
0000
0001
1000
,
0010
1000
0001
0000
1000
0100
0010
0001
0010
0000
0100
0000
0001
0000
0001
1000
,
0001
0000
0100
0000
0010
0100
0010
0000
0000
0000
0000
0000
0010
0100
0010
0000
,
0100
0000
0010
0000
1000
0000
1000
0100
1000
0000
0000
0000
0010
0100
0010
0000
,
0000
0000
0001
1000
0100
0000
0000
0000
0100
0001
1000
0000
0000
0000
0000
0001
,
1000
0000
0000
0000
0001
1000
0100
0000
0000
0000
0010
0000
0100
0000
0010
0000
,
1000
0000
0001
0000
0100
0000
0010
0000
1000
0001
1000
0000
0100
0000
0010
0001
,
0010
0000
0001
1000
0001
0000
1000
0000
0001
0000
0010
0000
0100
0000
1000
0100
,
0001
0000
1000
0000
0100
0010
0100
0000
0001
0000
0010
0100
0010
1000
0001
0100
,
0001
1000
0001
0000
1000
0000
0001
0000
1000
0000
0100
0000
0001
1000
0001
0000
,
1000
0000
0000
0000
0001
0000
0000
0000
0010
0000
0000
0000
0100
0000
0000
0000
1000
0000
0000
0000
0001
0000
0010
0000
0100
0000
1000
0000
0001
1000
0001
0100
,
0010
0000
0010
0110
0000
1000
1100
0000
,
0010
0110
0000
0001
0101
0000
0101
0000
,
0110
0000
0010
0110
0000
1000
1100
0000
,
0100
0110
0000
0010
0011
0000
0101
0000
,
0110
0000
0010
1010
0000
0010
0110
0000
,
0010
0011
0000
0100
0101
0000
0110
0000
,
1010
0000
0010
0110
0000
1000
1100
0000
,
0010
0011
0000
0010
0110
0000
1001
0000
,
1100
0000
0100
0110
0000
0010
0011
0000
,
0001
0101
0000
0010
0210
0000
0301
0000
,
0110
0000
1000
1100
0000
0010
0011
0000
,
0001
0101
0000
0010
0012
0000
1003
0000
,
0110
0000
0010
0110
0000
1000
1100
0000
,
0010
0011
0000
0001
0102
0000
0103
0000
,
0110
0000
0010
0110
0000
1000
1100
0000
,
0010
0011
0000
0010
0100
0000
0001
0000
,
1000
0001
1000
0001
1000
0001
1000
0001
,
0100
0001
0100
0001
0100
0001
0100
0010
,
0100
0010
0100
0010
0100
0010
0100
0010
,
0100
0001
0100
0001
0100
0001
0100
0000
,
0001
1000
0001
1000
0001
1000
0001
1000
,
0010
1000
0010
1000
0010
1000
0010
0000
,
1020
0000
0000
0000
,
0002
0000
0000
0033
,
1000
0001
1000
0100
0010
0001
0010
0100
,
1000
0001
0100
0001
0010
0010
0010
0100
,
0010
1000
0001
1000
0001
0100
0010
1000
,
0100
0010
0001
0010
0100
1000
0100
0010
,
0001
0001
0010
0100
1000
0001
0100
0010
,
1000
0001
0100
0010
1000
1000
0001
1000
,
0100
0010
0001
0010
0100
0010
1000
0001
,
1000
0100
0010
0001
0010
0100
1000
0100
,
1000
0000
0000
1000
0001
0000
0000
0001
1000
0000
0000
1000
0100
0000
0000
0100
,
0010
0000
0000
0010
0001
0000
0000
0001
0010
0000
0000
0010
0100
0000
0010
0000
,
0100
0000
0000
0100
1000
0000
0000
1000
0001
0000
0000
0001
0100
0000
0000
0100
,
0010
0000
0000
0010
1000
0000
0000
1000
0100
0000
0000
0100
0010
0000
0000
0010
,
0001
0000
1000
0001
0000
0001
1000
0000
,
1000
0000
0001
1000
0001
0000
0001
1000
,
0100
0000
0000
1000
0100
0000
0000
0010
0100
0000
0000
0001
0100
0000
0000
0010
,
0100
0000
0000
1000
0100
0000
0000
0010
0100
0000
0000
0100
0010
0000
0000
0000
,
0001
0010
0100
1000
0100
0010
0001
0010
,
0100
0001
0010
0100
1000
0010
1000
0010
,
0001
0010
0100
1000
0001
1000
0001
0100
,
0001
0100
0010
0100
0010
1000
0100
0010
,
0001
0100
0001
1000
0010
1000
0010
0100
,
0001
1000
0100
1000
0100
0010
0001
0100
,
0001
0100
0010
1000
0010
1000
0100
0010
,
0001
0010
0100
0010
1000
0010
1000
0000
,
0001
1000
0100
0010
0001
0010
0100
1000
,
0100
0000
0010
0000
1000
0000
0001
0000
0100
0000
0010
0000
1000
0000
0001
1000
,
0001
1000
0100
0010
0001
0010
0100
0001
,
0100
0000
0010
0000
1000
0000
0010
0000
0100
0000
0001
0000
1000
0000
0001
1000
,
0001
1000
0100
0010
0001
0010
0100
1000
,
0100
0000
0010
0000
0001
0000
0100
0000
0010
0000
1000
0000
0001
0100
0001
0100
,
0001
0100
1000
0100
0010
0001
0010
0100
,
0100
0010
0100
0010
1000
0001
0010
0100
1000
0100
0010
0001
1000
0001
0100
0001
,
2002
0000
0000
0000
,
3003
0000
0000
0000
0000
0000
0000
0000
0000
0000
0000
0000
0000
0000
0000
0000
0001
0000
0000
0000
0000
0000
0000
0000
0000
0000
0000
0000
0000
0000
0000
0000
0000
0000
0000
0000
0000
0000
0000
0000
0000
0000
0000
0000
0000
0000
0000
0000
1000
0000
0000
0000
0000
0000
0000
0000
0000
0000
0000
0000
0000
0000
0000
0000
0000
0000
0000
0000
0000
0000
0000
0000
0001
0000
0000
0000
0000
0000
0000
0000
0000
0000
0000
0000
0000
0000
0000
0000
0000
0000
0000
0000
0000
0000
0000
0000
0000
0000
0000
0000
0000
0000
1000
0000
0000
0000
0000
0000
0000
0000
0000
0000
0000
0000
0000
0000
0000
0000
0000
0000
0000
0000
0000
0000
0000
0000
0000
0000
0000
0000
0000
0000
0001
0000
0000
0000
0000
0000
0000
0000
0000
0000
0000
0000
0000
0000
0000
0000
0000
0000
0000
0000
0000
0000
0000
0000
0100
0000
0000
0000
0000
0000
0000
0000
0000
0000
0000
0000
0000
0000
0000
0000
0000
0000
0000
0000
0000
0000
0000
0000
0000
0000
0000
0000
0000
0000
0010
0000
0000
0000
0000
0000
,
0000
0000
0000
0000
0000
0000
0000
0000
0000
0000
1000
0000
0000
0000
0000
0100
0000
0000
0000
0001
0000
0000
0000
1000
0000
0000
0000
0000
0001
0000
0000
0000
,
2000
0000
0002
0000
0000
0000
3003
0000
0000
0000
0000
0000
;

//---------------dance-single - ----------------
#NOTES:
     dance-single:
     :
     Medium:
     8:
     0.505,0.578,0.361,0.047,0.000:
0000
0000
0000
0000
,
0000
0000
0000
0000
,
0000
0000
0000
0000
,
0000
0000
0000
0000
,
0000
0000
0000
0000
,
1001
0000
0000
0000
,
0000
0000
0000
0000
,
0010
0010
0100
0100
,
1000
1000
0001
0001
,
0001
1000
0001
0100
,
0010
0100
0010
1000
0002
0000
0003
0000
,
1000
0100
0010
0001
,
0010
0000
0100
0000
1000
0000
0001
0100
,
0001
0100
0010
1000
,
0001
1000
0010
0100
0001
1000
0010
1000
,
0001
0000
1000
0000
0100
0000
0010
0001
,
0010
0000
0100
0000
1000
0000
0010
1000
,
0010
0000
0010
0100
0010
0000
0001
1000
,
0001
0100
0010
1000
,
0001
1001
0101
1100
,
0101
1100
0101
0000
,
0000
0110
0010
0100
,
1100
0100
0010
0001
,
0011
0000
0001
0010
0000
0010
0100
0000
,
1000
0000
0001
1000
0001
0000
0001
0100
,
0101
1100
0110
1001
,
1100
0011
0110
1010
,
0001
0000
1000
0000
0100
0000
0010
0001
,
0010
0100
1000
0100
1000
0000
0200
0000
,
2300
0000
3010
0100
0010
1000
0001
1000
,
0001
0000
1000
0100
0000
0000
0010
0001
,
0010
0100
1000
0000
0001
0000
0100
0010
,
0000
0010
0010
0000
0100
0000
0000
1000
,
0100
0010
0001
0010
0000
0000
0001
0000
,
1000
0100
0010
0001
1000
0001
1000
0001
,
0000
0000
1000
0000
0000
0000
0000
0010
,
0100
0000
0010
0100
0000
1000
0100
0020
,
0001
0000
0000
0000
0031
0000
0001
0001
,
0000
1000
0001
0010
0100
1000
0100
0010
,
0001
0000
1000
0001
0000
0001
1000
0000
,
1000
0001
0000
0001
1000
0000
0001
0000
,
0001
0000
0001
0100
0000
0100
0001
0000
,
0001
0100
0000
0100
0001
0000
0100
0000
,
0010
0000
0010
1000
0000
1000
0010
0000
,
0010
1000
0000
1000
0010
0000
1000
0000
,
1000
0000
1000
0100
0000
0100
1000
0000
,
1000
0100
0000
0100
1000
0000
0100
0000
,
1000
0000
1000
0100
0000
0100
0010
0000
,
0010
0001
0000
0001
0010
0000
0011
0000
,
0001
0000
0001
0100
0000
0100
0010
0000
,
0010
1000
0000
1000
0001
0000
1001
0000
,
0001
0000
0001
1000
0000
1000
0001
0000
,
0001
0100
0000
0100
0010
0000
0100
0000
,
0110
0000
0010
0100
0000
0100
0010
0000
,
0010
1000
0000
0010
1000
0001
1000
0000
,
1001
1001
1001
1001
,
1100
1100
1100
1100
,
0101
0101
0101
0101
,
0011
0011
0011
0011
,
0110
0110
0110
0110
,
0110
0110
0110
0110
,
1002
0000
0000
0000
,
2000
0000
0000
3003
,
0001
1000
0010
0100
,
0010
0000
0100
0000
0010
0000
0001
1000
,
0001
0000
1000
0000
0100
1000
0100
1000
,
0100
0000
0010
0100
0010
0000
0001
1000
,
0010
0000
0001
0100
0000
0010
0100
0010
,
1000
0000
0001
1000
0001
0000
0001
0100
,
0001
0000
0010
1000
0010
0000
0010
0100
,
0001
1000
0010
0100
0001
0000
1000
0000
,
0010
0000
1000
0000
0001
0100
0010
1000
,
0001
0000
0100
0000
0010
0100
0001
1000
,
0001
0000
1000
0000
0010
0100
0001
1000
,
0010
0000
0100
0000
1000
0100
1000
0100
,
1000
0000
1000
0100
0000
0100
0010
0000
,
0010
0000
0010
0001
0010
0000
0001
0100
,
0101
0101
0101
0101
,
1100
1100
1100
1100
,
0010
0100
0010
0100
0010
0100
0010
0100
,
0001
1000
0001
1000
0001
1000
0001
0100
,
0010
0100
0010
1000
0001
0100
0010
1000
,
0001
0100
0010
1000
0010
0100
0010
1000
,
0001
0000
1000
0100
0000
0010
0001
0000
,
0010
0000
0001
0100
0001
0000
0010
0100
,
0010
0010
0010
0010
,
0100
1000
0001
0000
,
1000
0001
1000
0001
1000
0001
1000
0001
,
1000
0001
1000
0001
1000
0001
1000
0001
,
0100
0010
0100
0010
0100
0010
0100
0010
,
0100
0010
0100
0010
0100
0010
0100
0010
,
1000
0010
1000
0010
1000
0010
1000
0010
,
0100
0001
1000
0100
0010
0001
0010
0100
,
1000
0100
0010
0001
0010
0100
0010
1000
,
0001
0100
0010
1000
0100
0010
0001
0010
,
0200
0000
0000
0000
,
0300
0000
0000
0000
;

//---------------dance-single - ----------------
#NOTES:
     dance-single:
     :
     Easy:
     6:
     0.319,0.514,0.154,0.080,0.000: // measure 1
0000
0000
0000
0000
,  // measure 2
0000
0000
0000
0000
,  // measure 3
0000
0000
0000
0000
,  // measure 4
0000
0000
0000
0000
,  // measure 5
0000
0000
0000
0000
,  // measure 6
0000
0000
0000
0000
,  // measure 7
0000
0000
0000
0000
,  // measure 8
0001
0000
0001
0000
,  // measure 9
1000
0000
1000
0000
,  // measure 10
0010
0010
0100
0100
,  // measure 11
0010
1000
2002
3003
,  // measure 12
0001
1000
0100
0010
,  // measure 13
0001
0010
0100
1000
,  // measure 14
0100
0010
0001
0010
,  // measure 15
0100
1000
0001
1000
,  // measure 16
0001
1000
0001
0100
,  // measure 17
0001
0100
0010
1000
,  // measure 18
0100
0010
0001
0010
,  // measure 19
0100
1000
0001
0000
,  // measure 20
1000
0100
0010
0001
,  // measure 21
0100
0001
0100
0000
,  // measure 22
0000
0010
0100
1000
,  // measure 23
0001
1000
0001
1000
,  // measure 24
0001
0000
0000
0100
0000
0000
0010
0000
,  // measure 25
0100
0000
0010
0000
1000
0000
0001
1000
,  // measure 26
0001
1000
0100
0010
,  // measure 27
0001
0010
0100
0000
,  // measure 28
1000
0000
0000
0001
,  // measure 29
0100
0000
0010
0000
1000
0000
0000
1000
,  // measure 30
0000
1000
0100
0010
,  // measure 31
0001
0000
0000
0100
0000
0000
0010
0000
,  // measure 32
0100
0000
1000
0000
0001
0000
0000
1000
,  // measure 33
0000
0000
1000
0000
0000
0001
0000
0000
,  // measure 34
0100
0000
0000
0010
0000
0000
0100
0000
,  // measure 35
0010
1000
0001
1000
,  // measure 36
0000
0001
0000
0000
,  // measure 37
0100
0000
0000
0010
0000
0000
0100
0010
,  // measure 38
0100
0000
0000
0000
0010
0000
0000
0100
,  // measure 39
0000
0000
1000
0000
0001
1000
0100
0010
,  // measure 40
0001
0000
0000
1000
0000
0000
0001
0000
,  // measure 41
0000
0100
0000
0000
0010
0000
0010
0000
,  // measure 42
0100
0000
0000
0010
0000
0000
1000
0000
,  // measure 43
0000
0100
0000
0000
0001
0000
0001
0000
,  // measure 44
0100
0000
0000
0010
0000
0000
1000
0000
,  // measure 45
0000
0001
0000
0000
0100
0000
0010
0000
,  // measure 46
1000
0000
0000
0100
0000
0000
0010
0000
,  // measure 47
0000
0001
0000
0000
0010
0000
0001
0000
,  // measure 48
0010
0000
0000
0010
0000
0000
0100
0000
,  // measure 49
0000
0100
0000
0000
0110
0000
1001
0000
,  // measure 50
1001
0000
0000
1000
0000
0000
0001
0000
,  // measure 51
0000
0100
0000
0000
0010
0000
0010
0000
,  // measure 52
1010
0000
0000
0110
0000
0000
0011
0000
,  // measure 53
0000
0110
0000
0000
0001
0000
1000
0000
,  // measure 54
1001
0000
0000
1001
0000
0000
1001
0000
,  // measure 55
0000
1001
0000
0000
0001
0000
1000
0000
,  // measure 56
0002
0000
0000
0000
,  // measure 57
0203
0000
0000
0000
,  // measure 58
0320
0000
0000
0000
,  // measure 59
2030
0000
0000
0000
,  // measure 60
3200
0000
0000
0000
,  // measure 61
2300
0000
0000
0000
,  // measure 62
3020
0000
0000
0000
,  // measure 63
0200
0000
0000
0330
,  // measure 64
0001
1000
0100
0010
,  // measure 65
0001
0010
0100
1000
,  // measure 66
0001
1000
0001
0100
,  // measure 67
0010
1000
0100
0010
,  // measure 68
0001
0010
0100
1000
,  // measure 69
0100
0010
0001
0010
,  // measure 70
0100
1000
0001
0100
,  // measure 71
0010
1000
0010
0100
,  // measure 72
0001
0000
0000
0000
1000
0001
1000
0001
,  // measure 73
0000
0000
0000
0000
0010
0100
0010
0100
,  // measure 74
0000
0000
0000
0000
1000
0100
1000
0100
,  // measure 75
0000
0000
0000
0000
0001
0100
0001
0100
,  // measure 76
0000
0000
0000
0000
0010
0100
0010
0100
,  // measure 77
0000
0000
0000
0000
1000
0100
1000
0100
,  // measure 78
1000
1000
1000
1000
,  // measure 79
0001
0001
0001
0000
,  // measure 80
1001
0001
0100
0010
,  // measure 81
1010
0101
1010
1000
,  // measure 82
0100
0011
0011
0101
,  // measure 83
0101
0010
0100
0010
,  // measure 84
0010
0000
0010
0100
0000
0100
0010
0000
,  // measure 85
0010
0000
1000
0000
0010
0000
0010
1000
,  // measure 86
0010
1000
0100
0010
,  // measure 87
0001
0010
0100
0000
,  // measure 88
0001
1000
0001
0000
1000
0000
0100
0000
,  // measure 89
0010
0001
0010
0000
0100
0000
0000
0000
,  // measure 90
0001
0100
0001
0000
0100
0000
0010
0000
,  // measure 91
1000
0010
1000
0000
0100
0000
0010
0000
,  // measure 92
0001
0000
0001
0010
0000
0010
0100
0000
,  // measure 93
1000
0000
0010
1000
0010
0000
1000
0100
,  // measure 94
0010
0001
0010
0100
,  // measure 95
1100
0000
0101
0000
,  // measure 96
2002
0000
0000
0000
,  // measure 97
3003
0000
0000
0000
;

//---------------dance-single - ----------------
#NOTES:
     dance-single:
     :
     Beginner:
     3:
     0.154,0.254,0.107,0.000,0.000:
0000
0000
0000
0000
,
0000
0000
0000
0000
,
0000
0000
0000
0000
,
0000
0000
0000
0000
,
0000
0000
0000
0000
,
0000
0000
0000
0000
,
0000
0000
0000
0000
,
1000
0000
0000
0000
,
0001
0000
0000
0000
,
0010
0000
0000
0000
,
0100
0000
0100
0000
,
0010
0000
0000
0000
,
0000
0000
0000
0000
,
1000
0000
0000
0000
,
0001
0000
1000
0000
,
0100
0000
0000
0000
,
0010
0000
0000
0000
,
0001
0000
0000
0000
,
0100
0000
0000
0000
,
0010
0000
0010
0000
,
0010
0000
0010
0000
,
0000
0000
0100
0000
,
0100
0000
0100
0000
,
0100
0000
0000
0000
,
0010
0000
0000
0000
,
1000
0000
0001
0000
,
1000
0000
0001
0000
,
1000
0000
0000
0000
,
0000
0000
0100
0000
,
0000
0000
0000
0000
,
0001
0000
0000
0000
,
0000
0000
1000
0000
,
0000
0000
0000
0000
,
0001
0000
0000
0100
,
0100
0000
0100
0000
,
0000
0010
0000
0000
,
1000
0000
0000
0000
,
0000
0000
0001
0000
,
0000
0000
0100
0000
,
0010
0000
0000
0010
,
0000
0000
0010
0010
,
0010
0000
0000
0100
,
0000
0000
0100
0100
,
0100
0000
0000
1000
,
0000
0000
1000
1000
,
1000
0000
0000
0001
,
0000
0000
0001
0001
,
1000
0000
0000
0001
,
0000
0000
0100
0010
,
1000
0000
0000
0001
,
0000
0000
1000
0001
,
0100
0000
0000
0010
,
0000
0000
0100
0010
,
1000
0000
0000
0001
,
0000
0000
1000
1000
,
1001
0000
0000
0000
,
0110
0000
0000
0000
,
0110
0000
0000
0000
,
1001
0000
0000
0000
,
0110
0000
0000
0000
,
0110
0000
0000
0000
,
1001
0000
0000
0000
,
1001
0000
0000
0000
,
0110
0000
0000
0000
,
0000
0000
0000
0000
,
0010
0000
0000
0000
,
0100
0000
0000
0000
,
1000
0000
0000
0000
,
0001
0000
0000
0000
,
1000
0000
1000
0000
,
1000
0000
1000
0000
,
1001
0000
0010
0010
,
0000
0000
0100
0100
,
0000
0000
1000
1000
,
0000
0000
0001
0001
,
0000
0000
1000
0000
,
0001
0000
0100
0000
,
0010
0000
0010
0000
,
0100
0000
0000
0000
,
0000
1000
0001
1000
,
0001
1000
0001
0000
,
0000
0100
0010
0100
,
0010
0100
0010
0100
,
0010
0000
0010
0000
,
0010
0000
0010
0000
,
0100
0100
0100
0100
,
0100
0100
0100
0000
,
1001
0000
0001
0000
,
1000
0000
0001
0000
,
1001
0000
0010
0000
,
0100
0000
0010
0000
,
0110
0000
0010
0000
,
0010
0000
0100
0000
,
0001
0001
1000
1000
,
1001
0000
0110
0000
,
1001
0000
0000
0000
;
