#TITLE:mosaic;
#SUBTITLE:;
#ARTIST:Auridy;
#TITLETRANSLIT:;
#SUBTITLETRANSLIT:;
#ARTISTTRANSLIT:;
#CREDIT:;
#BANNER:bn.png;
#BACKGROUND:bg.png;
#LYRICSPATH:;
#CDTITLE:;
#MUSIC:32 - mosaic.mp3;
#OFFSET:-0.060;
#SAMPLESTART:2.920;
#SAMPLELENGTH:12.000;
#SELECTABLE:YES;
#DISPLAYBPM:188;
#BPMS:0.000=188.000,198.000=752.002,214.000=188.002;
#STOPS:194.500=0.319
,197.500=0.638
;
#BGCHANGES:;

//---------------dance-single - ----------------
#NOTES:
     dance-single:
     :
     Hard:
     9:
     0.622,0.714,0.019,0.000,0.061:
0000
0000
0000
0000
,
0000
0000
0000
0000
,
0000
1000
0100
0010
,
0001
0100
0000
0001
0000
0001
0100
0000
,
1000
0000
0001
0000
0001
1000
0000
0001
,
0100
0010
0000
0010
0000
0001
1000
0000
,
0000
1000
0001
0100
,
0001
0010
0000
0010
0000
0001
0010
0000
,
1000
0000
0001
0000
1000
0001
0000
0010
,
0001
0100
0000
0010
0010
1000
0001
0000
,
0000
0000
1000
0100
0001
0010
1000
0100
,
0001
0010
1000
0001
0100
0001
0000
0010
,
0100
0010
1000
0000
1000
0001
0000
0001
,
0010
0001
0000
0001
0000
0001
1000
0000
,
0000
0000
0001
0100
0010
1000
0001
0100
,
0010
1000
0000
0010
0100
0001
0000
1000
,
0001
0100
0001
0000
0001
0010
0000
0001
,
0100
0010
0000
1000
1000
0001
0001
0000
,
0000
0000
0000
0000
1000
0000
0100
0000
1000
0000
0100
0000
1000
0100
1000
0000
,
0100
0000
1000
0000
0001
0000
0010
0000
0001
0000
0010
0000
0001
0010
0001
0000
,
0010
0000
0001
0000
1000
0000
0001
0000
1000
0000
0001
0000
1000
0001
1000
0000
,
0001
1000
0100
0001
0010
0001
0100
0010
,
1000
0000
0100
0000
0010
0000
0001
0000
0010
0000
0001
0000
0010
0001
0010
0000
,
0001
0000
0010
0000
0001
0000
0100
0000
0001
0000
0100
0000
0001
0100
0001
0000
,
0100
0000
0001
0000
1000
0000
0001
0000
0100
0000
0010
0000
1000
0001
0100
0000
,
0010
1000
0100
0000
0100
0000
0100
0000
,
0100
0000
1000
0100
0100
0100
0000
0000
,
0000
0000
0001
0010
0010
0010
0000
0000
,
0000
0000
0001
0100
0100
0100
0000
0000
,
0000
0000
0010
1000
1000
1000
0000
0000
,
0000
0000
1000
0000
0001
0000
0010
0001
,
0100
0010
0100
0000
1000
0000
0001
0010
,
0001
0100
0010
0000
1000
0000
0001
1000
,
0001
0010
0001
0000
0001
0000
1000
0000
,
1000
0000
0001
0100
0010
1000
0100
0010
,
0001
1000
0001
0010
0001
0100
0001
0010
,
0001
0100
0010
0000
1000
1000
0000
0001
,
0001
0001
0000
0010
0010
0010
0010
0000
,
0000
0000
0000
0000
1000
0000
0001
0000
1000
0000
0001
0000
1000
0001
1000
0000
,
0001
0000
1000
0000
0100
0000
1000
0000
0100
0000
1000
0000
0100
1000
0100
0000
,
1000
0000
0100
0000
0010
0000
0100
0000
0010
0000
0100
0000
0010
0100
0010
0000
,
0100
0010
1000
1000
0001
0001
0010
0010
,
0001
0000
0001
0000
0100
0000
0001
0000
0010
0000
0001
0000
0100
0001
0100
0000
,
0001
0000
0010
0000
0001
0000
0100
0000
0010
0000
1000
0000
0100
1000
0100
0000
,
1000
0000
0001
0000
0010
0000
0100
0000
0010
0000
0001
0000
1000
0001
1000
0000
,
0001
0100
0010
0100
0001
1000
0001
0010
,
0001
0100
0010
0100
0001
1000
0001
0010
,
0001
0100
0010
0010
0100
0100
0010
0010
,
1000
1000
0001
0001
1000
0001
0000
1000
,
0001
0010
0001
0000
0110
0000
0000
0000
,
0000
0000
0000
0000
,
0000
0000
0000
0000
,
0000
0000
0000
0000
,
0000
0000
1000
0001
,
0010
0000
0001
0010
0000
0001
0000
1000
,
0100
0000
0001
0000
1000
0000
0001
0100
,
0000
0001
0010
0001
0000
1000
0000
0001
,
0010
0000
1000
0001
,
0100
0000
0010
1000
0000
0010
0000
1000
,
0001
0000
0010
0000
0001
0000
0100
0010
,
0000
1000
0001
0100
0000
0010
1000
0100
,
0010
0000
0000
0000
0001
0010
1000
0100
,
0001
0100
0010
1000
0001
0010
0100
1000
,
0000
1000
1000
0001
0010
0000
0001
0100
,
0000
0010
1000
0100
0000
1000
0001
0010
,
0001
0000
0000
0000
1000
0001
0010
0001
,
0100
0010
1000
0100
0000
0001
1000
0010
,
0000
0001
0100
0001
0100
0000
0010
0010
,
0000
1000
1000
1000
0000
0001
0001
0001
,
0001
0000
0000
0000
1000
0100
0010
0001
,
1000
0100
0010
0001
0010
0100
1000
0010
,
0000
0100
0100
0010
1000
0000
1000
0100
,
0000
0001
0100
0001
0000
0001
0000
0010
,
0100
0000
0000
0000
1000
0001
0100
0001
,
0010
0001
0100
0010
1000
0100
0010
0001
,
0000
1000
0001
0010
0001
0000
1000
1000
,
0000
0001
0001
0010
0000
1000
0001
0100
,
0010
0000
0000
0000
0000
0100
0010
0010
,
0100
0000
0000
0000
0000
0000
0000
0000
1000
0000
0001
0000
0010
0001
0100
0000
,
0010
1000
0001
0010
0000
0001
0010
1000
,
0001
1001
0000
0000
;

//---------------dance-single - ----------------
#NOTES:
     dance-single:
     :
     Challenge:
     10:
     0.767,1.000,0.862,0.000,0.075:
0000
0000
0000
0000
,
0000
0000
0000
0000
,
0000
0001
0010
0100
,
1000
0010
0000
1000
0000
1000
0010
0000
,
1001
0000
1000
0000
1000
0001
0000
1000
,
0010
0100
0000
0100
0000
1000
1001
0000
,
0000
0001
1000
0010
,
1000
0100
0000
0100
0000
1000
0100
0000
,
0001
0000
1001
0000
0001
1000
0000
0100
,
1000
0010
0000
0110
0110
0011
1100
0000
,
0000
0000
0001
0010
1000
0100
0001
0010
,
1000
0100
0001
1000
0010
1000
0000
0100
,
0010
0100
0001
0000
0001
1000
0000
1000
,
0100
1000
0000
1000
0000
1000
0001
0000
,
0000
0000
1000
0010
0100
0001
1000
0010
,
0100
0001
0000
0100
0010
1000
0000
0001
,
1000
0010
1000
0000
1000
0100
0000
1000
,
0010
0100
0000
0101
0011
1100
1001
0000
,
0000
0000
0000
0000
0001
0000
0010
0000
0001
0000
0010
0000
0001
0010
0001
0000
,
0010
0000
0001
0000
1000
0000
0100
0000
1000
0000
0100
0000
1000
0100
1000
0000
,
0100
0000
1000
0000
0001
0000
1000
0000
0001
0000
1000
0000
0001
1000
0001
0000
,
1000
0001
0010
1000
0100
1000
0010
0100
,
0001
0000
0010
0000
0100
0000
1000
0000
0100
0000
1000
0000
0100
1000
0100
0000
,
1000
0000
0100
0000
1000
0000
0010
0000
1000
0000
0010
0000
1000
0010
1000
0000
,
0010
0000
1000
0000
0001
0000
1000
0000
0010
0000
0100
0000
0001
1000
0010
0000
,
0100
0001
0010
0000
0010
0000
0010
0000
,
0010
0000
0011
0011
0011
0011
0000
0000
,
0000
0000
1100
1100
1100
1100
0000
0000
,
0000
0000
1010
1010
1010
1010
0000
0000
,
0000
0000
0101
0101
0101
0101
0000
0000
,
0000
0000
0001
0000
1000
0000
0100
1000
,
0010
0100
0010
0000
0001
0000
1000
0100
,
1000
0010
0100
0000
0001
0000
1000
0001
,
1000
0100
1000
0000
1000
0000
0001
0000
,
0001
0000
1000
0010
0100
0001
0010
0100
,
1000
0001
1000
0100
1000
0010
1000
0100
,
1000
0010
0100
0000
0011
0011
0000
1100
,
1100
1100
0000
0110
0110
0110
0101
0000
,
0000
0000
0000
0000
0001
0000
1000
0000
0001
0000
1000
0000
0001
1000
0001
0000
,
1000
0000
0001
0000
0010
0000
0001
0000
0010
0000
0001
0000
0010
0001
0010
0000
,
0001
0000
0010
0000
0100
0000
0010
0000
0100
0000
0010
0000
0100
0010
0100
0000
,
0010
0100
0001
0001
1000
1000
0100
0100
,
1000
0000
1000
0000
0010
0000
1000
0000
0100
0000
1000
0000
0010
1000
0010
0000
,
1000
0000
0100
0000
1000
0000
0010
0000
0100
0000
0001
0000
0010
0001
0010
0000
,
0001
0000
1000
0000
0100
0000
0010
0000
0100
0000
1000
0000
0001
1000
0001
0000
,
1000
0010
0100
0010
1000
0001
1000
0100
,
1000
0010
0100
0010
1000
0001
1000
0100
,
1000
0010
0110
0110
1010
1010
0101
0101
,
0011
0011
1100
1100
0011
1100
0000
0001
,
1000
0100
1000
0000
0001
0000
0100
0000
,
0001
0100
0001
0100
,
0001
0100
0001
0100
,
0001
0100
0001
0100
,
0001
0100
0001
1001
,
0110
0000
1000
0100
0000
1100
0000
0001
,
0010
0000
1001
0000
0001
0000
1000
0010
,
0000
1000
0100
1000
0000
1001
0000
1000
,
0100
0000
0011
1100
,
0110
0000
0100
0001
0000
0100
0000
0001
,
1000
0000
0110
0000
1000
0000
0010
0100
,
0000
0001
1000
0010
0000
0100
0001
0010
,
0100
0000
0000
0000
1000
0100
0001
0010
,
1000
0010
0100
0001
1000
0100
0010
0001
,
0000
0001
0001
1000
0100
0000
1000
0010
,
0000
0100
0001
0010
0000
0001
1000
0100
,
1000
0000
0000
0000
0001
1000
0100
1000
,
0010
0100
0001
0010
0000
1000
0001
0100
,
0000
1000
0010
1000
0010
0000
1100
1100
,
0000
0011
0011
0011
0000
1010
1001
1010
,
1100
0000
0000
0000
0001
0010
0100
1000
,
0001
0010
0100
1000
0100
0010
0001
0100
,
0000
0010
0010
0100
0001
0000
0001
0010
,
0000
1000
0010
1000
0000
1000
0000
0100
,
0010
0000
0000
0000
1001
1100
0011
1100
,
1100
1010
0110
0101
0011
0110
1100
1001
,
0000
0000
0001
0100
0001
0100
0001
0100
0010
0000
0000
0000
0101
0000
0011
0000
,
0000
1001
1010
0110
0000
1001
1001
0110
,
0110
0000
0000
0000
0000
1010
0110
0110
,
1001
0000
0000
0000
0000
0000
0000
0000
0001
0000
1000
0000
0100
1000
0010
0000
,
0100
0001
1000
0100
0000
1000
0100
0010
,
0001
1001
0000
0000
;

//---------------dance-single - ----------------
#NOTES:
     dance-single:
     :
     Medium:
     7:
     0.468,0.526,0.009,0.000,0.000:
0000
0000
0000
0000
,
0000
0000
0000
0000
,
0000
1000
0001
1000
,
0000
0001
0000
0100
0000
0010
0100
0000
,
0010
0000
1000
0000
0010
1000
0000
0010
,
1000
0010
0000
1000
0001
1000
0001
0000
,
0000
0001
1000
0001
,
1000
0001
0000
1000
0000
0001
1000
0000
,
0001
0000
1000
0000
0000
1000
0000
0000
,
1000
0001
0000
1000
0001
0100
0001
0000
,
0000
0001
1000
0001
,
0100
0000
0010
1000
0001
1000
0000
0000
,
0100
0000
1000
0000
1000
0001
0000
1000
,
0001
1000
0000
0001
0000
0001
0010
0000
,
0000
1000
0100
0010
,
0001
1000
0000
0001
0100
0001
0000
0000
,
0001
0000
0001
0000
1000
1000
0000
0001
,
1000
0001
0000
0001
0001
0100
0001
0000
,
0000
0001
0001
0001
,
0001
1000
1000
1000
,
1000
0010
0010
0010
,
0010
0000
0100
0001
0100
0001
0100
0001
,
0100
0001
0100
0000
0100
0000
0100
0000
,
0100
0010
0010
0010
,
0010
1000
1000
1000
,
1000
0000
0001
1000
0001
1000
0001
0000
,
0100
0000
0001
0100
0010
1000
0000
0000
,
0000
0000
1000
0001
0010
0001
0000
0000
,
0000
0000
0001
1000
0010
0100
0000
0000
,
0000
0000
0100
0010
1000
0001
0000
0000
,
0000
1000
1000
1000
,
1000
0001
0100
0000
0100
0000
0100
0000
,
0100
0010
1000
0000
1000
0000
1000
0000
,
0001
1000
0000
1000
0000
0100
0010
0000
,
0001
0010
0010
0010
,
0010
0001
0100
0000
0100
0000
0100
0000
,
0100
0010
1000
0000
1000
0001
0000
1000
,
0010
1000
0000
0001
1000
0001
0100
0000
,
0000
0000
0010
0000
0100
0000
0010
0100
,
0010
0000
1000
0000
0001
0000
1000
0001
,
1000
0000
0001
0000
0100
0000
0001
0100
,
0001
0000
1000
0100
1000
0100
1000
0100
,
1000
1000
1000
0001
,
0001
0100
0010
0100
,
0010
0100
0010
0000
0100
0000
0010
0000
,
1000
0001
1000
0001
,
0100
0001
1000
0001
,
0010
0000
1000
0100
1000
0100
0010
0001
,
0010
0100
0001
0100
0010
1000
0000
0000
,
0001
0100
0000
0000
,
0000
0000
0000
0000
,
0000
0000
0000
0000
,
0000
0000
0000
0000
,
0000
0000
1000
0001
,
0100
0000
0001
0100
0000
0100
0000
0100
,
0010
0100
0010
1000
,
0001
1000
0001
0100
,
0001
0000
0001
1000
,
0001
0000
0100
0001
0000
0100
0000
0001
,
0100
0000
0001
0000
0100
0000
0001
0100
,
0000
0010
1000
0010
0000
1000
0000
1000
,
0100
0000
1000
0100
,
0010
0000
0001
0000
1000
0100
0010
0001
,
0000
0000
0000
0000
0001
0000
0100
0001
,
0000
0100
0000
0010
0000
0100
0000
0010
,
0100
0000
0010
0100
,
0010
1000
0001
1000
,
0001
0000
0100
0000
0001
0000
0000
0100
,
0000
0010
0100
0010
0000
0010
0000
0010
,
1000
0000
0000
0000
0001
0100
0001
0100
,
0010
0000
1000
0000
0010
0100
0010
0100
,
0000
0000
0010
0000
1000
0000
0001
1000
,
0000
0100
0000
1000
0000
0100
0000
1000
,
0100
0000
0000
0000
1000
0100
0010
0001
,
0010
0100
0001
0100
0010
1000
0001
0100
,
0000
1000
0100
0010
0001
0000
0001
0001
,
0000
0001
0100
0010
0000
0010
0010
0010
,
1000
0000
0000
0000
0000
0010
0010
0010
,
0100
0000
0000
0000
0010
1000
0010
0100
,
0001
0010
0001
0010
0000
0001
0001
1000
,
0100
1001
0000
0000
;

//---------------dance-single - ----------------
#NOTES:
     dance-single:
     :
     Easy:
     6:
     0.413,0.564,0.009,0.000,0.000:
0000
0000
0000
0000
,
0000
0000
0000
0000
,
0000
0001
1000
0001
,
0100
0001
1000
0001
,
0001
1000
0001
1000
,
0001
1000
1000
1000
,
0000
0010
0100
0010
,
0100
0010
0010
0100
,
0100
0010
1000
0001
,
0100
0000
0000
0001
0100
0001
0100
0000
,
0000
0001
1000
0001
,
0100
0010
0100
0000
,
0010
0010
0100
0010
,
1000
0001
0010
0001
,
0000
0001
0100
0010
,
1000
0100
1000
0100
,
0010
0000
0100
0000
0010
0100
0000
0010
,
1000
0001
0000
0001
1000
0001
1000
0000
,
0000
1000
1000
1000
,
1000
0001
0001
0001
,
0001
0100
0100
0100
,
0100
0010
0010
0010
,
0010
1000
0010
1000
,
0010
0100
0001
0100
,
0001
1000
0001
0100
,
0010
1000
0100
0010
,
0001
0000
1000
0001
1000
0001
0000
0000
,
0000
0000
0001
0100
0001
0100
0000
0000
,
0000
0000
1000
0100
1000
0100
0000
0000
,
0000
0000
0010
0100
0010
0100
0000
0000
,
0000
0010
0010
0010
,
0100
0010
0010
0010
,
1000
0010
0010
0010
,
0100
0010
1000
0001
,
1000
1000
1000
1000
,
1000
0100
1000
1000
,
0100
0000
1000
0000
0100
0010
0000
0001
,
0010
0001
0000
0001
0100
0001
0100
0000
,
0001
0100
0010
0100
,
0000
0010
1000
0001
,
0000
1000
0001
0100
,
0000
0001
0001
0001
,
0001
1000
0001
0100
,
0010
1000
1000
0010
,
0100
0010
1000
0001
,
1000
0001
1000
0100
,
0010
0001
1000
0100
,
0010
0000
0001
0010
0001
0010
0100
1000
,
0100
0010
0001
0010
0100
1000
0000
0000
,
0000
0000
0000
0000
,
0000
0000
0000
0000
,
0000
0000
0000
0000
,
0000
0000
0000
0000
,
0000
0000
0010
0100
,
0010
1000
0010
1000
,
0010
0010
1000
0001
,
0100
0001
0100
0001
,
0010
0000
0001
0100
,
0001
1000
0001
0010
,
0001
0010
0001
0100
,
0010
0000
1000
0000
0000
0001
1000
0010
,
0100
0000
0010
1000
,
0010
0100
0010
1000
,
0001
1000
0001
0001
,
1000
1000
0001
1000
,
0001
0000
0001
0100
,
0010
1000
0100
1000
,
0100
0000
0010
0000
0001
0000
0100
0001
,
0000
0001
0100
0001
0000
0001
1000
0001
,
1000
0000
0001
1000
,
0001
0100
0010
1000
,
0000
0010
1000
0010
,
0100
0010
1000
0010
,
1000
0000
0000
0000
0001
1000
0001
1000
,
0001
1000
0001
1000
0001
1000
0001
1000
,
0001
1000
0001
1000
0001
0000
0001
0100
,
0000
1000
0100
0010
0000
1000
0100
0010
,
0001
0000
0000
0000
0000
0001
0010
0100
,
1000
0000
0001
1000
,
0001
0000
0100
0000
0000
0010
1000
0001
,
0100
1001
0000
0000
;

//---------------dance-single - ----------------
#NOTES:
     dance-single:
     :
     Beginner:
     2:
     0.118,0.188,0.066,0.000,0.000: // measure 1
0000
0000
0000
0000
,  // measure 2
0000
0000
0000
0000
,  // measure 3
0000
0010
0000
0000
,  // measure 4
0000
0000
0000
0000
,  // measure 5
0000
1000
0000
0000
,  // measure 6
0000
0001
0000
0001
,  // measure 7
0000
0001
0000
0000
,  // measure 8
0000
0000
0000
0000
,  // measure 9
0000
1000
0000
0000
,  // measure 10
0000
0000
0010
0010
,  // measure 11
0000
0100
0000
0000
,  // measure 12
0000
0000
0000
0000
,  // measure 13
0000
0010
0000
0000
,  // measure 14
0000
0000
0000
1000
,  // measure 15
0000
0001
0000
0000
,  // measure 16
0000
0000
0000
0000
,  // measure 17
0000
0001
0000
0000
,  // measure 18
0000
0000
1001
1001
,  // measure 19
0000
0010
0000
0000
,  // measure 20
0000
0010
0000
0000
,  // measure 21
0000
0010
0000
0000
,  // measure 22
0000
0010
0000
0010
,  // measure 23
0000
0100
0000
0000
,  // measure 24
0000
0100
0000
0000
,  // measure 25
0000
0100
0000
0000
,  // measure 26
0000
0100
0000
0000
,  // measure 27
0000
1001
0000
0000
,  // measure 28
0000
0110
0000
0000
,  // measure 29
0000
0110
0000
0000
,  // measure 30
0000
1001
0000
0000
,  // measure 31
0000
0001
0000
0000
,  // measure 32
0000
0001
0000
0000
,  // measure 33
0000
1000
0000
0000
,  // measure 34
0000
0000
0000
0000
,  // measure 35
0000
1000
0000
0000
,  // measure 36
0000
0010
0000
0000
,  // measure 37
0000
0100
0000
0100
,  // measure 38
0000
0000
0100
0100
,  // measure 39
0000
0010
0000
0000
,  // measure 40
0000
1000
0000
0000
,  // measure 41
0000
0001
0000
0000
,  // measure 42
0000
1000
0000
0000
,  // measure 43
0000
0001
0000
0000
,  // measure 44
0000
0100
0000
0000
,  // measure 45
0000
0010
0000
0000
,  // measure 46
0000
1000
0000
0000
,  // measure 47
0000
0001
0000
0000
,  // measure 48
0000
0100
0100
0100
,  // measure 49
0100
0100
0100
0000
,  // measure 50
0000
0000
0000
0000
,  // measure 51
0000
0000
0000
0000
,  // measure 52
0000
0000
0000
0000
,  // measure 53
0000
0000
0000
0000
,  // measure 54
0000
0000
0010
0000
,  // measure 55
0000
0000
0000
0000
,  // measure 56
0000
0000
1000
0000
,  // measure 57
0000
0000
0000
0000
,  // measure 58
0000
0000
0001
0000
,  // measure 59
0000
0000
0000
0000
,  // measure 60
0000
0000
0100
0000
,  // measure 61
0000
0000
0000
0100
,  // measure 62
0100
0000
0010
0000
,  // measure 63
0000
0000
1000
0000
,  // measure 64
0000
0000
0001
0000
,  // measure 65
0000
0000
0000
0000
,  // measure 66
0000
0000
1000
0000
,  // measure 67
0000
0000
0000
0000
,  // measure 68
0000
0000
0001
0000
,  // measure 69
0000
0000
0000
0010
,  // measure 70
0010
0000
0100
0000
,  // measure 71
0000
0000
0000
0000
,  // measure 72
0000
0000
1000
0000
,  // measure 73
0000
0000
0000
0000
,  // measure 74
0000
0000
0001
0000
,  // measure 75
0001
0000
0001
0000
,  // measure 76
0000
0000
1000
0000
,  // measure 77
1000
0000
0000
0010
,  // measure 78
0010
0000
0000
0100
,  // measure 79
0100
0000
1000
0000
,  // measure 80
0001
0000
0000
0010
,  // measure 81
0010
1001
0000
0000
;
