#TITLE:moon_child;
#SUBTITLE:;
#ARTIST:Shounen Radio;
#TITLETRANSLIT:;
#SUBTITLETRANSLIT:;
#ARTISTTRANSLIT:;
#CREDIT:;
#BANNER:bn.png;
#BACKGROUND:bg.png;
#LYRICSPATH:;
#CDTITLE:Beatmania IIDX.png;
#MUSIC:moon_child.mp3;
#OFFSET:-9.045;
#SAMPLESTART:21.160;
#SAMPLELENGTH:12.500;
#SELECTABLE:YES;
#DISPLAYBPM:160.000;
#BPMS:0.000=156.000,16.000=160.000,269.000=156.000;
#STOPS:;
#BGCHANGES:;

//---------------dance-single - ----------------
#NOTES:
     dance-single:
     :
     Hard:
     7:
     0.418,0.502,0.242,0.057,0.053:
0000
0000
0000
0000
,
0000
0000
0000
0000
,
0000
0000
0000
0000
,
0000
0000
0000
0000
,
1001
1000
0001
1000
,
0001
0100
0001
0100
,
0001
0100
0010
1000
,
0100
1000
0001
0100
,
0101
0001
0101
0100
,
0110
0010
0110
0010
,
1010
1000
1100
0100
,
1000
0000
0001
0000
1000
0001
0100
0001
,
0010
0001
0100
0010
1000
0100
0000
1000
,
0001
0100
0010
1000
,
1000
0001
0100
0001
0000
0101
0000
0000
,
0001
1000
0010
0000
0100
0010
1000
0000
,
1000
0001
0100
0001
0010
0001
0100
0010
,
1000
1000
0001
0001
,
1000
0001
0100
0010
0000
0010
0000
0000
,
1000
0100
0010
0001
0100
0010
0000
0000
,
0000
0000
0000
1000
,
0001
0000
1000
0100
0000
0001
0010
0000
,
0001
0000
0100
0000
0010
0000
0010
1000
,
0001
1000
0001
0100
0000
0101
0000
0000
,
0000
0000
0000
0000
0000
1000
0100
0000
,
0001
0100
0010
0000
0010
0000
0010
0000
,
0010
1000
0001
0000
0001
0000
1001
0000
,
0001
0100
0010
0000
1000
0000
0001
1000
,
0001
0000
1000
0100
1000
0000
0001
0100
,
0010
1000
0001
1000
0100
0001
0100
0000
,
0110
0000
0010
0100
0010
0100
0000
0100
,
0000
0010
0100
0000
0110
0000
0010
1000
,
0001
0000
1000
0001
0100
0001
0200
0000
,
0000
0010
0010
0000
0010
0000
0310
0000
,
0010
1000
0010
0100
0010
0100
0010
0000
,
0010
0000
0010
1000
0001
0000
1000
0001
,
1000
0001
0100
0001
0100
0000
0101
0001
,
0100
0100
0000
0100
0000
0000
0110
0000
,
0000
0110
0000
0000
1100
0000
0011
0000
,
0001
0101
0010
0110
,
0000
1001
0000
0000
1100
0000
0010
0000
,
0001
0000
0100
0000
0010
0000
1000
0001
,
1000
0002
0000
0000
0003
0000
1000
0100
,
1000
0200
0000
0000
0000
0000
1300
0000
,
0100
0000
0000
1000
0000
0000
0100
0000
0000
1000
0000
0010
,
0100
0000
0001
0010
0000
1000
0100
0000
0000
2000
0000
0000
,
0000
3001
0000
0002
,
0000
0103
0000
0001
,
1000
0001
0100
0001
,
0100
0010
0100
0010
,
0100
0010
1000
0010
,
1000
0010
0100
0110
,
0010
1010
1000
1100
,
0100
1100
1000
1100
,
0100
0110
0010
0011
,
0001
0101
0010
0100
,
0100
0100
0100
0100
,
0100
0000
0000
0100
0000
0000
0100
0000
0000
0010
0000
1000
,
0100
0000
0001
0100
0000
0010
0100
0000
0001
1000
0000
1000
,
0100
0000
0000
0000
0010
0000
0001
0000
0000
0000
0001
0000
0100
0000
0000
0000
0010
0000
0100
0000
0000
0010
0000
0000
,
1000
0000
0001
1000
0001
0100
0000
0001
,
0100
0000
0001
0100
0010
0000
0010
0100
,
0010
1000
0001
1000
0010
1000
0020
0000
,
0000
1030
1000
0100
1000
0100
1000
0000
,
0100
0000
0010
0000
0010
0001
0100
0000
,
0010
0100
0010
0000
0100
0000
0010
0100
,
0010
1000
0001
1000
0010
0100
0001
0100
,
0010
1000
0001
0100
0010
1000
0100
0000
,
0000
0000
0000
0011
,
0000
0000
0000
0000
0001
0001
0100
0000
,
0000
0000
0000
0000
0000
0000
0000
0000
0010
0000
0000
0100
0000
0000
0000
0000
,
0100
0000
0000
0010
0000
0000
0000
0000
0000
0000
0000
0000
0020
0000
0000
0000
,
0000
0000
0000
0000
,
0030
0000
0000
0000
;

//---------------dance-single - ----------------
#NOTES:
     dance-single:
     :
     Medium:
     5:
     0.306,0.502,0.162,0.065,0.000:
0000
0000
0000
0000
,
0000
0000
0000
0000
,
0000
0000
0000
0000
,
0000
0000
0000
0000
,
0010
0010
0010
0010
,
0010
0010
0010
0010
,
1000
1000
1000
1000
,
1000
1000
1000
1000
,
1001
0001
0001
0001
,
0001
0001
0001
0001
,
1001
1000
1001
0001
,
1001
0000
0110
0000
0010
1000
0100
0000
,
1100
0000
1000
0000
0100
1000
0100
0000
,
1000
0100
0010
0001
,
0100
0000
0001
0000
0100
0001
0100
0000
,
0001
0100
0010
1000
,
0001
0000
1000
0000
0001
1000
0001
0000
,
1000
0001
0100
0010
,
1000
0000
0100
0000
1000
0100
1000
0000
,
0100
1000
0001
0000
,
0000
0001
0001
1000
,
0001
0100
0000
0001
,
1000
0100
1000
0010
,
0100
0000
0010
0100
0000
0010
0000
0000
,
0000
0000
0000
0000
0000
0010
0010
0000
,
0010
0010
0000
0000
,
1000
0001
1000
0000
0000
0000
0000
0000
,
1000
0100
1000
0000
0000
0000
0000
0000
,
1000
0001
0100
0020
,
0000
0000
0030
1000
,
0010
0100
0010
1000
,
0001
1000
0100
0010
,
0100
0000
1000
0000
0001
1000
0002
0000
,
0000
0100
0013
0011
,
0001
0000
0100
0010
0100
0000
0010
0000
,
1000
0000
0010
1000
0010
0000
1000
0000
,
1000
0000
1000
0000
1000
0000
1000
0001
,
1000
0001
0000
1000
0000
0000
0001
0000
,
0000
0001
0000
0000
0001
0000
0001
0000
,
1000
0001
0000
0100
,
0000
0010
0000
0000
1000
0000
0100
0000
,
1000
0010
0100
0020
,
0000
0030
0000
0000
0000
0000
0200
0000
,
0000
0300
0000
0000
0000
0000
0010
0000
,
0000
0010
0000
0110
,
0000
0110
0000
2002
,
0000
0000
0000
0000
,
0000
3003
0000
0001
,
0000
0000
0000
1000
,
0000
0000
0000
0010
,
0000
0100
0000
0100
,
0000
0010
0000
1000
,
1000
0001
0001
1000
,
1000
0001
0001
0100
,
0100
0010
0010
0100
,
0100
0010
0010
1000
,
1000
1000
1000
1000
,
1000
1000
1000
1100
,
1001
1010
1100
1010
,
1100
0000
1001
0000
1100
0000
1000
0001
,
1000
0000
0001
0000
0100
0000
0001
0100
,
0001
0000
0100
0000
0010
0000
1000
0010
,
1000
0000
0010
0000
1000
0001
1000
0000
,
0000
0001
1000
0000
0001
0000
0101
0000
,
1000
0000
1100
0000
0100
0000
1000
0001
,
0100
0000
1000
0000
0001
0000
1000
0001
,
1000
0000
0001
0100
0001
0000
0001
0100
,
0010
1000
0200
0000
0000
0000
1300
0000
,
0000
0000
0000
0001
,
0000
0000
0000
0000
1000
0001
1000
0000
,
0000
0000
0001
0000
,
1000
0000
0000
0020
,
0000
0000
0000
0000
,
0030
0000
0000
0000
;

//---------------dance-single - ----------------
#NOTES:
     dance-single:
     :
     Easy:
     4:
     0.230,0.502,0.113,0.081,0.000:
0000
0000
0000
0000
,
0000
0000
0000
0000
,
0000
0000
0000
0000
,
0000
0000
0000
0000
,
0001
0000
0001
0000
,
0001
0000
0001
0000
,
1000
0000
1000
0000
,
1000
0000
1000
0000
,
1001
0000
0001
0000
,
0001
0000
0001
0000
,
1001
0000
1000
0000
,
0001
1000
0100
0000
,
1000
0000
1000
0000
,
1000
0001
0100
0000
,
0100
0000
0100
0000
,
0100
0010
1000
0000
,
1000
0000
1000
0000
,
1000
0010
0100
0000
,
0100
0000
0100
0000
,
0010
1000
0001
0000
,
0000
1001
1001
0001
,
1000
0001
0000
0001
,
0000
0001
0000
0001
,
0100
0000
0010
0000
0000
0010
0000
0000
,
0000
0000
0000
0010
,
1000
0100
0000
1000
,
0001
0100
0000
0001
,
1000
0100
0000
1000
,
1000
0001
0001
0100
,
0010
1000
0001
1001
,
0000
1000
0000
0001
,
0100
0010
1000
0100
,
0000
0100
1000
0020
,
0000
1000
1000
1030
,
0001
1000
0001
0100
,
0010
1000
0100
1000
,
1000
1000
1000
1000
,
0000
0001
0000
0100
0000
0000
0001
0000
,
1000
0001
0100
0010
,
1000
0010
0000
0010
,
1000
0100
0010
0001
,
0010
0100
1000
0002
,
0000
0003
0000
0000
0000
0000
2000
0000
,
0000
3000
0000
0000
0000
0000
0020
0000
,
0000
0000
0000
1000
,
0000
1000
0000
1030
,
0000
0000
0000
0000
,
0000
0000
0000
0002
,
0000
0000
0003
0000
,
2000
0000
0000
3000
,
0020
0000
0000
0000
,
0000
0000
0000
1030
,
0000
1000
0000
0001
,
0000
0001
0000
0100
,
0000
0100
0000
0010
,
0000
0010
0000
1000
,
1000
1000
1000
1000
,
1000
1000
1000
1001
,
1001
1001
1001
1001
,
1001
1001
1001
1001
,
1000
0001
0100
0010
,
1000
0010
0010
1000
,
0100
0010
0001
0020
,
0000
0001
0001
0031
,
0100
0010
1000
0001
,
0001
1000
1000
0001
,
0100
0010
1000
0100
,
0010
0002
0000
1003
,
0000
0000
0000
0010
,
0000
0000
0000
0100
,
0000
0000
0000
0010
,
0000
0000
0000
2000
,
0000
0000
0000
0000
,
3000
0000
0000
0000
;

//---------------dance-single - ----------------
#NOTES:
     dance-single:
     :
     Beginner:
     1:
     0.059,0.118,0.008,0.000,0.000: // measure 1
0000
0000
0000
0000
,  // measure 2
0000
0000
0000
0000
,  // measure 3
0000
0000
0000
0000
,  // measure 4
0000
0000
0000
0000
,  // measure 5
0010
0000
0000
0000
,  // measure 6
0000
0000
0000
0000
,  // measure 7
0001
0000
0000
0000
,  // measure 8
0000
0000
0000
0000
,  // measure 9
1000
0000
0000
0000
,  // measure 10
1000
0000
0000
0000
,  // measure 11
0001
0000
0000
0000
,  // measure 12
0001
0000
0000
0000
,  // measure 13
0100
0000
0000
0000
,  // measure 14
0000
0000
0000
0000
,  // measure 15
0010
0000
0000
0000
,  // measure 16
0000
0000
0000
0000
,  // measure 17
1000
0000
0000
0000
,  // measure 18
0000
0000
0000
0000
,  // measure 19
0001
0000
0000
0000
,  // measure 20
0000
0000
0000
0000
,  // measure 21
0000
0010
0010
0010
,  // measure 22
0000
0000
0000
0010
,  // measure 23
0000
0000
0000
0010
,  // measure 24
0000
0000
0000
0000
,  // measure 25
0000
0000
0000
0001
,  // measure 26
0000
0000
0000
1000
,  // measure 27
0000
0000
0000
1000
,  // measure 28
0000
0000
0000
0001
,  // measure 29
0000
0000
0000
0000
,  // measure 30
0000
0000
0000
0010
,  // measure 31
0000
0000
0000
0010
,  // measure 32
0000
0000
0000
1000
,  // measure 33
0000
0000
0000
0001
,  // measure 34
0000
0000
0000
0001
,  // measure 35
0000
0000
0000
1000
,  // measure 36
0000
0000
0000
0001
,  // measure 37
0000
0001
0000
0001
,  // measure 38
0000
0000
0000
0100
,  // measure 39
0000
0000
0000
0000
,  // measure 40
0000
0000
0000
0010
,  // measure 41
0000
0000
0000
0000
,  // measure 42
0000
0000
0000
0001
,  // measure 43
0000
0000
0000
0001
,  // measure 44
0000
0000
0000
0000
,  // measure 45
0000
0000
0000
0000
,  // measure 46
0000
0000
0000
0010
,  // measure 47
0000
0000
0000
0000
,  // measure 48
0000
0000
0000
1000
,  // measure 49
0000
0000
0000
0000
,  // measure 50
0000
0000
0000
0000
,  // measure 51
0000
0000
0000
0000
,  // measure 52
0000
0000
0000
0010
,  // measure 53
0000
0000
0000
0010
,  // measure 54
0000
0000
0000
0010
,  // measure 55
0000
0000
0000
0000
,  // measure 56
0000
0000
0000
0001
,  // measure 57
0000
0000
0000
0000
,  // measure 58
0000
0000
0000
1001
,  // measure 59
0000
0000
0000
0000
,  // measure 60
0000
0000
0000
1000
,  // measure 61
0000
0000
0000
0001
,  // measure 62
0000
0000
0000
0100
,  // measure 63
0000
0000
0000
0010
,  // measure 64
0000
0000
0000
1000
,  // measure 65
0000
0000
0000
0001
,  // measure 66
0000
0000
0000
1000
,  // measure 67
0000
0000
0000
0001
,  // measure 68
0000
1000
0000
0001
,  // measure 69
0000
0000
0000
0000
,  // measure 70
0000
0000
0000
0000
,  // measure 71
0000
0000
0000
0000
,  // measure 72
0000
0000
0000
0000
,  // measure 73
0000
0000
0000
0000
,  // measure 74
0001
0000
0000
0000
;
