#TITLE:lower world;
#SUBTITLE:;
#ARTIST:DJ SETUP;
#TITLETRANSLIT:;
#SUBTITLETRANSLIT:;
#ARTISTTRANSLIT:;
#CREDIT:;
#BANNER:bn.png;
#BACKGROUND:bg.png;
#LYRICSPATH:;
#CDTITLE:Beatmania IIDX.png;
#MUSIC:DJ Setup - Lower World.mp3;
#OFFSET:-0.070;
#SAMPLESTART:97.570;
#SAMPLELENGTH:12.350;
#SELECTABLE:YES;
#DISPLAYBPM:160.000;
#BPMS:0.000=155.000,160.000=310.000,160.500=360.000,161.000=400.000,161.500=450.000,162.000=400.000,162.500=360.000,163.000=290.000,163.500=200.000,164.000=155.000,164.500=110.000,164.750=70.000,165.000=50.000,165.250=35.000,165.500=25.000,165.750=20.000,166.000=15.000,166.500=10.000,167.000=77.500,185.000=155.000,212.000=77.500,213.500=155.000;
#STOPS:167.000=0.940
,213.500=0.570
;
#BGCHANGES:;

//---------------dance-single - ----------------
#NOTES:
     dance-single:
     :
     Hard:
     7:
     0.404,0.460,0.101,0.265,0.058:
0000
0000
0000
0000
,
0000
0000
0000
0000
,
0000
0000
0000
0000
,
0000
0000
0000
0000
,
0000
0000
0000
0000
,
0000
0000
0000
0000
,
0000
0000
0000
0000
,
0000
0000
0000
0000
,
1000
0001
0100
0000
0010
1000
0001
0010
,
0100
0000
1100
0000
1000
0001
0100
0001
,
0010
0000
0011
0000
0001
0010
0001
0100
,
0010
0000
1010
0000
1000
0001
0200
0310
,
2000
0000
3100
0000
1000
0001
0100
0010
,
1000
0000
1010
0000
1000
0001
0100
0010
,
1000
0000
1100
0000
1000
0100
0001
0010
,
0200
0000
0000
0000
0000
0000
0300
0010
,
0010
0010
1000
0001
0000
1000
0001
0100
,
0000
0100
0010
1000
0000
1000
0001
0100
,
0001
0010
0001
0100
0000
0010
1000
0001
,
0000
0001
0010
0100
0000
0010
0100
1000
,
0001
0100
0100
0100
0000
0010
0010
0010
,
0000
1000
0001
1000
0000
0001
0100
0001
,
0000
0010
1000
0010
0000
1000
0100
1000
,
0000
1000
0001
0100
0001
0010
0011
0000
,
1000
0000
0001
0000
0100
0000
0000
0100
0000
0000
0010
0000
1000
0000
0000
0100
,
0000
0000
1000
0000
0001
0000
0000
0100
0000
0000
0010
0000
1010
0000
0000
0100
,
0000
0000
0010
0000
1000
0000
0000
0100
0000
0000
0001
0000
0010
0000
0000
0001
,
0000
0000
0100
0000
0010
0000
0000
1000
0000
0000
0010
0000
0110
0000
0000
0100
,
0000
0000
0010
0000
1000
0000
0000
1000
0000
0000
0001
0000
0100
0000
0000
0010
,
0000
0000
0010
0000
1000
0000
0000
0100
0000
0000
1000
0000
0100
0000
0000
0001
,
0000
0000
0001
0000
0010
0000
0000
0100
0000
0000
1000
0000
0001
0000
0000
0100
,
0000
0000
0010
0000
1000
0000
0000
0100
0000
0000
0001
0000
0010
0000
0000
0000
,
0000
1000
1001
0000
0000
0001
0001
0000
,
0000
1000
1000
0000
0000
0100
0100
0000
,
0000
0010
0010
0000
0000
1000
1000
0000
,
0000
0001
0001
0000
0000
1000
1000
0000
,
1001
0001
0100
0000
1000
0000
0001
0000
,
1001
0001
1000
0000
0001
0000
1000
0000
,
1001
0001
1000
0000
1001
0001
1000
0000
,
0001
0100
0010
1000
0100
0010
0001
0100
,
0002
0000
0000
0000
,
0000
0000
0000
0003
,
2000
0000
3001
0010
0100
0010
0002
0000
,
0203
0310
0100
0000
0020
0000
2030
0000
,
3002
0203
0320
2030
,
3200
2300
3020
0230
,
0302
1003
0001
0100
,
0010
1000
0010
0100
,
0010
1000
0001
0000
1000
0000
0100
0000
,
0010
0010
0100
1000
,
1000
0100
0010
0000
0001
0000
0100
0000
,
0010
1000
0010
0100
,
0010
1000
0002
0000
0000
0000
0203
0000
,
0000
0320
0000
1030
0001
0100
0010
0100
,
0000
0010
1000
0001
0000
0010
0100
0010
,
0000
0010
0001
0010
0200
0000
0310
0000
,
0020
0031
0200
0301
,
0020
0130
0020
1030
,
0002
0103
2000
3100
,
0020
0130
2000
3100
,
0020
0031
0002
0000
,
0200
0000
0303
0000
0001
0100
0010
0000
,
0001
0100
0010
0000
0001
0100
0010
0000
,
0001
0100
0010
0000
1000
0100
0010
0000
,
1000
0100
0010
0000
1000
0010
0100
0000
,
1000
0100
0010
0000
0000
0010
0100
0000
,
0000
0010
0001
0000
0000
0001
0100
0000
,
0000
1000
0100
0000
1000
0100
0010
0000
,
0001
0010
0100
0000
0001
0010
0100
0000
,
1000
0100
0020
0000
0031
0000
0000
0000
;

//---------------dance-single - ----------------
#NOTES:
     dance-single:
     :
     Medium:
     5:
     0.272,0.377,0.047,0.187,0.000:
0000
0000
0000
0000
,
0000
0000
0000
0000
,
0000
0000
0000
0000
,
0000
0000
0000
0000
,
0000
0000
0000
0000
,
0000
0000
0000
0000
,
0000
0000
0000
0000
,
0000
0000
0000
0000
,
1000
0001
0100
0010
,
1000
0010
0100
0010
,
1000
0001
0100
0010
,
1000
0000
0100
0000
1000
0000
0010
1000
,
0010
1000
0010
0100
,
0010
1000
0001
0100
,
0001
0010
0001
0100
,
0020
0000
0000
0030
,
1000
0001
0100
0010
,
1000
0010
0100
0010
,
1000
0001
1000
0001
,
0100
0010
1000
0001
,
0000
1000
0001
1000
0000
0001
0100
0001
,
0000
1000
0100
1000
0000
0010
1000
0010
,
0000
0001
0100
0001
0000
1000
0001
1000
,
0000
0001
0100
0001
0000
0001
1001
0000
,
0001
1000
0001
0100
,
0010
0000
1000
0000
0100
1000
0100
0000
,
1000
0100
0010
0001
,
0010
0000
0100
0000
1000
0001
0100
0000
,
0100
0010
0100
0010
,
1000
0000
0001
0000
0100
0010
1000
0000
,
0001
0000
1000
0000
0001
1000
0001
0000
,
1000
0000
0001
0000
0100
0010
1000
0000
,
0000
0010
1000
0000
0000
0010
1000
0000
,
0000
0010
1000
0000
0000
0010
1000
0000
,
0000
0001
0100
0000
0000
0001
0100
0000
,
0000
0001
0100
0000
0000
0001
0100
0000
,
0000
0001
0010
0000
0000
0001
0010
0000
,
0000
1000
0100
0000
0000
1000
0100
0000
,
0000
0010
0100
0000
0000
1000
0001
0000
,
1001
0110
1001
0110
,
2002
0000
0000
0000
,
0000
0000
0000
0000
0000
3003
0000
0000
,
0000
1000
0001
0100
,
0010
1000
0020
2030
,
3020
2000
0000
0030
,
0000
3000
0000
0000
,
0000
0001
0000
0001
,
0000
1000
0000
1000
,
0000
0010
0000
0200
,
0000
0320
0000
1000
,
0000
2030
0000
3002
,
0000
0100
0000
0010
,
0000
2000
0000
0000
,
0000
0000
0000
3003
0001
1000
0001
0000
,
1000
0001
0100
0010
,
1000
0010
1000
0000
0020
0000
0000
0000
,
2030
0000
3200
0000
,
2300
0000
3020
0000
,
0230
0000
0302
0000
,
0023
0000
0032
0000
,
0203
0000
0320
0000
,
2000
0000
3030
0000
0000
0001
1000
0000
,
0000
0001
0100
0000
0000
0010
1000
0000
,
0000
1000
0100
0000
0000
0010
0001
0000
,
0000
0001
0100
0000
0000
0100
0010
0000
,
0000
0010
1000
0000
0000
0001
1000
0000
,
0000
0001
0100
0000
0000
1000
0100
0000
,
0000
0010
0001
0000
0000
0001
0100
0000
,
0000
0010
1000
0000
0000
1000
0100
0000
,
0000
0010
0001
0000
0000
0000
0000
0000
;

//---------------dance-single - ----------------
#NOTES:
     dance-single:
     :
     Easy:
     3:
     0.193,0.298,0.101,0.140,0.000:
0000
0000
0000
0000
,
0000
0000
0000
0000
,
0000
0000
0000
0000
,
0000
0000
0000
0000
,
0000
0000
0000
0000
,
0000
0000
0000
0000
,
0000
0000
0000
0000
,
0000
0000
0000
0000
,
0001
0000
1000
0001
,
0100
0000
0010
1000
,
0100
0000
1000
0100
,
1000
0000
0010
1000
,
0002
0003
1000
0001
,
0100
0000
0001
1000
,
0010
0000
0010
1000
,
0200
0000
0300
0000
,
1000
1000
0001
0000
,
0001
0100
0010
0000
,
0010
1000
0100
0000
,
0100
1000
0010
0000
,
0010
0000
0010
0000
,
1000
0000
0001
0000
,
0100
0000
0010
0000
,
1000
0000
0001
0000
,
1001
0000
0001
0000
,
1000
0000
0001
1001
,
1000
0000
1000
0000
,
1000
0000
1000
1010
,
0010
0000
0010
0000
,
0010
0000
0010
0110
,
0100
0000
0100
0000
,
0100
0000
0100
0000
,
0000
0001
0000
1000
,
0000
0001
0000
0100
,
0000
0010
0000
1000
,
0000
0010
0000
0100
,
0000
0110
0000
0010
,
0000
1010
0000
1000
,
1100
0010
0011
0001
,
1000
0001
0100
0010
,
2000
0000
0000
0000
,
0000
0000
0000
3000
,
0000
0020
0000
0000
,
0030
0000
1000
0001
,
0100
0001
0010
0001
,
0100
0020
0000
2000
,
3030
1000
0000
1000
,
0000
0001
0000
0001
,
0000
0001
0000
1000
,
0000
0001
0000
0100
,
0000
0010
0000
1000
,
0000
0010
0000
0100
,
0000
0010
0000
1000
,
0000
0000
1001
0001
,
0100
0001
0000
0001
,
1000
0100
2000
3000
,
0002
0003
0200
0300
,
0020
0030
0020
0030
,
2000
3000
0002
0003
,
0200
0300
0020
0030
,
2000
3000
0200
0300
,
2000
3000
0000
1000
,
0000
0001
0000
0100
,
0000
0010
0000
0010
,
0000
1000
0000
0010
,
0000
0110
0000
0010
,
0000
1000
0000
0001
,
0000
1000
1001
0000
,
1001
0000
0001
0000
,
0001
1000
1001
0000
;

//---------------dance-single - ----------------
#NOTES:
     dance-single:
     :
     Beginner:
     1:
     0.063,0.189,0.039,0.000,0.000: // measure 1
0000
0000
0000
0000
,  // measure 2
0000
0000
0000
0000
,  // measure 3
0000
0000
0000
0000
,  // measure 4
0000
0000
0000
0000
,  // measure 5
0000
0000
0000
0000
,  // measure 6
0000
0000
0000
0000
,  // measure 7
0000
0000
0000
0000
,  // measure 8
0000
0000
0000
0000
,  // measure 9
0010
0000
0000
0000
,  // measure 10
0010
0000
0000
0000
,  // measure 11
1000
0000
0000
0000
,  // measure 12
0001
0000
0000
0000
,  // measure 13
1001
0000
0000
0000
,  // measure 14
1000
0000
0000
0000
,  // measure 15
0010
0000
0000
0000
,  // measure 16
0000
0000
0000
0000
,  // measure 17
0010
0000
0000
0000
,  // measure 18
0000
0000
0000
0000
,  // measure 19
1000
0000
0000
0000
,  // measure 20
0000
0000
0000
0000
,  // measure 21
0001
0000
0000
0000
,  // measure 22
0001
0000
0000
0000
,  // measure 23
1000
0000
0000
0000
,  // measure 24
1000
0000
0000
0000
,  // measure 25
0000
0000
0000
0000
,  // measure 26
0000
0000
0000
0010
,  // measure 27
0000
0000
0000
0000
,  // measure 28
0000
0000
0000
1000
,  // measure 29
0000
0000
0000
0001
,  // measure 30
0000
0000
0000
1000
,  // measure 31
0000
0000
0000
0010
,  // measure 32
0000
0000
0000
0000
,  // measure 33
0000
0100
0000
0100
,  // measure 34
0000
0100
0000
0000
,  // measure 35
0000
0010
0000
0010
,  // measure 36
0000
0010
0000
0000
,  // measure 37
1001
0000
0000
0000
,  // measure 38
0010
0000
0000
0000
,  // measure 39
0110
0000
0010
0000
,  // measure 40
1001
0000
1000
0000
,  // measure 41
0001
0000
0000
0000
,  // measure 42
0000
0000
0000
0000
,  // measure 43
0000
0010
0000
0000
,  // measure 44
0000
0000
0000
0000
,  // measure 45
0000
0000
0000
0000
,  // measure 46
0000
0000
0000
0000
,  // measure 47
0000
1000
0000
0000
,  // measure 48
0000
0000
0000
0000
,  // measure 49
0000
0001
0000
0000
,  // measure 50
0000
0000
0000
0000
,  // measure 51
0000
0100
0000
0000
,  // measure 52
0000
0000
0000
0000
,  // measure 53
0000
0010
0000
0000
,  // measure 54
0000
0000
1000
0000
,  // measure 55
0000
0000
0001
0000
,  // measure 56
0000
0000
0100
0000
,  // measure 57
0000
0000
0010
0000
,  // measure 58
0000
0000
1000
0000
,  // measure 59
0000
0000
1000
0000
,  // measure 60
0000
0000
0001
0000
,  // measure 61
0000
0000
0100
0000
,  // measure 62
0000
0000
0010
0000
,  // measure 63
0000
0000
0010
0000
,  // measure 64
0000
0000
1000
0000
,  // measure 65
0000
0000
0001
0000
,  // measure 66
0000
0000
1000
0000
,  // measure 67
0000
0000
0001
0000
,  // measure 68
0000
0000
0100
0000
,  // measure 69
0000
0000
0000
0000
,  // measure 70
0000
0000
1001
0000
;
